osu file format v14

[General]
AudioFilename: Poupee de souhaits.mp3
AudioLeadIn: 0
PreviewTime: 78739
Countdown: 0
SampleSet: Normal
StackLeniency: 0.7
Mode: 1
LetterboxInBreaks: 0
WidescreenStoryboard: 0

[Editor]
Bookmarks: 17601,30842,44083,50704,63946,78842,92083
DistanceSpacing: 0.6
BeatDivisor: 4
GridSize: 8
TimelineZoom: 1.8

[Metadata]
Title:Towa naru Kizuna to Omoi no Kiseki
TitleUnicode:永遠なる絆と想いのキセキ
Artist:nao
ArtistUnicode:nao
Creator:milr_
Version:Futsuu
Source:恋する少女と想いのキセキ~Poupee de souhaits~
Tags:Koi Suru Doll TKS TKSalt 404 AccNotFound
BeatmapID:640019
BeatmapSetID:283049

[Difficulty]
HPDrainRate:4
CircleSize:2
OverallDifficulty:5
ApproachRate:10
SliderMultiplier:1.4
SliderTickRate:1

[Events]
//Background and Video events
0,0,"BG.jpg",0,0
//Break Periods
//Storyboard Layer 0 (Background)
//Storyboard Layer 1 (Fail)
//Storyboard Layer 2 (Pass)
//Storyboard Layer 3 (Foreground)
//Storyboard Sound Samples

[TimingPoints]
1120,352.941176470588,5,1,0,50,1,0
6414,352.941176470588,6,1,0,50,1,0
8531,352.941176470588,5,1,0,50,1,0
13825,352.941176470588,6,1,0,50,1,0
15942,206.896551724138,4,1,0,80,1,0
15942,-153.846153846154,4,1,0,80,0,0
78838,-153.846153846154,4,1,0,80,0,1
92079,-153.846153846154,4,1,0,80,0,0

[HitObjects]
166,184,2884,5,0,0:0:0:0:
250,159,3943,1,8,0:0:0:0:
250,159,4649,1,0,0:0:0:0:
250,159,5708,1,8,0:0:0:0:
250,159,6414,1,0,0:0:0:0:
250,159,7472,1,8,0:0:0:0:
371,183,8178,1,8,0:0:0:0:
250,159,8531,1,0,0:0:0:0:
250,159,9589,1,8,0:0:0:0:
250,159,10295,1,0,0:0:0:0:
250,159,11354,1,8,0:0:0:0:
250,159,12060,1,0,0:0:0:0:
250,159,13119,1,8,0:0:0:0:
250,159,13825,1,0,0:0:0:0:
250,159,14883,1,8,0:0:0:0:
171,195,15942,1,0,0:0:0:0:
171,195,16148,1,8,0:0:0:0:
266,171,16355,1,8,0:0:0:0:
266,171,16562,1,0,0:0:0:0:
266,171,16769,1,0,0:0:0:0:
266,171,17183,1,8,0:0:0:0:
266,171,17597,1,4,0:0:0:0:
266,171,17804,1,8,0:0:0:0:
234,152,18217,1,8,0:0:0:0:
234,152,18631,1,0,0:0:0:0:
234,152,18838,1,8,0:0:0:0:
234,152,19045,1,8,0:0:0:0:
266,171,19252,1,0,0:0:0:0:
266,171,19459,1,8,0:0:0:0:
234,152,19873,1,8,0:0:0:0:
234,152,20286,1,8,0:0:0:0:
234,152,20493,1,0,0:0:0:0:
234,152,20700,1,8,0:0:0:0:
266,171,20907,1,0,0:0:0:0:
266,171,21114,1,8,0:0:0:0:
234,152,21528,1,8,0:0:0:0:
234,152,21942,1,0,0:0:0:0:
234,152,22148,1,8,0:0:0:0:
234,152,22355,1,8,0:0:0:0:
266,171,22562,1,0,0:0:0:0:
266,171,22769,1,8,0:0:0:0:
234,152,23183,1,8,0:0:0:0:
234,152,23597,1,8,0:0:0:0:
196,163,23804,1,0,0:0:0:0:
196,163,24010,1,8,0:0:0:0:
266,171,24217,1,0,0:0:0:0:
266,171,24424,1,8,0:0:0:0:
234,152,24838,1,8,0:0:0:0:
234,152,25252,1,0,0:0:0:0:
234,152,25459,1,8,0:0:0:0:
266,171,25666,1,8,0:0:0:0:
234,152,25873,1,0,0:0:0:0:
239,156,26079,1,8,0:0:0:0:
234,152,26493,1,8,0:0:0:0:
234,152,26907,1,8,0:0:0:0:
234,152,27114,1,0,0:0:0:0:
234,152,27321,1,8,0:0:0:0:
266,171,27528,1,0,0:0:0:0:
266,171,27735,1,8,0:0:0:0:
234,152,28148,1,8,0:0:0:0:
234,152,28562,1,0,0:0:0:0:
234,152,28769,1,8,0:0:0:0:
234,152,28976,1,8,0:0:0:0:
266,171,29183,1,0,0:0:0:0:
266,171,29390,1,8,0:0:0:0:
266,171,29804,1,8,0:0:0:0:
234,152,30217,1,8,0:0:0:0:
196,163,30424,1,8,0:0:0:0:
196,163,30631,1,8,0:0:0:0:
266,171,30838,1,0,0:0:0:0:
234,152,31148,1,8,0:0:0:0:
266,171,31666,1,0,0:0:0:0:
266,171,31976,1,8,0:0:0:0:
266,171,32493,1,8,0:0:0:0:
266,171,32700,1,8,0:0:0:0:
266,171,32907,1,0,0:0:0:0:
266,171,33114,1,8,0:0:0:0:
234,152,33321,1,0,0:0:0:0:
234,152,33631,1,0,0:0:0:0:
234,152,33942,1,8,0:0:0:0:
266,171,34148,1,0,0:0:0:0:
234,152,34459,1,8,0:0:0:0:
266,171,34976,1,0,0:0:0:0:
266,171,35286,1,8,0:0:0:0:
266,171,35804,1,8,0:0:0:0:
266,171,36010,1,8,0:0:0:0:
266,171,36217,1,0,0:0:0:0:
266,171,36424,1,8,0:0:0:0:
234,152,36631,1,8,0:0:0:0:
234,152,37045,1,0,0:0:0:0:
234,152,37252,1,8,0:0:0:0:
266,171,37459,1,0,0:0:0:0:
234,152,37769,1,8,0:0:0:0:
266,171,38286,1,0,0:0:0:0:
266,171,38597,1,8,0:0:0:0:
266,171,39114,1,8,0:0:0:0:
266,171,39321,1,8,0:0:0:0:
266,171,39528,1,0,0:0:0:0:
266,171,39735,1,8,0:0:0:0:
234,152,39942,1,4,0:0:0:0:
270,180,40355,1,12,0:0:0:0:
272,184,40562,1,0,0:0:0:0:
266,171,40769,1,0,0:0:0:0:
234,152,41183,1,8,0:0:0:0:
266,171,41597,1,0,0:0:0:0:
266,171,42010,1,8,0:0:0:0:
266,171,42424,1,0,0:0:0:0:
266,171,42838,1,0,0:0:0:0:
266,171,43045,1,0,0:0:0:0:
234,152,43252,1,8,0:0:0:0:
234,152,43459,1,8,0:0:0:0:
234,152,43666,1,8,0:0:0:0:
234,152,43873,1,8,0:0:0:0:
266,171,44079,1,4,0:0:0:0:
266,171,44286,1,8,0:0:0:0:
234,152,44700,1,8,0:0:0:0:
240,152,45114,1,8,0:0:0:0:
240,152,45528,1,8,0:0:0:0:
266,171,45735,1,0,0:0:0:0:
266,171,45942,1,8,0:0:0:0:
234,152,46355,1,8,0:0:0:0:
234,152,46769,1,8,0:0:0:0:
234,152,46976,1,0,0:0:0:0:
234,152,47183,1,8,0:0:0:0:
266,171,47390,1,0,0:0:0:0:
266,171,47597,1,8,0:0:0:0:
234,152,48010,1,8,0:0:0:0:
234,152,48424,1,8,0:0:0:0:
234,152,48838,1,8,0:0:0:0:
266,171,49045,1,0,0:0:0:0:
266,171,49252,1,8,0:0:0:0:
234,152,49666,1,8,0:0:0:0:
234,152,50079,1,8,0:0:0:0:
196,163,50286,1,8,0:0:0:0:
196,163,50493,1,8,0:0:0:0:
266,171,50700,1,0,0:0:0:0:
234,152,51010,1,8,0:0:0:0:
266,171,51528,1,0,0:0:0:0:
266,171,51838,1,8,0:0:0:0:
266,171,52355,1,8,0:0:0:0:
266,171,52562,1,8,0:0:0:0:
266,171,52769,1,0,0:0:0:0:
266,171,52976,1,8,0:0:0:0:
234,152,53183,1,0,0:0:0:0:
234,152,53493,1,0,0:0:0:0:
234,152,53804,1,8,0:0:0:0:
266,171,54010,1,0,0:0:0:0:
234,152,54321,1,8,0:0:0:0:
266,171,54838,1,0,0:0:0:0:
234,152,55148,1,8,0:0:0:0:
266,171,55666,1,8,0:0:0:0:
266,171,55873,1,8,0:0:0:0:
266,171,56079,1,8,0:0:0:0:
266,171,56286,1,0,0:0:0:0:
234,152,56493,1,8,0:0:0:0:
234,152,56907,1,0,0:0:0:0:
234,152,57114,1,8,0:0:0:0:
266,171,57321,1,0,0:0:0:0:
234,152,57631,1,8,0:0:0:0:
266,171,58148,1,0,0:0:0:0:
234,152,58459,1,8,0:0:0:0:
266,171,58976,1,8,0:0:0:0:
266,171,59183,1,8,0:0:0:0:
266,171,59390,1,0,0:0:0:0:
266,171,59597,1,8,0:0:0:0:
234,152,59804,1,0,0:0:0:0:
234,152,60217,1,0,0:0:0:0:
234,152,60424,1,8,0:0:0:0:
266,171,60631,1,0,0:0:0:0:
234,152,61045,1,8,0:0:0:0:
266,171,61459,1,0,0:0:0:0:
264,168,61873,1,8,0:0:0:0:
266,171,62286,1,8,0:0:0:0:
266,171,62700,1,0,0:0:0:0:
234,152,63114,1,8,0:0:0:0:
234,152,63321,1,0,0:0:0:0:
281,172,63528,1,8,0:0:0:0:
281,172,63735,1,8,0:0:0:0:
252,137,63942,1,4,0:0:0:0:
234,127,64562,1,0,0:0:0:0:
348,191,64769,1,8,0:0:0:0:
138,164,65183,1,0,0:0:0:0:
252,137,65597,1,12,0:0:0:0:
348,191,66217,1,0,0:0:0:0:
338,186,66424,1,8,0:0:0:0:
138,164,66838,1,8,0:0:0:0:
252,137,67252,1,4,0:0:0:0:
252,137,67873,1,0,0:0:0:0:
348,191,68079,1,8,0:0:0:0:
138,164,68493,1,0,0:0:0:0:
252,137,68907,1,12,0:0:0:0:
247,130,69528,1,0,0:0:0:0:
348,191,69735,1,8,0:0:0:0:
245,132,69942,1,0,0:0:0:0:
138,164,70148,1,8,0:0:0:0:
226,121,70355,1,8,0:0:0:0:
231,129,70562,1,4,0:0:0:0:
231,129,70976,1,8,0:0:0:0:
227,129,71390,1,0,0:0:0:0:
231,129,71597,1,0,0:0:0:0:
231,129,71804,1,8,0:0:0:0:
231,129,72217,1,4,0:0:0:0:
231,129,72631,1,8,0:0:0:0:
231,129,73045,1,0,0:0:0:0:
231,129,73252,1,0,0:0:0:0:
231,129,73459,1,8,0:0:0:0:
231,129,73873,1,4,0:0:0:0:
231,129,74286,1,8,0:0:0:0:
231,129,74700,1,8,0:0:0:0:
231,129,74907,1,0,0:0:0:0:
231,129,75114,1,8,0:0:0:0:
245,210,75528,1,4,0:0:0:0:
245,210,75838,1,4,0:0:0:0:
245,210,76355,1,12,0:0:0:0:
245,210,76666,1,12,0:0:0:0:
245,210,77183,1,4,0:0:0:0:
245,210,77597,1,12,0:0:0:0:
245,210,78010,1,0,0:0:0:0:
245,210,78217,1,0,0:0:0:0:
245,210,78424,1,8,0:0:0:0:
172,157,78838,1,0,0:0:0:0:
268,142,79252,1,8,0:0:0:0:
268,142,79562,1,8,0:0:0:0:
118,123,79873,1,0,0:0:0:0:
172,157,80079,1,8,0:0:0:0:
172,157,80286,1,8,0:0:0:0:
172,157,80493,1,0,0:0:0:0:
268,142,80907,1,8,0:0:0:0:
268,142,81217,1,8,0:0:0:0:
272,144,81735,1,8,0:0:0:0:
272,144,81942,1,8,0:0:0:0:
172,157,82148,1,0,0:0:0:0:
268,142,82562,1,8,0:0:0:0:
268,142,82873,1,8,0:0:0:0:
128,176,83183,1,0,0:0:0:0:
128,176,83390,1,8,0:0:0:0:
128,176,83597,1,0,0:0:0:0:
172,157,83804,1,0,0:0:0:0:
268,142,84217,1,8,0:0:0:0:
268,142,84528,1,8,0:0:0:0:
268,142,84838,1,8,0:0:0:0:
268,142,85045,1,8,0:0:0:0:
268,142,85252,1,8,0:0:0:0:
172,157,85459,1,0,0:0:0:0:
268,142,85873,1,8,0:0:0:0:
268,142,86183,1,8,0:0:0:0:
118,123,86493,1,0,0:0:0:0:
118,123,86700,1,8,0:0:0:0:
172,157,86907,1,8,0:0:0:0:
172,157,87114,1,0,0:0:0:0:
268,142,87528,1,8,0:0:0:0:
268,142,87838,1,8,0:0:0:0:
268,142,88355,1,0,0:0:0:0:
172,157,88562,1,8,0:0:0:0:
172,157,88769,1,0,0:0:0:0:
268,142,89183,1,8,0:0:0:0:
268,142,89493,1,8,0:0:0:0:
112,224,89804,1,0,0:0:0:0:
112,224,90010,1,8,0:0:0:0:
172,157,90217,1,8,0:0:0:0:
172,157,90424,1,0,0:0:0:0:
268,142,90838,1,0,0:0:0:0:
268,142,91045,1,0,0:0:0:0:
268,142,91252,1,8,0:0:0:0:
268,142,91666,1,8,0:0:0:0:
268,142,91873,1,8,0:0:0:0:
266,171,92079,1,4,0:0:0:0:
266,171,92286,1,8,0:0:0:0:
234,152,92700,1,8,0:0:0:0:
234,152,93114,1,8,0:0:0:0:
234,152,93321,1,0,0:0:0:0:
234,152,93528,1,8,0:0:0:0:
266,171,93735,1,0,0:0:0:0:
266,171,93942,1,8,0:0:0:0:
234,152,94355,1,8,0:0:0:0:
234,152,94769,1,0,0:0:0:0:
234,152,94976,1,8,0:0:0:0:
234,152,95183,1,8,0:0:0:0:
266,171,95390,1,0,0:0:0:0:
266,171,95597,1,8,0:0:0:0:
234,152,96010,1,8,0:0:0:0:
234,152,96424,1,8,0:0:0:0:
234,152,96631,1,0,0:0:0:0:
234,152,96838,1,8,0:0:0:0:
266,171,97045,1,0,0:0:0:0:
266,171,97252,1,8,0:0:0:0:
234,152,97666,1,8,0:0:0:0:
196,163,98079,1,8,0:0:0:0:
196,163,98286,1,8,0:0:0:0:
196,163,98493,1,8,0:0:0:0:
266,171,98700,1,0,0:0:0:0:
234,152,98907,1,8,0:0:0:0:
266,171,99321,1,8,0:0:0:0:
234,152,99735,1,8,0:0:0:0:
234,152,99942,1,0,0:0:0:0:
234,152,100148,1,8,0:0:0:0:
266,171,100355,1,0,0:0:0:0:
266,171,100562,1,8,0:0:0:0:
234,152,100976,1,8,0:0:0:0:
234,152,101390,1,0,0:0:0:0:
236,152,101597,1,8,0:0:0:0:
234,152,101804,1,8,0:0:0:0:
266,171,102010,1,0,0:0:0:0:
266,171,102217,1,8,0:0:0:0:
236,152,102631,1,8,0:0:0:0:
234,152,103045,1,8,0:0:0:0:
234,152,103459,1,8,0:0:0:0:
234,152,103666,1,0,0:0:0:0:
266,171,103873,1,8,0:0:0:0:
234,152,104286,1,8,0:0:0:0:
196,163,104700,1,8,0:0:0:0:
196,163,104907,1,8,0:0:0:0:
196,163,105114,1,8,0:0:0:0:
