osu file format v14

[General]
AudioFilename: nice 1.mp3
AudioLeadIn: 0
PreviewTime:145843
Countdown: 0
SampleSet: Soft
StackLeniency: 0.4
Mode: 0
LetterboxInBreaks: 0
WidescreenStoryboard: 1

[Editor]
Bookmarks: 15079,23354,29975,36596,43216,49837,56458,63079,69699,77975,84596,91216,97837,104458,111079,117699,124320,132596,139216,145843,152270,158697,165124,171557,179019,185640,192261,198881,205502,212123,218743
DistanceSpacing: 0.4
BeatDivisor: 4
GridSize: 4
TimelineZoom: 2.6

[Metadata]
Title:Towa naru Kizuna to Omoi no Kiseki
TitleUnicode:永遠なる絆と想いのキセキ
Artist:nao
ArtistUnicode:nao
Creator:VINXIS
Version:apple's Expert
Source:恋する少女(ドール)と想いのキセキ ~Poupee de souhaits~
Tags:rlc xlni natsu mamayu -fuyuyu fuyuyu kanau silky appleeaterx mint left okoratu okorin nasya n_a_s_y_a taeyang mishima yurara anime japanese a girl in love and miracle of feelings 恋する少女と想いのキセキ sugar pot opening visual novel eroge
BeatmapID:1160948
BeatmapSetID:448197

[Difficulty]
HPDrainRate:6
CircleSize:4
OverallDifficulty:8
ApproachRate:9.4
SliderMultiplier:0.999999999999999
SliderTickRate:1

[Events]
//Background and Video events
0,0,"bg.jpg",0,0
//Break Periods
//Storyboard Layer 0 (Background)
//Storyboard Layer 1 (Fail)
//Storyboard Layer 2 (Pass)
//Storyboard Layer 3 (Foreground)
//Storyboard Layer 4 (Overlay)
//Storyboard Sound Samples

[TimingPoints]
266,352.941176470588,5,2,0,5,1,0
266,-100,4,2,0,5,0,0
1324,-100,4,2,0,10,0,0
2030,-100,4,2,0,20,0,0
3795,-100,4,2,0,30,0,0
5560,352.941176470588,6,2,0,40,1,0
5560,-100,6,2,0,40,0,0
7677,352.941176470588,5,2,0,40,1,0
7677,-100,5,2,0,40,0,0
12971,352.941176470588,6,2,0,40,1,0
12971,-100,6,2,0,40,0,0
15079,206.896551724138,4,1,1,50,1,0
15079,-62.5,4,1,1,50,0,0
15285,-62.5,4,1,1,40,0,0
15906,-62.5,4,1,1,70,0,0
16734,-57.1428571428571,4,1,1,70,0,0
19423,-57.1428571428571,4,1,2,70,0,0
20044,-57.1428571428571,4,1,1,70,0,0
26044,-57.1428571428571,4,1,2,70,0,0
26665,-57.1428571428571,4,1,1,70,0,0
29975,-62.5,4,2,1,70,0,0
41975,-62.5,4,1,1,70,0,0
43216,-57.1428571428571,4,1,1,70,0,0
45906,-57.1428571428571,4,1,2,70,0,0
46527,-57.1428571428571,4,1,1,70,0,0
49837,-62.5,4,2,1,70,0,0
63079,-166.666666666667,4,2,1,50,0,0
69699,-133.333333333333,4,2,1,50,0,0
74251,-133.333333333333,4,2,1,70,0,0
74665,-57.1428571428571,4,1,1,70,0,0
77561,-133.333333333333,4,1,1,70,0,0
77975,-52.6315789473684,4,1,1,70,0,1
79010,-52.6315789473684,4,1,2,70,0,1
79630,-52.6315789473684,4,1,1,70,0,1
80665,-52.6315789473684,4,1,2,70,0,1
81285,-52.6315789473684,4,1,1,70,0,1
82320,-52.6315789473684,4,1,2,70,0,1
82941,-52.6315789473684,4,1,1,70,0,1
85630,-52.6315789473684,4,1,2,70,0,1
86251,-52.6315789473684,4,1,1,70,0,1
87285,-52.6315789473684,4,1,2,70,0,1
87906,-52.6315789473684,4,1,1,70,0,1
88941,-52.6315789473684,4,1,2,70,0,1
89561,-52.6315789473684,4,1,1,70,0,1
91216,-57.1428571428571,4,1,1,70,0,0
93906,-57.1428571428571,4,1,2,70,0,0
94527,-57.1428571428571,4,1,1,70,0,0
100527,-57.1428571428571,4,1,2,70,0,0
101147,-57.1428571428571,4,1,1,70,0,0
104458,-600,4,2,1,70,0,0
111079,-62.5,4,2,1,70,0,0
117699,-166.666666666667,4,2,1,50,0,0
124320,-133.333333333333,4,2,1,50,0,0
128872,-133.333333333333,4,2,1,70,0,0
129285,-57.1428571428571,4,1,1,70,0,0
132182,-133.333333333333,4,1,1,70,0,0
132596,-52.6315789473684,4,1,1,70,0,1
133630,-52.6315789473684,4,1,2,70,0,1
134251,-52.6315789473684,4,1,1,70,0,1
135285,-52.6315789473684,4,1,2,70,0,1
135906,-52.6315789473684,4,1,1,70,0,1
136941,-52.6315789473684,4,1,2,70,0,1
137561,-52.6315789473684,4,1,1,70,0,1
140251,-52.6315789473684,4,1,2,70,0,1
140872,-52.6315789473684,4,1,1,70,0,1
141906,-52.6315789473684,4,1,2,70,0,1
142527,-52.6315789473684,4,1,1,70,0,1
143561,-52.6315789473684,4,1,2,70,0,1
144182,-52.6315789473684,4,1,1,70,0,1
145843,306.122448979592,5,2,1,70,1,0
145843,-55.5555555555556,5,2,1,70,0,0
150434,306.122448979592,6,2,1,70,1,0
150434,-55.5555555555556,5,2,1,70,0,0
151454,-55.5555555555556,5,2,1,40,0,0
151760,-55.5555555555556,5,2,1,50,0,0
151964,-55.5555555555556,5,2,1,70,0,0
152168,-55.5555555555556,5,2,1,50,0,0
152270,306.122448979592,5,2,1,70,1,0
152270,-55.5555555555556,5,2,1,70,0,0
156861,306.122448979592,6,2,1,70,1,0
156861,-55.5555555555556,6,2,1,70,0,0
157932,-55.5555555555556,6,2,1,50,0,0
158238,-55.5555555555556,6,2,1,40,0,0
158697,306.122448979592,5,2,1,50,1,0
158697,-55.5555555555556,5,2,1,50,0,0
163288,306.122448979592,6,2,1,50,1,0
163288,-55.5555555555556,5,2,1,50,0,0
165124,306.122448979592,5,2,1,50,1,0
165124,-55.5555555555556,5,2,1,50,0,0
169715,306.122448979592,6,2,1,50,1,0
169715,-55.5555555555556,6,2,1,50,0,0
171557,417.246175243394,4,1,1,70,1,0
171557,-100,4,1,1,70,0,0
172399,206.896551724138,4,1,1,70,1,0
172399,-52.6315789473684,4,1,1,70,0,0
185640,-600,4,1,1,70,0,0
192261,-50,4,1,1,70,0,1
193295,-50,4,1,2,70,0,1
193916,-50,4,1,1,70,0,1
194950,-50,4,1,2,70,0,1
195571,-50,4,1,1,70,0,1
196605,-50,4,1,2,70,0,1
197226,-50,4,1,1,70,0,1
198881,-133.333333333333,4,1,1,70,0,0
199088,-50,4,1,1,70,0,1
199916,-50,4,1,2,70,0,1
200536,-50,4,1,1,70,0,1
201571,-50,4,1,2,70,0,1
202192,-50,4,1,1,70,0,1
203226,-50,4,1,2,70,0,1
203847,-50,4,1,1,70,0,1
206536,-50,4,1,2,70,0,1
207157,-50,4,1,1,70,0,1
208192,-50,4,1,2,70,0,1
208812,-50,4,1,1,70,0,1
209847,-50,4,1,2,70,0,1
210467,-50,4,1,1,70,0,1
212123,-54.054054054054,4,1,1,70,0,0
214812,-54.054054054054,4,1,2,70,0,0
215433,-54.054054054054,4,1,1,70,0,0
221433,-54.054054054054,4,1,2,70,0,0
222054,-54.054054054054,4,1,1,70,0,0

[Colours]
Combo1 : 113,184,255
Combo2 : 255,128,255
Combo3 : 128,255,128
Combo4 : 171,87,255

[HitObjects]
44,96,15079,6,0,L|136:80,1,79.9999999999999,0|0,3:3|3:3,0:0:0:0:
336,24,15285,2,0,L|320:84,2,53.3333333333333,8|8|8,0:0|0:0|0:0,0:0:0:0:
244,116,15492,2,0,P|236:52|236:28,1,79.9999999999999,8|8,0:0|0:0,0:0:0:0:
408,96,15699,2,0,P|368:146|351:163,1,79.9999999999999,8|4,0:3|0:3,0:0:0:0:
184,224,15906,6,0,L|96:208,2,79.9999999999999,0|2|0,0:0|0:2|0:0,0:0:0:0:
312,360,16216,1,2,0:2:0:0:
196,360,16320,2,0,P|244:288|400:296,1,240,8|2,0:0|2:2,0:0:0:0:
512,156,16734,6,0,P|428:164|368:80,1,175.00000166893,6|10,0:0|0:0,0:0:0:0:
288,24,17044,1,0,0:0:0:0:
264,140,17147,2,0,L|360:120,1,87.5000008344649,2|0,0:0|0:0,0:0:0:0:
463,71,17354,1,8,0:0:0:0:
220,228,17458,6,2,P|172:168|200:72,1,175.00000166893,0|2,0:0|0:0,0:0:0:0:
320,288,17768,2,0,P|276:308|232:332,1,87.5000008344649,10|10,0:2|0:2,0:0:0:0:
316,168,17975,2,0,P|360:188|404:212,2,87.5000008344649,2|10|2,0:2|0:2|0:2,0:0:0:0:
220,228,18285,1,10,0:2:0:0:
104,200,18389,6,0,L|88:112,1,87.5000008344649,2|0,0:1|0:0,0:0:0:0:
188,52,18596,2,0,L|204:140,1,87.5000008344649,10|0,0:1|0:0,0:0:0:0:
120,305,18803,2,0,L|28:285,1,87.5000008344649,2|0,0:0|0:0,0:0:0:0:
181,381,19010,1,8,0:0:0:0:
213,250,19113,6,2,P|298:248|359:309,1,175.00000166893,0|2,0:0|0:0,0:0:0:0:
457,368,19423,2,0,P|465:322|479:267,1,87.5000008344649,10|8,0:0|0:2,0:0:0:0:
323,153,19630,1,2,0:2:0:0:
323,153,19682,1,2,0:2:0:0:
323,153,19734,1,2,0:2:0:0:
422,132,19837,2,0,P|414:178|400:233,1,87.5000008344649,10|8,0:0|0:2,0:0:0:0:
250,83,20044,6,0,L|157:104,1,87.5000008344649,6|0,0:0|0:0,0:0:0:0:
35,31,20251,2,0,L|128:10,1,87.5000008344649,10|0,0:0|0:0,0:0:0:0:
250,83,20458,2,0,L|231:181,1,87.5000008344649,2|0,0:0|0:0,0:0:0:0:
260,343,20665,1,8,0:0:0:0:
358,246,20768,6,2,B|262:224|286:279|186:253,1,175.00000166893,0|2,0:0|0:0,0:0:0:0:
48,188,21079,2,0,P|32:248|30:283,1,87.5000008344649,10|10,0:2|0:2,0:0:0:0:
143,371,21285,2,0,P|159:311|161:276,1,87.5000008344649,2|10,0:2|0:2,0:0:0:0:
48,188,21492,2,0,L|142:171,1,87.5000008344649,2|10,0:2|0:2,0:0:0:0:
343,220,21699,6,0,P|426:231|484:159,2,175.00000166893,2|10|2,0:0|0:0|0:0,0:0:0:0:
246,150,22216,1,0,0:0:0:0:
379,94,22320,1,8,0:0:0:0:
239,235,22423,6,2,P|226:148|203:53,1,175.00000166893
348,18,22734,2,0,P|333:96|329:125,1,87.5000008344649,8|8,0:0|0:0,0:0:0:0:
497,194,22941,2,0,L|407:174,1,87.5000008344649,8|8,0:3|0:3,0:0:0:0:
350,267,23147,2,0,L|440:287,1,87.5000008344649,4|4,0:3|0:3,0:0:0:0:
183,332,23354,6,0,P|101:342|40:243,1,175.00000166893,6|10,0:0|0:0,0:0:0:0:
149,174,23665,1,0,0:0:0:0:
149,174,23768,2,0,L|129:272,1,87.5000008344649,2|0,0:0|0:0,0:0:0:0:
267,376,23975,1,8,0:0:0:0:
346,313,24079,6,2,L|312:117,1,175.00000166893,0|2,0:0|0:0,0:0:0:0:
491,152,24389,2,0,L|402:173,1,87.5000008344649,10|10,0:2|0:2,0:0:0:0:
288,58,24596,1,2,0:2:0:0:
288,58,24699,1,10,0:2:0:0:
373,0,24803,2,0,P|385:50|394:93,1,87.5000008344649,2|10,0:2|0:2,0:0:0:0:
209,183,25010,6,0,P|123:188|66:108,1,175.00000166893,2|10,0:0|0:0,0:0:0:0:
201,70,25320,1,0,0:0:0:0:
201,70,25423,2,0,L|302:55,1,87.5000008344649,2|0,0:0|0:0,0:0:0:0:
411,209,25630,1,8,0:0:0:0:
472,71,25734,6,2,B|413:88|413:88|387:126|387:126|319:144,1,175.00000166893,0|2,0:0|0:0,0:0:0:0:
253,281,26044,2,0,L|235:377,1,87.5000008344649,10|8,0:0|0:0,0:0:0:0:
354,288,26251,1,2,0:2:0:0:
354,288,26303,1,0,0:0:0:0:
354,288,26354,1,2,0:2:0:0:
228,190,26458,2,0,L|119:211,1,87.5000008344649,10|8,0:0|0:0,0:0:0:0:
73,105,26665,6,0,L|248:73,1,175.00000166893,6|10,0:0|0:0,0:0:0:0:
422,96,26975,1,0,0:0:0:0:
344,39,27079,2,0,P|329:96|327:136,1,87.5000008344649,2|0,0:0|0:0,0:0:0:0:
420,286,27285,1,8,0:0:0:0:
475,206,27389,6,2,P|414:188|324:258,1,175.00000166893,0|2,0:0|0:0,0:0:0:0:
241,190,27699,2,0,P|226:258|229:292,1,87.5000008344649,10|10,0:2|0:2,0:0:0:0:
322,372,27906,2,0,P|337:304|334:270,1,87.5000008344649,2|10,0:2|0:2,0:0:0:0:
134,215,28113,2,0,L|29:236,1,87.5000008344649,2|10,0:2|0:2,0:0:0:0:
197,95,28320,6,0,P|281:89|346:174,2,175.00000166893,2|10|2,0:0|0:0|0:0,0:0:0:0:
71,257,28837,1,0,0:0:0:0:
241,190,28941,1,8,0:0:0:0:
97,148,29044,6,2,P|126:257|139:341,1,175.00000166893
290,330,29354,2,0,P|244:352|209:379,1,87.5000008344649,8|8,0:0|0:0,0:0:0:0:
386,367,29561,1,8,0:3:0:0:
386,367,29613,1,0,0:0:0:0:
386,367,29665,1,8,0:3:0:0:
453,294,29768,2,0,P|410:265|370:248,1,87.5000008344649,4|4,0:3|0:3,0:0:0:0:
336,162,29975,6,0,L|355:81,2,79.9999999999999,4|2|0,3:1|3:2|1:0,0:0:0:0:
241,190,30285,2,0,P|178:129|95:138,1,160,2|0,3:2|0:0,0:0:0:0:
145,223,30596,1,0,1:0:0:0:
406,328,30803,6,0,L|317:307,2,79.9999999999999,0|2|0,3:0|3:2|1:0,0:0:0:0:
258,373,31113,2,0,B|238:318|238:318|270:200,1,160,2|0,3:2|0:0,0:0:0:0:
328,146,31423,1,0,1:0:0:0:
328,146,31527,1,0,0:0:0:0:
412,198,31630,6,0,L|498:184,1,79.9999999999999,4|0,3:2|0:0,0:0:0:0:
399,91,31837,2,0,L|313:105,1,79.9999999999999,0|0,1:3|0:0,0:0:0:0:
217,42,32044,2,0,P|201:95|204:132,1,79.9999999999999,2|0,3:3|0:0,0:0:0:0:
247,275,32251,2,0,P|263:222|260:185,1,79.9999999999999,0|0,1:3|0:0,0:0:0:0:
97,131,32458,6,0,L|-15:157,2,79.9999999999999,2|0|0,3:3|0:0|1:3,0:0:0:0:
159,208,32768,2,0,L|-4:248,1,160
57,323,33079,1,0,1:3:0:0:
386,368,33285,6,0,L|401:287,2,79.9999999999999,4|2|0,3:1|3:2|1:0,0:0:0:0:
310,245,33596,2,0,P|387:252|450:180,1,160,2|0,3:2|0:0,0:0:0:0:
352,159,33906,1,0,1:0:0:0:
92,284,34113,6,0,L|77:203,2,79.9999999999999,0|2|0,3:0|3:2|1:0,0:0:0:0:
168,161,34423,2,0,P|91:168|28:96,1,160,2|0,3:2|0:0,0:0:0:0:
121,77,34734,1,0,1:0:0:0:
121,77,34837,1,0,0:0:0:0:
199,18,34941,6,0,L|361:54,2,160,4|0|2,3:2|1:0|3:3,0:0:0:0:
121,77,35458,1,0,0:0:0:0:
201,153,35561,2,0,L|301:130,1,79.9999999999999,0|0,1:0|0:0,0:0:0:0:
372,37,35768,6,0,P|421:97|407:184,1,160,2|0,3:3|1:0,0:0:0:0:
330,206,36079,1,0,0:0:0:0:
330,206,36182,2,0,P|316:278|312:298,1,79.9999999999999,2|0,3:3|0:0,0:0:0:0:
407,346,36389,2,0,P|421:274|425:254,1,79.9999999999999,0|0,1:0|0:0,0:0:0:0:
330,206,36596,6,0,L|245:218,2,79.9999999999999,4|2|0,3:1|3:2|1:0,0:0:0:0:
200,293,36906,2,0,P|163:225|190:151,1,160,2|0,3:2|0:0,0:0:0:0:
250,217,37216,1,0,1:0:0:0:
57,83,37423,6,0,L|39:168,2,79.9999999999999,0|2|0,3:0|3:2|1:0,0:0:0:0:
118,24,37734,2,0,L|283:54,1,160,2|0,3:2|3:0,0:0:0:0:
305,79,37992,1,0,3:0:0:0:
305,79,38044,2,0,L|401:62,1,79.9999999999999,0|0,1:0|0:0,0:0:0:0:
478,217,38251,6,0,P|418:170|325:188,2,160,4|0|2,3:2|1:0|3:3,0:0:0:0:
390,340,38768,1,0,0:0:0:0:
390,340,38872,2,0,P|380:294|388:250,1,79.9999999999999,0|0,1:0|0:0,0:0:0:0:
458,87,39079,5,2,1:0:0:0:
82,225,39492,5,2,1:0:0:0:
390,340,39699,1,2,1:0:0:0:
55,368,39906,6,0,P|134:374|196:303,1,160,2|0,3:3|1:0,0:0:0:0:
273,277,40216,1,0,0:0:0:0:
273,277,40320,2,0,L|262:178,1,79.9999999999999,2|0,3:2|3:0,0:0:0:0:
161,154,40527,2,0,L|152:74,1,79.9999999999999,0|0,1:0|0:0,0:0:0:0:
327,38,40734,6,0,P|407:32|460:93,1,160,2|0,3:3|1:0,0:0:0:0:
372,119,41044,1,0,0:0:0:0:
419,202,41147,2,0,P|339:208|286:147,1,160,2|0,3:2|1:0,0:0:0:0:
372,119,41458,1,0,0:0:0:0:
437,220,41561,6,0,L|421:300,1,79.9999999999999,2|0,3:3|0:0,0:0:0:0:
296,373,41768,2,0,L|312:293,1,79.9999999999999,0|0,1:0|3:0,0:0:0:0:
219,181,41975,2,0,L|203:261,1,79.9999999999999,2|0,3:2|3:0,0:0:0:0:
78,334,42182,2,0,L|94:254,1,79.9999999999999,0|0,1:0|2:0,0:0:0:0:
55,84,42389,5,0,0:0:0:0:
112,168,42492,1,0,0:0:0:0:
112,168,42544,1,0,0:0:0:0:
112,168,42596,2,0,L|228:152,1,79.9999999999999,8|8,0:0|0:0,0:0:0:0:
416,124,42803,2,0,P|424:76|408:36,1,79.9999999999999
308,112,43010,2,0,P|300:160|316:200,1,79.9999999999999,8|8,0:0|0:0,0:0:0:0:
480,240,43216,6,0,B|380:256|436:300|320:316,1,175.00000166893,6|10,0:0|0:0,0:0:0:0:
152,244,43527,1,0,0:0:0:0:
152,244,43630,2,0,L|268:264,1,87.5000008344649,2|0,0:0|0:0,0:0:0:0:
324,344,43837,1,8,0:0:0:0:
480,240,43941,6,2,P|496:152|432:68,1,175.00000166893,0|2,0:0|0:0,0:0:0:0:
320,20,44251,2,0,L|224:44,1,87.5000008344649,10|10,0:2|0:2,0:0:0:0:
316,192,44458,2,0,L|412:168,1,87.5000008344649,2|10,0:2|0:2,0:0:0:0:
220,144,44665,2,0,L|196:244,1,87.5000008344649,2|10,0:2|0:2,0:0:0:0:
56,296,44872,6,0,L|76:208,2,87.5000008344649,2|0|10,0:0|0:0|0:0,0:0:0:0:
136,364,45182,1,0,0:0:0:0:
232,336,45285,2,0,L|324:320,1,87.5000008344649,2|0,0:0|0:0,0:0:0:0:
496,240,45492,1,8,0:0:0:0:
408,200,45596,6,2,B|396:260|396:260|420:300|420:300|408:376,1,175.00000166893,0|2,0:0|0:0,0:0:0:0:
296,232,45906,2,0,L|316:136,1,87.5000008344649,10|8,0:0|0:0,0:0:0:0:
468,36,46113,1,2,0:2:0:0:
468,36,46165,1,2,0:2:0:0:
468,36,46216,1,2,0:2:0:0:
372,64,46320,2,0,P|340:52|276:56,1,87.5000008344649,10|8,0:0|0:0,0:0:0:0:
168,184,46527,6,0,P|84:192|28:108,1,175.00000166893,6|10,0:0|0:0,0:0:0:0:
120,104,46837,1,0,0:0:0:0:
40,208,46941,2,0,P|24:256|20:304,1,87.5000008344649,2|0,0:0|0:0,0:0:0:0:
100,368,47147,1,8,0:0:0:0:
252,252,47251,6,2,P|256:168|216:88,1,175.00000166893,0|2,0:0|0:0,0:0:0:0:
160,288,47561,2,0,P|196:332|236:348,1,87.5000008344649,10|10,0:2|0:2,0:0:0:0:
344,228,47768,2,0,L|364:116,1,87.5000008344649,2|10,0:2|0:2,0:0:0:0:
175,201,47975,2,0,L|159:287,1,87.5000008344649,2|10,0:2|0:2,0:0:0:0:
352,348,48182,6,0,P|428:360|496:268,2,175.00000166893,2|10|2,0:0|0:0|0:0,0:0:0:0:
272,192,48699,1,0,0:0:0:0:
404,276,48803,1,8,0:0:0:0:
216,352,48906,6,2,B|152:344|152:344|120:372|120:372|40:360,1,175.00000166893
136,160,49216,2,0,P|156:204|164:252,1,87.5000008344649,8|8,0:0|0:0,0:0:0:0:
27,279,49423,1,8,0:3:0:0:
27,279,49475,1,0,0:0:0:0:
27,279,49527,1,8,0:3:0:0:
136,160,49630,2,0,L|40:140,1,87.5000008344649,4|4,0:3|0:3,0:0:0:0:
176,32,49837,6,0,L|260:52,2,79.9999999999999,4|2|0,3:1|3:2|1:0,0:0:0:0:
228,132,50147,2,0,P|308:124|336:40,1,160,2|0,3:2|0:0,0:0:0:0:
256,52,50458,1,0,1:0:0:0:
424,260,50665,6,0,L|336:276,2,79.9999999999999,0|2|0,3:0|3:2|1:0,0:0:0:0:
280,212,50975,2,0,B|252:288|252:288|304:372,1,160,2|0,3:2|0:0,0:0:0:0:
345,274,51285,1,0,1:0:0:0:
345,274,51389,1,0,0:0:0:0:
184,208,51492,6,0,L|28:244,2,160,4|0|2,3:2|1:0|3:3,0:0:0:0:
280,212,52010,1,0,0:0:0:0:
319,107,52113,2,0,P|331:67|331:27,1,79.9999999999999,0|0,1:0|0:0,0:0:0:0:
204,124,52320,6,0,L|232:296,1,160,2|0,3:3|1:0,0:0:0:0:
272,368,52630,1,0,0:0:0:0:
272,368,52734,2,0,P|308:328|344:320,1,79.9999999999999
484,312,52941,2,0,P|448:352|412:360,1,79.9999999999999,0|0,1:0|0:0,0:0:0:0:
360,224,53147,6,0,L|380:136,2,79.9999999999999,4|2|0,3:1|3:2|1:0,0:0:0:0:
460,124,53458,2,0,P|408:68|316:92,1,160,2|0,3:2|0:0,0:0:0:0:
377,145,53768,1,0,1:0:0:0:
48,112,53975,6,0,L|132:96,2,79.9999999999999,0|2|0,3:0|3:2|1:0,0:0:0:0:
196,160,54285,2,0,B|216:108|216:108|188:0,1,160,2|0,3:2|0:0,0:0:0:0:
104,184,54596,2,0,L|120:272,1,79.9999999999999,0|0,1:0|0:0,0:0:0:0:
312,348,54803,6,0,P|392:360|452:280,1,160,4|0,3:2|1:0,0:0:0:0:
356,260,55113,1,0,0:0:0:0:
240,292,55216,2,0,P|220:348|212:392,1,79.9999999999999,2|0,3:3|0:0,0:0:0:0:
376,232,55423,2,0,P|366:193|351:156,1,79.9999999999999,0|0,1:0|0:0,0:0:0:0:
244,188,55630,6,0,B|188:176|188:176|148:192|148:192|88:176,1,160,2|0,3:3|1:0,0:0:0:0:
90,176,55941,1,0,0:0:0:0:
112,20,56044,2,0,P|134:63|132:108,1,79.9999999999999,2|0,3:3|0:0,0:0:0:0:
20,236,56251,2,0,L|8:315,1,79.9999999999999,0|0,1:0|0:0,0:0:0:0:
288,344,56458,6,0,L|380:332,2,79.9999999999999,4|2|0,3:1|3:2|1:0,0:0:0:0:
200,368,56768,2,0,L|184:196,1,160,2|0,3:2|0:0,0:0:0:0:
107,292,57079,1,0,1:0:0:0:
356,52,57285,6,0,L|336:132,2,79.9999999999999,0|2|0,3:0|3:2|1:0,0:0:0:0:
380,208,57596,2,0,P|316:216|256:132,1,160,2|0,3:2|3:0,0:0:0:0:
248,108,57854,1,0,3:0:0:0:
248,108,57906,2,0,L|152:128,1,79.9999999999999,0|0,1:0|0:0,0:0:0:0:
32,232,58113,6,0,L|128:212,1,79.9999999999999,4|0,3:2|0:0,0:0:0:0:
192,268,58320,2,0,P|208:312|208:352,1,79.9999999999999,0|0,1:0|0:0,0:0:0:0:
116,324,58527,1,2,3:3:0:0:
116,324,58630,1,0,0:0:0:0:
296,368,58734,2,0,L|380:352,1,79.9999999999999,0|0,1:0|0:0,0:0:0:0:
488,216,58941,6,0,P|432:164|340:180,1,160,2|0,3:3|1:0,0:0:0:0:
280,232,59251,1,0,0:0:0:0:
144,168,59354,2,0,L|232:152,1,79.9999999999999,2|0,3:3|0:0,0:0:0:0:
376,76,59561,2,0,L|288:92,1,79.9999999999999,0|0,1:0|3:0,0:0:0:0:
76,248,59768,6,0,P|44:176|76:92,2,160,2|0|2,3:3|1:0|3:2,0:0:0:0:
52,332,60285,1,0,3:0:0:0:
136,364,60389,2,0,L|220:344,1,79.9999999999999,0|0,1:0|3:0,0:0:0:0:
440,296,60596,6,0,B|336:320|416:352|276:384,1,160,2|0,3:3|1:0,0:0:0:0:
368,228,60906,1,0,0:0:0:0:
284,276,61010,2,0,L|264:184,1,79.9999999999999,2|0,3:2|3:0,0:0:0:0:
288,24,61216,2,0,L|308:116,1,79.9999999999999,0|0,1:0|0:0,0:0:0:0:
200,312,61423,6,0,P|124:324|72:252,2,160,2|0|2,3:3|1:0|3:2,0:0:0:0:
232,216,61941,1,0,3:0:0:0:
88,168,62044,2,0,L|0:192,1,79.9999999999999,0|0,1:0|0:0,0:0:0:0:
184,128,62251,5,0,3:0:0:0:
232,216,62354,1,0,3:0:0:0:
320,168,62458,1,0,3:0:0:0:
320,168,62561,1,0,3:0:0:0:
288,12,62665,2,0,L|264:104,1,79.9999999999999,0|0,3:0|3:0,0:0:0:0:
416,160,62872,2,0,L|392:252,1,79.9999999999999,0|0,3:0|3:0,0:0:0:0:
236,360,63079,6,0,P|160:312|72:328,1,179.999994506836,4|0,3:1|3:0,0:0:0:0:
75,326,63906,1,0,1:0:0:0:
32,48,64734,6,0,B|56:172|56:172|88:120,1,179.999994506836,4|0,3:1|3:0,0:0:0:0:
120,48,65561,1,0,1:0:0:0:
200,216,65975,1,2,0:2:0:0:
496,76,66389,6,0,B|388:56|436:128|324:112,1,179.999994506836,4|0,3:1|3:0,0:0:0:0:
260,64,67216,2,0,L|248:-8,2,59.9999981689453,0|2|2,1:0|0:2|0:2,0:0:0:0:
464,176,68044,6,0,L|436:356,1,179.999994506836,4|0,3:1|3:0,0:0:0:0:
224,220,68872,1,0,1:0:0:0:
360,228,69079,1,0,3:0:0:0:
292,336,69285,2,0,L|196:312,1,89.999997253418,0|0,1:0|1:0,0:0:0:0:
56,384,69699,6,0,P|36:336|52:268,1,112.500004291534,4|0,3:1|3:0,0:0:0:0:
46,277,70113,1,0,1:0:0:0:
128,116,70320,1,0,0:0:0:0:
128,116,70423,1,0,1:0:0:0:
128,116,70527,2,0,L|52:104,2,75.000002861023,2|2|2,3:2|3:2|1:2,0:0:0:0:
336,268,71147,1,0,0:0:0:0:
368,136,71354,6,0,P|296:128|236:188,1,150.000005722046,4|0,3:1|1:0,0:0:0:0:
448,356,71975,2,0,L|460:304,1,37.5000014305115,0|0,3:0|1:0,0:0:0:0:
424,240,72182,2,0,L|436:188,1,37.5000014305115,0|0,3:0|1:0,0:0:0:0:
496,144,72389,1,0,3:0:0:0:
336,268,72596,1,0,1:0:0:0:
264,108,72803,1,0,0:0:0:0:
264,108,72906,1,0,3:0:0:0:
264,108,73010,6,0,L|104:136,1,150.000005722046,4|0,3:1|1:0,0:0:0:0:
48,352,73734,1,0,1:0:0:0:
48,352,73837,2,0,L|120:372,1,75.000002861023,0|0,3:0|3:0,0:0:0:0:
376,349,74251,2,2,L|408:337,7,18.7500007152557,0|0|0|0|0|0|2|0,1:1|0:1|0:1|0:1|0:1|0:1|0:1|0:0,0:1:0:0:
348,376,74665,6,0,P|316:300|364:220,1,175.00000166893,2|0,0:0|3:0,0:0:0:0:
488,148,74975,2,0,B|424:152|424:152|384:124|384:124|312:144,1,175.00000166893,2|0,0:0|3:0,0:0:0:0:
224,304,75285,2,0,L|244:208,1,87.5000008344649,2|0,0:2|2:0,0:0:0:0:
260,24,75492,6,0,B|232:136|232:136|184:88,1,175.00000166893,2|0,0:0|3:0,0:0:0:0:
11,231,75803,2,0,P|67:167|167:195,1,175.00000166893,2|0,0:0|3:0,0:0:0:0:
112,348,76113,2,0,P|104:304|100:256,1,87.5000008344649,2|0,0:2|0:0,0:0:0:0:
156,20,76320,5,2,0:0:0:0:
412,320,76527,5,2,0:0:0:0:
308,44,76734,5,2,0:0:0:0:
100,261,76941,5,2,0:0:0:0:
456,64,77147,5,2,0:0:0:0:
256,356,77354,5,2,0:2:0:0:
256,356,77458,1,0,0:0:0:0:
256,356,77561,2,2,L|240:240,1,112.500004291534,2|2,0:0|2:1,0:0:0:0:
88,96,77975,6,0,B|200:92|148:160|284:136,1,189.999994926453,4|8,0:2|0:2,0:0:0:0:
456,84,78285,1,0,0:0:0:0:
380,16,78389,2,0,P|356:88|356:116,1,94.9999974632263,2|2,0:2|0:2,0:0:0:0:
396,292,78596,1,10,0:2:0:0:
492,248,78699,6,0,B|432:176|432:176|328:204,1,189.999994926453,4|0,0:2|0:0,0:0:0:0:
128,200,79010,2,0,L|100:300,1,94.9999974632263,10|8,0:0|0:0,0:0:0:0:
260,124,79216,2,0,L|234:215,1,94.9999974632263,4|8,0:2|0:2,0:0:0:0:
160,96,79423,1,2,0:1:0:0:
160,96,79527,1,8,0:2:0:0:
339,201,79630,6,0,P|411:205|475:103,1,189.999994926453,4|8,0:2|0:0,0:0:0:0:
339,201,79941,1,0,0:0:0:0:
424,324,80044,2,0,L|441:230,1,94.9999974632263,2|2,0:2|0:2,0:0:0:0:
488,20,80251,1,10,0:2:0:0:
372,108,80354,6,0,B|304:96|304:96|260:124|260:124|188:112,1,189.999994926453,4|0,0:2|0:0,0:0:0:0:
32,240,80665,2,0,L|136:220,1,94.9999974632263,10|8,0:0|0:0,0:0:0:0:
204,72,80872,2,0,L|100:92,1,94.9999974632263,0|0,0:2|0:2,0:0:0:0:
32,144,81079,1,10,0:0:0:0:
32,144,81182,1,0,0:0:0:0:
88,328,81285,6,0,P|164:332|232:240,1,189.999994926453,4|8,0:2|0:0,0:0:0:0:
204,72,81596,1,0,0:0:0:0:
264,228,81699,2,0,L|284:120,1,94.9999974632263,2|2,0:2|0:2,0:0:0:0:
476,16,81906,1,10,0:2:0:0:
320,48,82010,6,0,B|436:56|372:112|512:108,1,189.999994926453,4|0,0:2|0:0,0:0:0:0:
500,272,82320,2,0,P|448:292|408:312,1,94.9999974632263,10|8,0:0|0:0,0:0:0:0:
320,140,82527,2,0,P|363:175|400:199,1,94.9999974632263,4|8,0:2|0:0,0:0:0:0:
292,352,82734,2,0,P|300:296|303:252,1,94.9999974632263,2|8,0:0|0:0,0:0:0:0:
76,40,82941,6,0,P|116:124|204:128,1,189.999994926453,4|8,0:2|0:0,0:0:0:0:
24,168,83251,1,0,0:0:0:0:
100,240,83354,2,0,P|164:240|208:212,1,94.9999974632263,2|2,0:2|0:2,0:0:0:0:
448,120,83561,1,10,0:2:0:0:
288,168,83665,6,2,B|396:168|352:232|468:224,1,189.999994926453
392,8,83975,2,0,P|360:72|356:108,1,94.9999974632263,10|8,0:0|0:0,0:0:0:0:
190,226,84182,2,0,P|198:297|214:329,1,94.9999974632263,2|8,0:1|0:3,0:0:0:0:
464,260,84389,2,0,L|348:236,1,94.9999974632263,4|4,0:3|0:3,0:0:0:0:
240,40,84596,6,0,B|172:56|172:56|144:100|144:100|72:116,1,189.999994926453,4|8,0:2|0:0,0:0:0:0:
88,16,84906,1,0,0:0:0:0:
24,184,85010,2,0,P|12:240|16:280,1,94.9999974632263,2|2,0:2|0:2,0:0:0:0:
144,364,85216,1,10,0:2:0:0:
264,308,85320,6,0,P|232:244|108:244,1,189.999994926453,4|0,0:2|0:0,0:0:0:0:
336,384,85630,2,0,P|360:336|376:280,1,94.9999974632263,10|8,0:0|0:0,0:0:0:0:
336,44,85837,2,0,P|312:92|296:148,1,94.9999974632263,4|8,0:2|0:0,0:0:0:0:
376,200,86044,1,2,0:0:0:0:
376,200,86147,1,8,0:0:0:0:
212,48,86251,6,0,L|20:92,1,189.999994926453,4|8,0:2|0:0,0:0:0:0:
164,248,86561,1,0,0:0:0:0:
96,168,86665,2,0,L|208:144,1,94.9999974632263,2|2,0:2|0:2,0:0:0:0:
376,200,86872,1,10,0:2:0:0:
376,96,86975,6,0,P|308:128|288:244,1,189.999994926453,4|0,0:2|0:0,0:0:0:0:
472,360,87285,2,0,P|478:285|387:209,1,189.999994926453,10|0,0:0|0:2,0:0:0:0:
184,280,87596,1,0,0:2:0:0:
256,352,87699,2,0,L|364:332,1,94.9999974632263,10|8,0:0|0:0,0:0:0:0:
440,104,87906,6,0,B|396:80|348:108|348:108|328:56|264:64,1,189.999994926453,4|8,0:2|0:0,0:0:0:0:
40,96,88216,1,0,0:0:0:0:
40,96,88320,2,0,P|100:128|136:124,1,94.9999974632263,2|2,0:2|0:2,0:0:0:0:
176,36,88527,1,10,0:2:0:0:
168,224,88630,6,0,B|136:352|136:352|112:280,1,189.999994926453,4|0,0:2|0:0,0:0:0:0:
256,168,88941,2,0,L|356:188,1,94.9999974632263,10|8,0:0|0:0,0:0:0:0:
488,88,89147,2,0,L|388:68,1,94.9999974632263,4|8,0:2|0:0,0:0:0:0:
237,152,89354,1,2,0:0:0:0:
283,47,89458,1,8,0:0:0:0:
452,240,89561,6,0,P|404:300|288:284,1,189.999994926453,4|8,0:2|0:0,0:0:0:0:
256,168,89872,1,0,0:0:0:0:
156,208,89975,2,0,L|136:308,1,94.9999974632263,0|2,0:0|0:2,0:0:0:0:
400,368,90182,2,0,L|381:274,1,94.9999974632263,10|0,0:2|0:0,0:0:0:0:
136,48,90389,6,0,L|36:72,1,94.9999974632263,4|2,0:2|0:2,0:0:0:0:
256,200,90596,2,0,L|356:176,1,94.9999974632263,10|10,0:2|0:2,0:0:0:0:
132,160,90803,1,10,0:2:0:0:
48,256,90906,1,10,0:1:0:0:
176,320,91010,2,2,L|276:296,1,94.9999974632263,10|10,0:2|0:1,0:0:0:0:
460,200,91216,6,0,B|488:248|488:248|452:380,1,175.00000166893,6|10,0:0|0:0,0:0:0:0:
348,177,91527,1,0,0:0:0:0:
348,177,91630,2,0,L|376:68,1,87.5000008344649,2|0,0:0|0:0,0:0:0:0:
460,200,91837,1,8,0:0:0:0:
260,264,91941,6,2,L|212:80,1,175.00000166893,0|2,0:0|0:0,0:0:0:0:
29,186,92251,2,0,P|79:212|124:207,1,87.5000008344649,10|10,0:2|0:2,0:0:0:0:
113,27,92458,2,0,L|89:123,1,87.5000008344649,2|10,0:2|0:2,0:0:0:0:
215,202,92665,2,0,L|192:110,1,87.5000008344649,2|10,0:2|0:2,0:0:0:0:
341,36,92872,6,0,P|427:27|482:93,1,175.00000166893,2|10,0:0|0:0,0:0:0:0:
353,191,93182,1,0,0:0:0:0:
353,191,93285,2,0,P|366:140|394:102,1,87.5000008344649,2|0,0:0|0:0,0:0:0:0:
458,350,93492,1,8,0:0:0:0:
502,219,93596,6,2,B|398:237|457:281|327:297,1,175.00000166893,0|2,0:0|0:0,0:0:0:0:
234,181,93906,2,0,L|148:207,1,87.5000008344649,10|8,0:0|0:0,0:0:0:0:
10,304,94113,1,2,0:2:0:0:
10,304,94165,1,2,0:2:0:0:
10,304,94216,1,2,0:2:0:0:
90,375,94320,2,0,L|108:287,1,87.5000008344649,10|8,0:0|0:0,0:0:0:0:
64,118,94527,6,0,L|46:206,2,87.5000008344649,6|0|10,0:0|0:0|0:0,0:0:0:0:
137,43,94837,1,0,0:0:0:0:
231,86,94941,2,0,L|326:74,1,87.5000008344649,2|0,0:0|0:0,0:0:0:0:
495,90,95147,1,8,0:0:0:0:
442,5,95251,6,2,P|404:82|420:168,1,175.00000166893,0|2,0:0|0:0,0:0:0:0:
476,317,95561,2,0,P|483:272|486:221,1,87.5000008344649,10|10,0:2|0:2,0:0:0:0:
326,161,95768,2,0,P|319:206|316:257,1,87.5000008344649,2|10,0:2|0:2,0:0:0:0:
468,359,95975,2,0,P|405:347|369:345,1,87.5000008344649,2|10,0:2|0:2,0:0:0:0:
199,211,96182,6,0,P|116:205|58:272,2,175.00000166893,2|10|2,0:0|0:0|0:0,0:0:0:0:
303,360,96699,1,0,0:0:0:0:
148,290,96803,1,8,0:0:0:0:
326,161,96906,6,2,P|298:251|278:359,1,175.00000166893
478,245,97216,2,0,P|419:273|391:292,1,87.5000008344649,8|8,0:0|0:0,0:0:0:0:
402,76,97423,2,0,P|422:131|444:177,1,87.5000008344649,8|8,0:3|0:3,0:0:0:0:
309,309,97630,2,0,P|289:254|267:208,1,87.5000008344649,4|4,0:3|0:3,0:0:0:0:
39,120,97837,6,0,B|99:102|99:102|137:126|137:126|207:112,1,175.00000166893,6|10,0:0|0:0,0:0:0:0:
402,76,98147,1,0,0:0:0:0:
299,48,98251,2,0,L|190:70,1,87.5000008344649,2|0,0:0|0:0,0:0:0:0:
39,120,98458,1,8,0:0:0:0:
176,221,98561,6,2,P|254:223|317:135,1,175.00000166893,0|2,0:0|0:0,0:0:0:0:
129,145,98872,2,0,P|90:206|84:241,1,87.5000008344649,10|10,0:2|0:2,0:0:0:0:
72,344,99079,2,0,L|165:327,1,87.5000008344649,2|10,0:2|0:2,0:0:0:0:
262,205,99285,2,0,L|169:222,1,87.5000008344649,2|10,0:2|0:2,0:0:0:0:
336,355,99492,6,0,P|406:365|475:295,1,175.00000166893,2|10,0:0|0:0,0:0:0:0:
399,169,99803,1,0,0:0:0:0:
399,169,99906,2,0,P|379:230|379:265,1,87.5000008344649,2|0,0:0|0:0,0:0:0:0:
490,209,100113,1,8,0:0:0:0:
399,62,100216,6,2,L|224:99,1,175.00000166893,0|2,0:0|0:0,0:0:0:0:
65,40,100527,2,0,L|41:131,1,87.5000008344649,10|8,0:0|0:0,0:0:0:0:
228,192,100734,1,2,0:2:0:0:
228,192,100785,1,2,0:2:0:0:
228,192,100837,1,2,0:2:0:0:
140,123,100941,2,0,L|116:214,1,87.5000008344649,10|8,0:0|0:0,0:0:0:0:
298,280,101147,6,0,L|322:189,2,87.5000008344649,6|0|10,0:0|0:0|0:0,0:0:0:0:
230,352,101458,1,0,0:0:0:0:
148,296,101561,2,0,L|53:320,1,87.5000008344649,2|0,0:0|0:0,0:0:0:0:
230,352,101768,1,8,0:0:0:0:
320,195,101872,6,2,P|406:189|462:263,1,175.00000166893,0|2,0:0|0:0,0:0:0:0:
215,221,102182,2,0,L|199:128,1,87.5000008344649,10|10,0:2|0:2,0:0:0:0:
331,15,102389,1,2,0:2:0:0:
331,15,102492,1,10,0:2:0:0:
241,50,102596,2,0,L|150:35,1,87.5000008344649,2|10,0:2|0:2,0:0:0:0:
7,208,102803,6,0,P|68:147|168:166,2,175.00000166893,2|10|2,0:0|0:0|0:0,0:0:0:0:
191,367,103320,1,0,0:0:0:0:
95,228,103423,1,8,0:0:0:0:
6,342,103527,6,2,B|65:322|65:322|109:345|109:345|180:329,1,175.00000166893
400,343,103837,2,0,L|308:363,1,87.5000008344649,8|8,0:0|0:0,0:0:0:0:
353,238,104044,1,0,0:0:0:0:
353,238,104096,1,0,0:0:0:0:
353,238,104147,1,8,0:3:0:0:
308,139,104251,2,0,L|216:159,1,87.5000008344649,4|4,0:3|0:3,0:0:0:0:
471,204,104458,5,4,1:3:0:0:
118,84,106113,5,0,0:0:0:0:
320,323,106941,5,0,0:0:0:0:
292,32,107768,5,0,0:0:0:0:
109,228,109423,5,0,0:0:0:0:
479,149,110251,5,0,0:0:0:0:
118,84,110665,5,0,0:0:0:0:
118,84,111079,6,0,L|204:68,2,79.9999999999999,4|2|0,3:1|3:2|1:0,0:0:0:0:
272,24,111389,2,0,P|300:72|404:68,1,160,2|0,3:2|0:0,0:0:0:0:
468,28,111699,1,0,1:0:0:0:
256,268,111906,6,0,L|240:352,2,79.9999999999999,0|2|0,3:0|3:2|1:0,0:0:0:0:
160,376,112216,2,0,L|140:204,1,160,2|0,3:2|3:0,0:0:0:0:
104,208,112475,1,0,3:0:0:0:
104,208,112527,2,0,L|116:120,1,79.9999999999999,0|0,1:0|0:0,0:0:0:0:
264,32,112734,6,0,P|304:20|356:20,1,79.9999999999999,4|0,3:2|0:0,0:0:0:0:
480,96,112941,2,0,P|440:108|388:108,1,79.9999999999999,0|0,1:0|0:0,0:0:0:0:
228,168,113147,2,0,P|304:164|360:240,1,160,2|0,3:3|1:0,0:0:0:0:
256,268,113458,1,0,0:0:0:0:
140,116,113561,6,0,P|64:112|8:188,1,160,2|0,3:3|1:0,0:0:0:0:
108,280,113872,1,0,0:0:0:0:
108,280,113975,2,0,P|108:236|92:184,1,79.9999999999999,2|0,3:3|0:0,0:0:0:0:
236,40,114182,2,0,P|236:84|252:136,1,79.9999999999999,0|0,1:0|0:0,0:0:0:0:
492,228,114389,6,0,L|316:188,1,160,2|0,3:3|1:0,0:0:0:0:
432,128,114699,1,0,0:0:0:0:
356,288,114803,2,0,L|460:312,2,79.9999999999999,2|0|0,3:2|3:0|1:0,0:0:0:0:
336,192,115113,1,0,0:0:0:0:
272,348,115216,6,0,P|192:356|128:284,1,160,2|0,3:3|1:0,0:0:0:0:
104,212,115527,1,0,0:0:0:0:
257,175,115630,2,0,L|356:196,1,79.9999999999999,2|0,3:2|3:0,0:0:0:0:
96,232,115837,2,0,L|-3:211,1,79.9999999999999,0|0,1:0|0:0,0:0:0:0:
144,48,116044,6,0,L|304:84,1,160,2|0,3:3|0:0,0:0:0:0:
420,124,116354,1,0,0:0:0:0:
420,124,116458,2,0,L|440:44,1,79.9999999999999,2|0,3:2|3:0,0:0:0:0:
276,192,116665,2,0,L|296:112,1,79.9999999999999,0|0,1:0|0:0,0:0:0:0:
432,320,116872,5,0,3:0:0:0:
472,232,116975,2,0,P|416:220|336:308,1,160,0|0,3:0|3:0,0:0:0:0:
228,360,117285,1,0,3:0:0:0:
328,304,117389,1,0,3:0:0:0:
176,264,117492,2,0,L|88:280,1,79.9999999999999,0|0,3:0|3:0,0:0:0:0:
35,56,117699,6,0,B|67:136|67:136|126:64,1,179.999994506836,4|0,3:1|3:0,0:0:0:0:
126,63,118527,1,0,1:0:0:0:
474,188,119354,6,0,P|411:127|318:148,1,179.999994506836,4|0,3:1|3:0,0:0:0:0:
264,199,120182,1,0,1:0:0:0:
417,346,120596,1,2,0:0:0:0:
65,357,121010,6,0,B|132:342|132:342|166:365|166:365|235:354,1,179.999994506836,4|0,3:1|3:0,0:0:0:0:
249,265,121837,2,0,L|179:276,2,59.9999981689453,0|2|2,1:0|0:2|0:2,0:0:0:0:
22,61,122665,6,0,B|131:56|81:113|199:94,1,179.999994506836,4|0,3:1|3:0,0:0:0:0:
316,41,123492,2,0,P|285:24|251:20,1,59.9999981689453,0|0,1:0|3:0,0:0:0:0:
74,202,123906,2,0,P|124:202|160:177,1,89.999997253418,0|0,1:0|1:0,0:0:0:0:
193,94,124320,5,4,3:1:0:0:
257,257,124527,1,0,3:0:0:0:
373,120,124734,1,0,1:0:0:0:
269,160,124941,5,0,0:0:0:0:
269,160,125044,1,0,1:0:0:0:
269,160,125147,1,2,3:2:0:0:
355,221,125354,1,2,3:2:0:0:
480,91,125561,1,2,1:2:0:0:
373,120,125768,5,0,3:0:0:0:
373,120,125872,1,0,0:0:0:0:
373,120,125975,1,4,3:1:0:0:
428,291,126182,1,0,3:0:0:0:
257,257,126389,1,0,1:0:0:0:
465,200,126596,5,0,3:0:0:0:
465,200,126699,1,0,1:0:0:0:
465,200,126803,1,0,3:0:0:0:
465,200,126906,1,0,0:0:0:0:
465,200,127010,1,0,3:0:0:0:
333,335,127216,1,0,1:0:0:0:
258,160,127423,1,0,0:0:0:0:
258,160,127527,1,0,3:0:0:0:
258,160,127630,6,0,L|96:185,2,150.000005722046,4|0|0,3:1|1:0|3:0,0:0:0:0:
96,95,128665,1,0,3:0:0:0:
274,248,128872,1,0,0:1:0:0:
465,103,129079,2,0,L|455:145,1,37.5000014305115,0|2,0:1|0:1,0:0:0:0:
356,306,129285,6,0,B|394:252|355:188|355:188|372:210|411:205,1,175.00000166893,2|0,0:0|3:0,0:0:0:0:
335,34,129596,2,0,B|274:31|274:31|236:57|236:57|158:46,1,175.00000166893,2|0,0:0|3:0,0:0:0:0:
0,136,129906,2,0,P|37:111|90:108,1,87.5000008344649,2|0,0:2|0:0,0:0:0:0:
274,248,130113,6,0,P|240:191|133:192,1,175.00000166893,2|0,0:0|3:0,0:0:0:0:
254,352,130423,2,0,P|320:351|372:257,1,175.00000166893,2|0,0:0|3:0,0:0:0:0:
103,280,130734,2,0,L|120:373,1,87.5000008344649,2|0,0:2|0:0,0:0:0:0:
373,265,130941,5,2,0:0:0:0:
3,99,131147,5,2,0:0:0:0:
339,99,131354,5,2,0:0:0:0:
118,366,131561,5,2,0:0:0:0:
172,29,131768,5,2,0:0:0:0:
436,238,131975,5,2,0:2:0:0:
436,238,132079,1,0,0:0:0:0:
436,238,132182,2,2,L|313:217,1,112.500004291534
20,333,132596,6,0,P|65:273|182:282,1,189.999994926453,4|8,0:2|0:0,0:0:0:0:
118,366,132906,1,0,0:0:0:0:
233,206,133010,2,0,P|253:266|254:305,1,94.9999974632263,2|0,0:2|0:0,0:0:0:0:
53,235,133216,1,10,0:2:0:0:
181,121,133320,6,0,P|271:109|335:206,1,189.999994926453,4|0,0:2|0:0,0:0:0:0:
78,207,133630,2,0,P|68:154|58:98,1,94.9999974632263,10|8,0:0|0:0,0:0:0:0:
367,156,133837,2,0,P|358:202|349:249,1,94.9999974632263,4|8,0:2|0:0,0:0:0:0:
156,107,134044,2,0,P|146:54|136:-2,1,94.9999974632263,2|8,0:0|0:0,0:0:0:0:
450,103,134251,6,0,B|331:83|390:152|239:125,1,189.999994926453,4|8,0:2|0:0,0:0:0:0:
383,292,134561,1,0,0:0:0:0:
383,292,134665,2,0,L|407:177,1,94.9999974632263,2|2,0:2|0:2,0:0:0:0:
298,32,134872,1,10,0:2:0:0:
159,135,134975,6,0,L|186:345,1,189.999994926453,4|0,0:2|0:0,0:0:0:0:
383,292,135285,2,0,L|485:312,1,94.9999974632263,10|8,0:0|0:0,0:0:0:0:
429,119,135492,2,0,L|327:99,1,94.9999974632263
227,43,135699,1,10,0:0:0:0:
227,43,135803,1,8,0:0:0:0:
97,214,135906,6,0,P|187:233|252:159,1,189.999994926453,4|8,0:2|0:0,0:0:0:0:
28,152,136216,1,0,0:0:0:0:
28,152,136320,2,0,P|5:220|8:253,1,94.9999974632263,2|2,0:2|0:2,0:0:0:0:
159,135,136527,1,10,0:2:0:0:
216,323,136630,6,0,B|150:313|150:313|108:347|108:347|15:332,1,189.999994926453,4|0,0:2|0:0,0:0:0:0:
324,354,136941,2,0,L|316:249,1,94.9999974632263,10|8,0:0|0:0,0:0:0:0:
242,74,137147,2,0,L|250:179,1,94.9999974632263,4|8,0:2|0:0,0:0:0:0:
434,254,137354,2,0,L|426:149,1,94.9999974632263,2|8,0:0|0:0,0:0:0:0:
221,50,137561,6,0,P|130:33|63:106,1,189.999994926453,4|8,0:2|0:0,0:0:0:0:
125,270,137872,1,0,0:0:0:0:
125,270,137975,2,0,P|132:219|116:172,1,94.9999974632263,2|2,0:2|0:2,0:0:0:0:
26,231,138182,1,10,0:2:0:0:
124,362,138285,6,2,P|197:379|287:318,1,189.999994926453
287,65,138596,2,0,P|308:112|334:162,1,94.9999974632263,10|8,0:0|0:0,0:0:0:0:
454,259,138803,2,0,P|402:253|346:251,1,94.9999974632263,2|8,0:0|0:3,0:0:0:0:
194,291,139010,2,0,P|224:249|254:201,1,94.9999974632263,4|4,0:3|0:3,0:0:0:0:
73,29,139216,6,0,P|28:109|73:193,1,189.999994926453,4|8,0:2|0:0,0:0:0:0:
207,94,139527,1,0,0:0:0:0:
207,94,139630,2,0,P|147:92|107:117,1,94.9999974632263,2|0,0:2|0:0,0:0:0:0:
247,212,139837,1,10,0:2:0:0:
368,172,139941,6,0,P|403:91|363:-1,1,189.999994926453,4|0,0:2|0:0,0:0:0:0:
151,200,140251,2,0,P|137:263|136:303,1,94.9999974632263,10|8,0:0|0:0,0:0:0:0:
419,280,140458,2,0,L|316:258,1,94.9999974632263,4|8,0:2|0:0,0:0:0:0:
220,345,140665,2,0,L|323:367,1,94.9999974632263,2|8,0:0|0:0,0:0:0:0:
396,80,140872,6,0,B|282:80|337:145|213:139,1,189.999994926453,4|8,0:2|0:0,0:0:0:0:
37,63,141182,1,0,0:0:0:0:
128,34,141285,2,0,L|244:52,1,94.9999974632263,2|2,0:2|0:2,0:0:0:0:
376,179,141492,1,10,0:2:0:0:
228,23,141596,6,0,L|182:226,1,189.999994926453,4|0,0:2|0:0,0:0:0:0:
364,342,141906,2,0,P|431:340|466:306,1,94.9999974632263,10|8,0:0|0:0,0:0:0:0:
186,208,142113,2,0,P|119:210|84:244,1,94.9999974632263
245,317,142320,1,10,0:0:0:0:
245,317,142423,1,8,0:0:0:0:
329,214,142527,6,0,L|370:12,1,189.999994926453,4|8,0:2|0:0,0:0:0:0:
144,8,142837,1,0,0:0:0:0:
170,101,142941,2,0,L|267:84,1,94.9999974632263,2|0,0:2|0:0,0:0:0:0:
460,64,143147,1,10,0:2:0:0:
389,284,143251,6,0,P|303:303|238:203,1,189.999994926453,4|0,0:2|0:0,0:0:0:0:
466,221,143561,2,0,P|487:287|486:318,1,94.9999974632263,10|8,0:0|0:0,0:0:0:0:
211,349,143768,1,0,0:0:0:0:
329,214,143872,1,8,0:0:0:0:
195,367,143975,2,0,L|100:351,1,94.9999974632263,10|8,0:0|0:0,0:0:0:0:
399,145,144182,5,0,0:0:0:0:
256,192,144234,12,0,145630,2:0:0:0:
176,228,145843,6,0,P|84:228|36:148,1,179.999994506836,0|0,3:0|1:0,0:0:0:0:
132,140,146302,1,0,0:0:0:0:
252,292,146455,2,0,P|268:244|272:200,1,89.999997253418,0|0,1:0|0:0,0:0:0:0:
120,40,146761,6,0,B|224:44|176:100|296:92,1,179.999994506836,0|2,3:0|1:2,0:0:0:0:
286,92,147220,1,0,0:0:0:0:
508,212,147373,6,0,P|420:216|352:144,1,179.999994506836,0|0,3:0|1:0,0:0:0:0:
456,120,147832,1,0,0:0:0:0:
352,284,147985,2,0,P|400:312|460:312,1,89.999997253418,0|0,1:0|0:0,0:0:0:0:
292,96,148291,2,0,P|208:88|144:152,1,179.999994506836,0|2,3:0|1:2,0:0:0:0:
144,151,148751,1,0,0:0:0:0:
16,336,148904,6,0,B|80:320|80:320|120:344|120:344|192:328,1,179.999994506836,0|0,3:0|1:0,0:0:0:0:
56,228,149363,1,0,0:0:0:0:
244,228,149516,2,0,L|144:248,1,89.999997253418,0|0,1:0|0:0,0:0:0:0:
296,344,149822,6,0,P|344:304|360:264,1,89.999997253418,0|0,3:0|0:0,0:0:0:0:
218,144,150128,2,0,P|228:205|255:239,1,89.999997253418,2|0,1:2|0:0,0:0:0:0:
456,360,150434,6,0,L|496:176,1,179.999994506836,0|0,3:0|1:0,0:0:0:0:
494,184,150893,1,0,0:0:0:0:
432,52,151046,2,0,P|392:32|328:48,1,89.999997253418,0|0,1:0|0:0,0:0:0:0:
356,192,151352,6,0,L|376:120,2,59.9999981689453,2|2|2,3:2|0:0|0:0,0:0:0:0:
260,16,151658,2,0,L|240:88,2,59.9999981689453,2|2|2,1:2|0:2|0:2,0:0:0:0:
244,248,151964,6,0,L|268:152,1,59.9999981689453,2|2,1:2|0:2,0:0:0:0:
52,120,152168,1,2,0:2:0:0:
32,192,152270,6,0,P|116:208|184:132,1,179.999994506836,0|0,3:2|1:0,0:0:0:0:
16,296,152729,1,0,0:0:0:0:
96,352,152882,2,0,L|192:368,1,89.999997253418,0|0,1:0|0:0,0:0:0:0:
376,192,153188,6,0,B|268:208|328:248|212:264,1,179.999994506836,0|2,3:0|1:2,0:0:0:0:
215,263,153647,1,0,0:0:0:0:
460,376,153800,6,0,L|484:280,1,89.999997253418,0|0,3:0|0:0,0:0:0:0:
397,104,154106,2,0,L|373:200,1,89.999997253418,0|0,1:0|0:0,0:0:0:0:
356,280,154412,1,0,1:0:0:0:
488,180,154565,1,0,0:0:0:0:
280,120,154718,6,0,L|80:164,1,179.999994506836,0|2,3:0|1:2,0:0:0:0:
104,158,155178,1,0,0:0:0:0:
316,360,155331,6,0,P|404:360|452:280,1,179.999994506836,0|0,3:0|1:0,0:0:0:0:
268,264,155790,1,0,0:0:0:0:
168,300,155943,2,0,L|72:328,1,89.999997253418,0|0,1:0|0:0,0:0:0:0:
392,344,156249,6,0,P|404:284|416:228,1,89.999997253418,0|0,3:0|0:0,0:0:0:0:
184,200,156555,2,0,P|172:140|160:84,1,89.999997253418,2|0,1:2|0:0,0:0:0:0:
480,116,156861,6,0,P|440:128|372:148,1,89.999997253418,0|0,3:0|0:0,0:0:0:0:
216,24,157167,2,0,P|246:52|297:101,1,89.999997253418,0|0,1:0|0:0,0:0:0:0:
264,288,157473,2,0,P|273:247|290:178,1,89.999997253418,0|0,1:0|0:0,0:0:0:0:
480,116,157779,5,2,3:2:0:0:
392,344,157932,1,2,1:2:0:0:
280,108,158085,5,2,0:2:0:0:
444,248,158238,1,2,0:2:0:0:
224,316,158391,2,0,L|144:336,2,59.9999981689453,2|0|0,1:2|0:0|0:0,0:0:0:0:
80,364,158697,6,0,P|36:288|60:200,1,179.999994506836,0|0,3:0|1:0,0:0:0:0:
88,112,159156,1,2,0:2:0:0:
240,204,159309,2,0,P|192:204|152:172,1,89.999997253418,2|0,1:2|0:2,0:0:0:0:
468,48,159615,6,0,P|480:87|492:152,1,89.999997253418,0|0,3:0|0:0,0:0:0:0:
232,88,159921,2,0,P|240:43|254:1,1,89.999997253418,2|2,1:2|0:0,0:0:0:0:
476,248,160227,6,0,B|412:224|412:224|392:180|392:180|316:160,1,179.999994506836,0|0,3:0|1:0,0:0:0:0:
400,320,160686,1,2,0:0:0:0:
228,236,160839,2,0,L|332:264,1,89.999997253418,2|0,1:2|0:0,0:0:0:0:
248,32,161145,6,0,P|164:20|96:92,1,179.999994506836,0|2,3:0|1:2,0:0:0:0:
99,81,161605,1,0,0:2:0:0:
360,132,161758,6,0,P|444:120|512:192,1,179.999994506836,0|0,3:0|1:0,0:0:0:0:
412,212,162217,1,2,0:2:0:0:
264,136,162370,2,0,P|280:80|308:40,1,89.999997253418,2|0,1:2|0:0,0:0:0:0:
480,304,162676,6,0,P|420:324|376:340,1,89.999997253418,0|0,3:0|0:0,0:0:0:0:
264,136,162982,2,0,P|221:121|178:106,1,89.999997253418,2|2,1:2|0:2,0:0:0:0:
56,324,163288,6,0,L|248:280,1,179.999994506836,0|0,3:0|1:0,0:0:0:0:
120,220,163747,1,2,0:0:0:0:
304,348,163900,2,0,P|320:296|320:240,1,89.999997253418,2|0,1:2|0:0,0:0:0:0:
84,128,164206,6,0,L|0:160,2,59.9999981689453,2|2|2,3:2|0:2|0:2,0:0:0:0:
200,16,164512,2,0,L|180:88,2,59.9999981689453,2|2|2,1:2|0:2|0:2,0:0:0:0:
264,204,164818,2,0,L|284:124,1,59.9999981689453,2|2,1:2|0:2,0:0:0:0:
317,4,165022,1,2,0:2:0:0:
343,89,165124,6,0,B|450:92|398:140|526:132,1,179.999994506836,0|0,3:0|1:0,0:0:0:0:
493,40,165583,1,2,0:0:0:0:
428,228,165736,2,0,L|404:328,1,89.999997253418,2|0,1:2|0:0,0:0:0:0:
102,366,166042,6,0,P|86:321|70:255,1,89.999997253418,0|0,3:0|0:0,0:0:0:0:
224,210,166348,2,0,P|212:253|197:295,1,89.999997253418,2|0,1:2|0:0,0:0:0:0:
28,136,166654,6,0,P|112:164|148:180,1,89.999997253418,0|0,3:0|0:0,0:0:0:0:
316,20,166960,2,0,P|249:78|217:101,1,89.999997253418,0|2,1:0|0:2,0:0:0:0:
288,320,167266,2,0,P|270:233|266:194,1,89.999997253418,2|0,1:2|0:0,0:0:0:0:
452,88,167572,5,0,3:0:0:0:
321,143,167726,1,0,0:0:0:0:
500,309,167879,1,2,1:2:0:0:
269,231,168032,1,0,0:0:0:0:
224,372,168185,6,0,P|304:348|344:340,1,89.999997253418,0|2,3:0|0:2,0:0:0:0:
492,192,168491,2,0,P|500:140|504:80,1,89.999997253418,0|2,1:0|0:2,0:0:0:0:
268,16,168797,2,0,P|260:68|256:128,1,89.999997253418,2|0,1:2|0:0,0:0:0:0:
404,264,169103,6,0,P|352:244|300:228,1,89.999997253418,0|0,3:0|0:0,0:0:0:0:
49,301,169409,2,0,P|89:280|130:262,1,89.999997253418,2|2,1:2|0:2,0:0:0:0:
191,35,169715,6,0,L|223:239,1,179.999994506836,0|0,3:0|1:0,0:0:0:0:
218,212,170174,1,0,0:0:0:0:
60,96,170327,5,2,1:2:0:0:
328,46,170480,1,2,0:2:0:0:
218,212,170633,1,2,3:2:0:0:
256,192,170709,12,0,171551,0:0:0:0:
92,272,172399,6,0,B|80:312|80:312|92:372,1,94.9999974632263,4|2,0:0|0:2,0:0:0:0:
236,164,172605,2,0,B|248:124|248:124|236:64,1,94.9999974632263,8|2,0:0|0:2,0:0:0:0:
64,28,172812,1,0,0:0:0:0:
64,28,172916,1,2,0:2:0:0:
44,148,173019,2,0,L|152:124,1,94.9999974632263,10|0,0:0|0:0,0:0:0:0:
380,320,173226,6,2,P|304:264|196:284,1,189.999994926453,2|10,0:0|0:0,0:0:0:0:
407,209,173536,1,10,0:0:0:0:
418,97,173640,2,0,B|368:91|368:91|330:125,1,94.9999974632263,0|10,0:0|0:0,0:0:0:0:
480,305,173847,2,0,L|505:190,1,94.9999974632263,0|10,0:0|0:0,0:0:0:0:
195,0,174054,6,2,B|170:58|170:58|202:203,1,189.999994926453,4|8,0:0|0:0,0:0:0:0:
53,330,174364,2,2,B|78:272|78:272|46:127,1,189.999994926453,0|2,0:0|0:0,0:0:0:0:
179,287,174674,2,0,P|234:309|279:306,1,94.9999974632263,8|0,0:0|0:0,0:0:0:0:
340,48,174881,5,6,0:2:0:0:
414,114,174985,1,2,0:2:0:0:
350,186,175088,2,0,L|254:203,1,94.9999974632263,10|10,0:2|0:2,0:0:0:0:
362,374,175295,2,0,L|395:282,1,94.9999974632263,6|2,0:2|0:2,0:0:0:0:
146,136,175502,1,10,0:2:0:0:
146,136,175605,1,10,0:2:0:0:
107,272,175709,6,2,P|189:278|258:175,1,189.999994926453,6|8,0:0|0:0,0:0:0:0:
76,45,176019,1,0,0:0:0:0:
76,45,176123,2,0,P|43:99|38:147,1,94.9999974632263
344,204,176330,2,0,P|332:158|305:119,1,94.9999974632263,10|0,0:0|0:0,0:0:0:0:
20,306,176536,6,0,B|71:322|71:322|108:306|108:306|151:310|205:369,1,189.999994926453,2|8,0:0|0:0,0:0:0:0:
138,120,176847,2,0,B|119:163|119:163|112:220,1,94.9999974632263,10|0,0:0|0:0,0:0:0:0:
206,370,177054,1,8,0:0:0:0:
283,186,177157,2,0,B|243:211|243:211|206:255,1,94.9999974632263,2|8,0:0|0:0,0:0:0:0:
426,376,177364,6,2,B|440:344|446:310|446:310|429:263|429:263|432:233|450:191,1,189.999994926453,4|10,0:0|0:0,0:0:0:0:
319,26,177674,1,0,0:0:0:0:
319,26,177778,2,0,L|208:46,1,94.9999974632263
316,195,177985,2,0,L|427:175,1,94.9999974632263,10|0,0:0|0:0,0:0:0:0:
175,150,178192,6,0,P|92:134|8:208,1,189.999994926453,6|10,0:2|0:2,0:0:0:0:
197,306,178502,1,10,0:2:0:0:
110,237,178605,2,0,P|94:308|89:348,1,94.9999974632263,4|8,0:2|0:3,0:0:0:0:
316,195,178812,2,0,P|332:124|337:84,1,94.9999974632263,4|4,0:3|0:3,0:0:0:0:
208,327,179019,6,0,L|308:350,1,94.9999974632263,6|0,0:0|0:0,0:0:0:0:
408,216,179226,2,0,L|308:193,1,94.9999974632263,10|0,0:0|0:0,0:0:0:0:
114,75,179433,1,2,0:0:0:0:
114,75,179536,1,0,0:0:0:0:
240,50,179640,2,0,L|211:155,1,94.9999974632263,10|0,0:0|0:0,0:0:0:0:
174,306,179847,5,2,0:0:0:0:
111,185,179950,1,0,0:2:0:0:
183,344,180054,2,0,B|218:351|218:351|296:339,1,94.9999974632263,14|10,0:2|0:2,0:0:0:0:
93,214,180261,2,0,B|58:207|58:207|-20:219,1,94.9999974632263,8|10,0:3|0:2,0:0:0:0:
89,316,180467,1,4,0:3:0:0:
89,316,180571,1,10,0:2:0:0:
209,227,180674,6,2,P|232:134|169:39,1,189.999994926453,4|10,0:0|0:0,0:0:0:0:
316,157,180985,2,2,P|406:178|488:135,1,189.999994926453,0|2,0:0|0:0,0:0:0:0:
313,256,181295,2,0,P|323:302|329:349,1,94.9999974632263,10|0,0:0|0:0,0:0:0:0:
464,29,181502,5,2,0:0:0:0:
464,29,181605,1,0,0:0:0:0:
488,135,181709,2,0,L|385:111,1,94.9999974632263,14|10,0:2|0:2,0:0:0:0:
230,58,181916,1,0,0:0:0:0:
364,131,182019,1,2,0:0:0:0:
170,233,182123,2,0,L|67:209,1,94.9999974632263,10|0,0:0|0:0,0:0:0:0:
404,366,182330,6,0,L|426:261,1,94.9999974632263,6|2,0:0|0:0,0:0:0:0:
307,221,182536,1,14,0:2:0:0:
450,297,182640,1,2,0:2:0:0:
290,245,182743,6,0,L|268:140,1,94.9999974632263,2|2,0:0|0:0,0:0:0:0:
387,100,182950,1,14,0:2:0:0:
244,176,183054,1,2,0:2:0:0:
406,69,183157,6,0,L|500:94,1,94.9999974632263,2|2,0:0|0:0,0:0:0:0:
180,108,183364,2,0,P|165:50|155:2,1,94.9999974632263,14|10,0:2|0:0,0:0:0:0:
448,296,183571,2,0,P|460:250|472:204,1,94.9999974632263,2|10,0:0|0:0,0:0:0:0:
267,287,183778,2,0,L|175:262,1,94.9999974632263,6|10,0:2|0:0,0:0:0:0:
58,20,183985,5,6,0:0:0:0:
65,26,184088,1,0,0:0:0:0:
72,33,184192,2,0,P|82:86|81:132,1,94.9999974632263,0|2,0:0|0:0,0:0:0:0:
60,360,184399,5,0,0:0:0:0:
53,354,184502,1,0,0:0:0:0:
46,347,184605,2,0,P|35:293|36:247,1,94.9999974632263,10|2,0:2|0:2,0:0:0:0:
218,62,184812,6,0,B|335:69|270:121|404:122,1,189.999994926453,2|10,0:0|0:2,0:0:0:0:
474,67,185123,1,10,0:2:0:0:
229,175,185226,1,2,0:2:0:0:
229,175,185330,1,2,0:2:0:0:
382,7,185433,1,8,0:3:0:0:
382,7,185536,1,4,0:3:0:0:
458,284,185640,5,4,0:0:0:0:
119,85,186364,5,4,0:0:0:0:
254,357,186881,5,0,0:0:0:0:
463,59,187295,5,4,0:0:0:0:
108,225,188019,5,4,0:0:0:0:
458,284,188950,5,4,0:0:0:0:
223,23,189674,5,4,0:0:0:0:
81,361,190192,5,0,0:0:0:0:
81,361,190605,5,0,2:0:0:0:
327,142,192261,6,0,P|420:158|482:48,1,200,4|8,0:2|0:0,0:0:0:0:
386,63,192571,1,0,0:0:0:0:
239,203,192674,2,0,P|227:152|233:91,1,99.9999999999999,2|0,0:2|0:0,0:0:0:0:
287,11,192881,1,10,0:2:0:0:
328,253,192985,6,0,P|271:320|153:324,1,200,4|0,0:2|0:0,0:0:0:0:
57,66,193295,2,0,L|28:182,1,99.9999999999999,10|8,0:0|0:0,0:0:0:0:
358,264,193502,2,0,L|333:166,1,99.9999999999999,4|8,0:2|0:0,0:0:0:0:
93,256,193709,2,0,L|68:353,1,99.9999999999999,2|8,0:0|0:0,0:0:0:0:
346,70,193916,6,0,B|223:76|294:140|127:150,1,200,4|8,0:2|0:0,0:0:0:0:
333,166,194226,1,0,0:0:0:0:
429,0,194330,2,0,P|452:55|450:117,1,99.9999999999999,2|0,0:2|0:0,0:0:0:0:
373,273,194536,1,0,0:0:0:0:
333,166,194640,6,0,P|431:173|486:257,1,200,4|0,0:2|0:0,0:0:0:0:
239,342,194950,2,0,P|254:270|270:233,1,99.9999999999999,10|8,0:0|0:0,0:0:0:0:
201,52,195157,2,0,P|217:99|225:148,1,99.9999999999999
160,237,195364,1,10,0:0:0:0:
333,166,195467,1,8,0:0:0:0:
207,323,195571,6,0,B|159:331|159:331|110:314|110:314|64:322|12:377,1,200,4|8,0:2|0:0,0:0:0:0:
72,152,195881,1,0,0:0:0:0:
72,152,195985,2,0,P|41:210|42:249,1,99.9999999999999,2|0,0:2|0:0,0:0:0:0:
310,369,196192,1,10,0:2:0:0:
388,287,196295,6,0,P|402:187|342:95,1,200,4|0,0:2|0:0,0:0:0:0:
173,26,196605,1,10,0:0:0:0:
173,26,196709,1,8,0:0:0:0:
235,141,196812,2,0,L|355:122,1,99.9999999999999,4|8,0:2|0:0,0:0:0:0:
495,9,197019,2,0,L|375:28,1,99.9999999999999,2|8,0:0|0:0,0:0:0:0:
109,124,197226,6,0,B|66:249|66:249|56:209|-4:179,1,200,4|8,0:2|0:0,0:0:0:0:
128,335,197536,1,0,0:0:0:0:
128,335,197640,2,0,P|76:356|22:344,1,99.9999999999999,0|2,0:0|0:2,0:0:0:0:
109,124,197847,1,10,0:2:0:0:
242,345,197950,6,0,B|312:330|312:330|357:365|357:365|444:346,1,200,4|0,0:2|0:0,0:0:0:0:
360,185,198261,1,8,0:0:0:0:
459,346,198364,1,0,0:0:0:0:
388,67,198467,2,0,L|279:100,1,99.9999999999999,8|8,0:3|0:3,0:0:0:0:
460,256,198674,2,0,L|502:150,1,99.9999999999999,4|4,0:3|0:3,0:0:0:0:
258,189,198881,6,0,P|266:217|269:258,1,56.2500021457672,0|0,3:0|2:0,0:0:0:0:
239,271,199088,6,0,L|207:53,1,200,4|2,0:2|0:2,0:0:0:0:
45,4,199399,1,10,0:2:0:0:
19,155,199502,2,0,L|4:228,1,50,2|0,2:0|0:0,0:0:0:0:
9,204,199605,6,0,B|63:184|104:217|104:217|132:171|209:179,1,200,4|0,0:2|0:0,0:0:0:0:
46,379,199916,2,0,B|28:338|28:338|43:273,1,99.9999999999999,10|8,0:0|0:0,0:0:0:0:
273,124,200123,2,0,B|291:165|291:165|276:230,1,99.9999999999999,4|8,0:2|0:0,0:0:0:0:
144,326,200330,1,2,0:0:0:0:
144,326,200433,1,8,0:0:0:0:
193,66,200536,6,0,B|313:59|263:119|403:98,1,200,4|8,0:2|0:0,0:0:0:0:
481,241,200847,1,0,0:0:0:0:
435,71,200950,2,0,L|408:178,1,99.9999999999999,2|2,0:2|0:2,0:0:0:0:
357,359,201157,1,10,0:2:0:0:
152,278,201261,6,0,P|222:211|342:236,1,200,4|0,0:2|0:0,0:0:0:0:
451,329,201571,2,0,P|394:342|348:363,1,99.9999999999999,10|8,0:0|0:0,0:0:0:0:
163,384,201778,2,0,P|180:328|185:277,1,99.9999999999999
340,122,201985,2,0,P|322:177|317:228,1,99.9999999999999,10|8,0:0|0:0,0:0:0:0:
226,28,202192,6,0,L|17:80,1,200,4|8,0:2|0:0,0:0:0:0:
221,127,202502,1,0,0:0:0:0:
119,149,202605,2,0,L|8:177,1,99.9999999999999,2|2,0:2|0:2,0:0:0:0:
47,351,202812,1,10,0:2:0:0:
116,260,202916,6,0,B|192:265|192:265|224:299|224:299|308:306,1,200,4|0,0:2|0:0,0:0:0:0:
351,111,203226,2,0,P|315:190|315:230,1,99.9999999999999,10|8,0:0|0:0,0:0:0:0:
408,378,203433,2,0,P|444:299|444:259,1,99.9999999999999,4|8,0:2|0:0,0:0:0:0:
332,85,203640,2,0,L|225:108,1,99.9999999999999,2|8,0:0|0:0,0:0:0:0:
7,260,203847,6,0,P|102:261|164:358,1,200,4|8,0:2|0:0,0:0:0:0:
43,144,204157,1,0,0:0:0:0:
43,144,204261,2,0,P|92:112|140:112,1,99.9999999999999,2|2,0:2|0:2,0:0:0:0:
234,106,204467,1,10,0:2:0:0:
376,279,204571,6,2,P|290:293|218:193,1,200
452,52,204881,2,0,B|469:99|469:99|458:165,1,99.9999999999999,10|8,0:0|0:0,0:0:0:0:
252,134,205088,2,0,L|376:114,1,99.9999999999999,2|8,0:0|0:3,0:0:0:0:
474,263,205295,2,0,L|350:283,1,99.9999999999999,4|4,0:3|0:3,0:0:0:0:
66,370,205502,6,0,B|41:316|41:316|76:175,1,200,4|8,0:2|0:0,0:0:0:0:
235,270,205812,1,0,0:0:0:0:
136,300,205916,2,0,L|163:185,1,99.9999999999999,2|2,0:2|0:2,0:0:0:0:
403,99,206123,1,10,0:2:0:0:
321,214,206226,6,0,L|291:9,1,200,4|0,0:2|0:0,0:0:0:0:
165,78,206536,2,0,P|147:146|143:186,1,99.9999999999999,10|8,0:0|0:0,0:0:0:0:
444,230,206743,2,0,P|436:180|422:132,1,99.9999999999999,4|8,0:2|0:0,0:0:0:0:
232,197,206950,2,0,P|217:244|210:294,1,99.9999999999999,2|8,0:0|0:0,0:0:0:0:
503,319,207157,6,0,B|386:327|438:375|300:374,1,200,4|8,0:2|0:0,0:0:0:0:
314,373,207467,1,0,0:0:0:0:
444,230,207571,2,0,P|436:180|422:132,1,99.9999999999999,2|2,0:2|0:2,0:0:0:0:
213,26,207778,1,10,0:2:0:0:
339,160,207881,6,0,P|267:182|176:92,1,200,4|0,0:2|0:0,0:0:0:0:
101,22,208192,2,0,L|6:50,1,99.9999999999999,10|8,0:0|0:0,0:0:0:0:
123,249,208399,1,0,0:0:0:0:
123,249,208502,1,0,0:0:0:0:
38,152,208605,2,0,L|133:124,1,99.9999999999999,10|0,0:0|0:0,0:0:0:0:
474,53,208812,6,0,B|409:39|409:39|356:67|356:67|281:53,1,200,4|8,0:2|0:0,0:0:0:0:
408,241,209123,1,0,0:0:0:0:
408,241,209226,2,0,P|411:187|427:139,1,99.9999999999999,2|0,0:2|0:0,0:0:0:0:
474,53,209433,1,0,0:0:0:0:
428,345,209536,6,0,B|378:346|378:346|342:321|342:321|283:330|226:388,1,200,4|0,0:2|0:0,0:0:0:0:
110,215,209847,2,0,L|6:247,1,99.9999999999999,10|8,0:0|0:0,0:0:0:0:
284,291,210054,2,0,L|315:177,1,99.9999999999999,4|8,0:2|0:0,0:0:0:0:
136,118,210261,2,0,L|105:232,1,99.9999999999999,2|8,0:0|0:0,0:0:0:0:
435,174,210467,6,0,P|392:87|278:81,1,200,4|8,0:2|0:0,0:0:0:0:
56,65,210778,1,0,0:0:0:0:
56,65,210881,2,0,P|83:98|151:117,1,99.9999999999999,0|2,0:0|0:2,0:0:0:0:
271,193,211088,2,0,P|224:208|191:245,1,99.9999999999999,10|0,0:2|0:0,0:0:0:0:
387,347,211295,5,4,0:2:0:0:
284,291,211399,1,2,0:2:0:0:
399,371,211502,2,0,L|498:343,1,99.9999999999999,10|10,0:2|0:2,0:0:0:0:
299,100,211709,2,2,P|270:170|274:209,1,99.9999999999999,10|10,0:2|0:1,0:0:0:0:
399,371,211916,2,2,P|428:301|424:262,1,99.9999999999999,10|10,0:2|0:1,0:0:0:0:
250,27,212123,6,0,L|59:60,1,184.999999294281,6|10,0:0|0:0,0:0:0:0:
92,229,212433,1,0,0:0:0:0:
36,151,212536,2,0,L|133:136,1,92.4999996471404,2|0,0:0|0:0,0:0:0:0:
326,98,212743,1,8,0:0:0:0:
230,116,212847,6,2,P|199:197|246:276,1,184.999999294281,0|2,0:0|0:0,0:0:0:0:
490,223,213157,2,0,L|386:201,1,92.4999996471404,10|10,0:2|0:2,0:0:0:0:
326,98,213364,2,0,P|344:34|355:-13,1,92.4999996471404,2|10,0:2|0:2,0:0:0:0:
399,203,213571,2,0,P|381:267|370:314,1,92.4999996471404,2|10,0:2|0:2,0:0:0:0:
293,191,213778,6,0,L|188:170,1,92.4999996471404,2|0,0:0|0:0,0:0:0:0:
132,45,213985,2,0,L|237:66,1,92.4999996471404,10|0,0:0|0:0,0:0:0:0:
202,172,214192,2,0,L|177:278,1,92.4999996471404,2|0,0:0|0:0,0:0:0:0:
108,381,214399,1,8,0:0:0:0:
76,288,214502,6,2,B|184:267|147:325|256:302,1,184.999999294281,0|2,0:0|0:0,0:0:0:0:
389,171,214812,2,0,L|298:192,1,92.4999996471404,10|8,0:0|0:0,0:0:0:0:
400,284,215019,1,2,0:2:0:0:
400,284,215071,1,2,0:2:0:0:
400,284,215123,1,2,0:2:0:0:
474,219,215226,2,0,L|498:126,1,92.4999996471404,10|8,0:0|0:0,0:0:0:0:
341,18,215433,6,0,L|317:111,2,92.4999996471404,6|0|10,0:0|0:0|0:0,0:0:0:0:
228,51,215743,1,0,0:0:0:0:
228,51,215847,2,0,L|132:34,1,92.4999996471404,2|0,0:0|0:0,0:0:0:0:
116,235,216054,1,8,0:0:0:0:
17,193,216157,6,2,P|86:137|190:156,1,184.999999294281,0|2,0:0|0:0,0:0:0:0:
317,107,216467,2,0,L|292:211,1,92.4999996471404,10|10,0:2|0:2,0:0:0:0:
226,266,216674,1,2,0:2:0:0:
226,266,216778,1,10,0:2:0:0:
279,348,216881,2,0,L|383:323,1,92.4999996471404,2|10,0:2|0:2,0:0:0:0:
431,203,217088,6,0,L|327:228,2,92.4999996471404,2|0|10,0:0|0:0|0:0,0:0:0:0:
495,81,217399,1,0,0:0:0:0:
413,17,217502,2,0,L|396:120,1,92.4999996471404,2|0,0:0|0:0,0:0:0:0:
397,108,217709,1,8,0:0:0:0:
234,204,217812,6,2,L|207:14,1,184.999999294281
16,76,218123,2,0,L|119:95,1,92.4999996471404,8|8,0:0|0:0,0:0:0:0:
32,185,218330,2,0,L|135:204,1,92.4999996471404,8|8,0:3|0:3,0:0:0:0:
51,290,218536,2,0,L|154:309,1,92.4999996471404,4|4,0:3|0:3,0:0:0:0:
359,169,218743,6,0,P|291:109|199:129,1,184.999999294281,6|10,0:0|0:0,0:0:0:0:
248,291,219054,1,0,0:0:0:0:
248,291,219157,2,0,L|268:179,1,92.4999996471404,2|0,0:0|0:0,0:0:0:0:
337,28,219364,1,8,0:0:0:0:
453,83,219467,6,2,L|480:282,1,184.999999294281,0|2,0:0|0:0,0:0:0:0:
332,360,219778,2,0,L|354:251,1,92.4999996471404,10|10,0:2|0:2,0:0:0:0:
217,112,219985,2,0,L|119:141,1,92.4999996471404,2|10,0:2|0:2,0:0:0:0:
285,191,220192,2,0,L|383:162,1,92.4999996471404,2|10,0:2|0:2,0:0:0:0:
49,270,220399,6,0,P|30:341|35:377,2,92.4999996471404,2|0|10,0:0|0:0|0:0,0:0:0:0:
134,325,220709,1,0,0:0:0:0:
213,264,220812,2,0,L|195:161,1,92.4999996471404,2|0,0:0|0:0,0:0:0:0:
67,28,221019,1,8,0:0:0:0:
2,103,221123,6,2,P|88:129|170:59,1,184.999999294281,0|2,0:0|0:0,0:0:0:0:
232,29,221433,2,0,L|340:49,1,92.4999996471404,10|8,0:0|0:0,0:0:0:0:
496,83,221640,1,2,0:2:0:0:
496,83,221692,1,2,0:2:0:0:
496,83,221743,1,2,0:2:0:0:
418,21,221847,2,0,L|392:130,1,92.4999996471404,10|8,0:0|0:0,0:0:0:0:
280,234,222054,6,0,L|258:362,2,92.4999996471404,6|0|10,0:0|0:0|0:0,0:0:0:0:
381,207,222364,1,0,0:0:0:0:
289,133,222467,2,0,L|197:144,1,92.4999996471404,2|0,0:0|0:0,0:0:0:0:
6,178,222674,1,8,0:0:0:0:
65,86,222778,6,2,P|106:168|65:269,1,184.999999294281,0|2,0:0|0:0,0:0:0:0:
185,368,223088,2,0,P|190:314|203:267,1,92.4999996471404,10|10,0:2|0:2,0:0:0:0:
289,133,223295,2,0,P|333:164|367:199,1,92.4999996471404,2|10,0:2|0:2,0:0:0:0:
446,329,223502,2,0,P|396:351|349:363,1,92.4999996471404,2|10,0:2|0:2,0:0:0:0:
189,172,223709,6,0,L|175:74,1,92.4999996471404,2|0,0:0|0:0,0:0:0:0:
353,8,223916,2,0,L|367:106,1,92.4999996471404,10|0,0:0|0:0,0:0:0:0:
199,277,224123,2,0,L|99:260,1,92.4999996471404,2|0,0:0|0:0,0:0:0:0:
292,175,224330,1,8,0:0:0:0:
298,342,224433,6,2,P|381:357|461:257,1,184.999999294281
387,92,224743,1,8,0:0:0:0:
304,164,224847,2,0,L|282:267,1,92.4999996471404,8|2,0:0|0:2,0:0:0:0:
201,21,225054,2,0,L|179:124,1,92.4999996471404,0|2,0:0|0:2,0:0:0:0:
159,104,225209,5,0,0:0:0:0:
159,104,225261,2,0,L|149:158,2,46.2499998235702
