osu file format v14

[General]
AudioFilename: audio.mp3
AudioLeadIn: 0
PreviewTime: 77855
Countdown: 0
SampleSet: Normal
StackLeniency: 0.7
Mode: 1
LetterboxInBreaks: 0
WidescreenStoryboard: 1

[Editor]
Bookmarks: 39114
DistanceSpacing: 0.6
BeatDivisor: 4
GridSize: 32
TimelineZoom: 3.099998

[Metadata]
Title:Towa naru Kizuna to Omoi no Kiseki
TitleUnicode:永遠なる絆と想いのキセキ
Artist:nao
ArtistUnicode:nao
Creator:[R]
Version:Volta's Inner Oni
Source:恋する少女(ドール)と想いのキセキ ~Poupee de souhaits~
Tags:ron volta charlotte Koi Suru Doll to Omoi no Kiseki Sugar Pot video game japanese visual novel eroge Koisuru Shoujo opening op jrock j-rock rock galgame
BeatmapID:3642903
BeatmapSetID:648066

[Difficulty]
HPDrainRate:6
CircleSize:2
OverallDifficulty:6
ApproachRate:5
SliderMultiplier:1.4
SliderTickRate:1

[Events]
//Background and Video events
0,0,"BG.jpg",0,30
//Break Periods
//Storyboard Layer 0 (Background)
//Storyboard Layer 1 (Fail)
//Storyboard Layer 2 (Pass)
//Storyboard Layer 3 (Foreground)
//Storyboard Layer 4 (Overlay)
//Storyboard Sound Samples

[TimingPoints]
189,352.941176470588,5,1,0,15,1,0
5483,352.941176470588,6,1,0,20,1,0
7600,352.941176470588,5,1,0,30,1,0
12894,352.941176470588,6,1,0,40,1,0
15011,206.896551724138,4,1,0,80,1,0
15011,-113.636363636364,4,1,0,80,0,0
16666,-113.636363636364,4,1,0,90,0,0
29907,-113.636363636364,4,1,0,70,0,0
43148,-113.636363636364,4,1,0,90,0,0
49769,-113.636363636364,4,1,0,70,0,0
69631,-113.636363636364,4,1,0,80,0,0
74597,-113.636363636364,4,1,0,90,0,0
77907,-113.636363636364,4,1,0,100,0,1
91148,-113.636363636364,4,1,0,90,0,0

[HitObjects]
22,176,189,5,8,0:0:0:0:
12,176,894,1,0,0:0:0:0:
12,176,1247,1,8,0:0:0:0:
243,148,1953,1,0,0:0:0:0:
243,148,2659,1,8,0:0:0:0:
243,148,3012,1,0,0:0:0:0:
243,148,3718,1,0,0:0:0:0:
243,148,4424,1,8,0:0:0:0:
243,148,4777,1,8,0:0:0:0:
243,148,5130,1,0,0:0:0:0:
243,148,5483,1,0,0:0:0:0:
243,148,6188,1,0,0:0:0:0:
243,148,6541,1,8,0:0:0:0:
138,165,6894,1,0,0:0:0:0:
243,148,7247,1,0,0:0:0:0:
243,148,7600,1,8,0:0:0:0:
243,148,8305,1,0,0:0:0:0:
79,112,8658,1,8,0:0:0:0:
79,112,9364,1,0,0:0:0:0:
79,112,10070,1,8,0:0:0:0:
79,112,10423,1,0,0:0:0:0:
243,148,11129,1,0,0:0:0:0:
243,148,11835,1,8,0:0:0:0:
243,148,12188,1,8,0:0:0:0:
243,148,12541,1,0,0:0:0:0:
243,148,12894,1,0,0:0:0:0:
243,148,13246,1,8,0:0:0:0:
126,92,13599,1,0,0:0:0:0:
126,92,13952,1,8,0:0:0:0:
181,164,15011,1,0,0:0:0:0:
181,164,15114,1,0,0:0:0:0:
181,164,15217,1,8,0:0:0:0:
264,68,15286,1,8,0:0:0:0:
264,68,15355,1,8,0:0:0:0:
264,68,15424,1,8,0:0:0:0:
42,156,15528,1,0,0:0:0:0:
38,129,15735,1,0,0:0:0:0:
121,106,15838,1,0,0:0:0:0:
121,106,15942,1,8,0:0:0:0:
121,106,16045,1,8,0:0:0:0:
121,106,16148,1,0,0:0:0:0:
121,106,16252,1,8,0:0:0:0:
121,106,16355,1,8,0:0:0:0:
121,106,16459,1,0,0:0:0:0:
121,106,16562,1,0,0:0:0:0:
96,135,16666,1,12,0:0:0:0:
141,128,16873,1,8,0:0:0:0:
141,128,16976,1,0,0:0:0:0:
141,128,17079,1,8,0:0:0:0:
141,128,17286,1,8,0:0:0:0:
141,128,17390,1,0,0:0:0:0:
60,173,17442,1,0,0:0:0:0:
145,138,17493,1,0,0:0:0:0:
141,128,17597,1,0,0:0:0:0:
141,128,17700,1,8,0:0:0:0:
105,169,17804,1,8,0:0:0:0:
74,151,17907,1,0,0:0:0:0:
74,151,18011,1,8,0:0:0:0:
74,151,18114,1,0,0:0:0:0:
74,151,18217,1,0,0:0:0:0:
74,151,18321,1,8,0:0:0:0:
171,152,18528,1,8,0:0:0:0:
171,152,18631,1,0,0:0:0:0:
171,152,18735,1,8,0:0:0:0:
171,152,18942,1,0,0:0:0:0:
171,152,19045,1,8,0:0:0:0:
171,152,19097,1,8,0:0:0:0:
171,152,19148,1,8,0:0:0:0:
328,195,19252,1,0,0:0:0:0:
345,128,19355,1,8,0:0:0:0:
350,47,19459,1,8,0:0:0:0:
350,47,19562,1,0,0:0:0:0:
350,47,19614,1,0,0:0:0:0:
350,47,19666,1,8,0:0:0:0:
82,127,19769,1,8,0:0:0:0:
82,127,19873,1,0,0:0:0:0:
82,127,19976,1,8,0:0:0:0:
82,127,20183,1,8,0:0:0:0:
82,127,20286,1,0,0:0:0:0:
82,127,20390,1,8,0:0:0:0:
141,128,20597,1,8,0:0:0:0:
141,128,20700,1,0,0:0:0:0:
60,173,20752,1,0,0:0:0:0:
145,138,20804,1,0,0:0:0:0:
141,128,20907,1,0,0:0:0:0:
141,128,21011,1,8,0:0:0:0:
105,169,21114,1,8,0:0:0:0:
74,151,21217,1,0,0:0:0:0:
74,151,21321,1,8,0:0:0:0:
74,151,21424,1,0,0:0:0:0:
74,151,21528,1,0,0:0:0:0:
74,151,21631,1,8,0:0:0:0:
171,152,21838,1,8,0:0:0:0:
171,152,21942,1,0,0:0:0:0:
171,152,22045,1,8,0:0:0:0:
171,152,22252,1,0,0:0:0:0:
171,152,22355,1,8,0:0:0:0:
171,152,22407,1,8,0:0:0:0:
171,152,22459,1,8,0:0:0:0:
96,176,22562,1,0,0:0:0:0:
96,176,22666,1,8,0:0:0:0:
96,176,22769,1,8,0:0:0:0:
149,83,22821,1,8,0:0:0:0:
96,176,22873,1,0,0:0:0:0:
96,176,22976,1,8,0:0:0:0:
96,176,23079,1,8,0:0:0:0:
96,176,23183,1,0,0:0:0:0:
335,207,23286,1,8,0:0:0:0:
141,128,23493,1,8,0:0:0:0:
141,128,23597,1,0,0:0:0:0:
141,128,23700,1,8,0:0:0:0:
141,128,23907,1,8,0:0:0:0:
141,128,24011,1,0,0:0:0:0:
60,173,24062,1,0,0:0:0:0:
145,138,24114,1,0,0:0:0:0:
141,128,24217,1,0,0:0:0:0:
141,128,24321,1,8,0:0:0:0:
105,169,24424,1,8,0:0:0:0:
74,151,24528,1,0,0:0:0:0:
74,151,24631,1,8,0:0:0:0:
74,151,24735,1,0,0:0:0:0:
74,151,24838,1,0,0:0:0:0:
74,151,24942,1,8,0:0:0:0:
171,152,25148,1,8,0:0:0:0:
171,152,25252,1,0,0:0:0:0:
171,152,25355,1,8,0:0:0:0:
171,152,25562,1,0,0:0:0:0:
171,152,25666,1,8,0:0:0:0:
171,152,25717,1,8,0:0:0:0:
171,152,25769,1,8,0:0:0:0:
328,195,25873,1,0,0:0:0:0:
345,128,25976,1,8,0:0:0:0:
350,47,26079,1,8,0:0:0:0:
350,47,26183,1,0,0:0:0:0:
350,47,26235,1,0,0:0:0:0:
350,47,26286,1,8,0:0:0:0:
82,127,26390,1,8,0:0:0:0:
82,127,26493,1,0,0:0:0:0:
82,127,26597,1,8,0:0:0:0:
82,127,26804,1,8,0:0:0:0:
82,127,26907,1,0,0:0:0:0:
82,127,27011,1,8,0:0:0:0:
141,128,27217,1,8,0:0:0:0:
141,128,27321,1,0,0:0:0:0:
60,173,27373,1,0,0:0:0:0:
145,138,27424,1,0,0:0:0:0:
141,128,27528,1,0,0:0:0:0:
141,128,27631,1,8,0:0:0:0:
105,169,27735,1,8,0:0:0:0:
74,151,27838,1,0,0:0:0:0:
74,151,27942,1,8,0:0:0:0:
74,151,28045,1,0,0:0:0:0:
74,151,28148,1,0,0:0:0:0:
74,151,28252,1,8,0:0:0:0:
171,152,28459,1,8,0:0:0:0:
171,152,28562,1,0,0:0:0:0:
171,152,28666,1,8,0:0:0:0:
171,152,28873,1,0,0:0:0:0:
171,152,28976,1,8,0:0:0:0:
171,152,29028,1,8,0:0:0:0:
171,152,29079,1,8,0:0:0:0:
96,176,29183,1,0,0:0:0:0:
96,176,29286,1,8,0:0:0:0:
96,176,29390,1,8,0:0:0:0:
149,83,29442,1,8,0:0:0:0:
96,176,29493,1,0,0:0:0:0:
272,101,29597,1,0,0:0:0:0:
272,101,29700,1,8,0:0:0:0:
272,101,29804,1,8,0:0:0:0:
272,101,29907,1,4,0:0:0:0:
114,222,30114,1,8,0:0:0:0:
114,222,30217,1,0,0:0:0:0:
114,222,30528,1,0,0:0:0:0:
114,222,30735,1,8,0:0:0:0:
114,222,30838,1,8,0:0:0:0:
114,222,30942,1,0,0:0:0:0:
114,222,31045,1,8,0:0:0:0:
136,154,31355,1,0,0:0:0:0:
136,154,31562,1,8,0:0:0:0:
136,154,31769,1,8,0:0:0:0:
136,154,31976,1,0,0:0:0:0:
136,154,32183,1,8,0:0:0:0:
136,154,32390,1,0,0:0:0:0:
136,154,32597,1,0,0:0:0:0:
344,57,32700,1,8,0:0:0:0:
32,157,32907,1,0,0:0:0:0:
344,57,33011,1,8,0:0:0:0:
344,57,33114,1,8,0:0:0:0:
344,57,33217,1,0,0:0:0:0:
41,153,33424,1,8,0:0:0:0:
41,153,33528,1,0,0:0:0:0:
234,88,33838,1,0,0:0:0:0:
234,88,34045,1,8,0:0:0:0:
234,88,34148,1,0,0:0:0:0:
143,125,34252,1,0,0:0:0:0:
143,125,34355,1,8,0:0:0:0:
36,182,34666,1,0,0:0:0:0:
88,111,34873,1,8,0:0:0:0:
88,111,35079,1,8,0:0:0:0:
88,111,35286,1,0,0:0:0:0:
88,111,35493,1,8,0:0:0:0:
88,111,35700,1,8,0:0:0:0:
168,148,35907,1,0,0:0:0:0:
168,148,36114,1,8,0:0:0:0:
168,148,36217,1,0,0:0:0:0:
61,159,36321,1,8,0:0:0:0:
168,148,36424,1,8,0:0:0:0:
366,204,36528,1,0,0:0:0:0:
366,204,36735,1,8,0:0:0:0:
366,204,36838,1,0,0:0:0:0:
366,204,37148,1,0,0:0:0:0:
366,204,37355,1,0,0:0:0:0:
366,204,37459,1,8,0:0:0:0:
53,147,37562,1,0,0:0:0:0:
53,147,37666,1,8,0:0:0:0:
126,71,37976,1,12,0:0:0:0:
246,49,38183,1,0,0:0:0:0:
246,49,38390,1,8,0:0:0:0:
246,49,38597,1,0,0:0:0:0:
41,133,38700,1,0,0:0:0:0:
246,49,38804,1,8,0:0:0:0:
143,125,39011,1,0,0:0:0:0:
143,125,39424,1,12,0:0:0:0:
143,125,39631,1,12,0:0:0:0:
31,140,39838,1,4,0:0:0:0:
78,135,40045,1,8,0:0:0:0:
78,135,40252,1,0,0:0:0:0:
78,135,40355,1,0,0:0:0:0:
131,47,40459,1,8,0:0:0:0:
131,47,40666,1,12,0:0:0:0:
131,47,40873,1,0,0:0:0:0:
317,157,41079,1,8,0:0:0:0:
317,157,41183,1,0,0:0:0:0:
317,157,41286,1,8,0:0:0:0:
317,157,41390,1,8,0:0:0:0:
78,135,41493,1,0,0:0:0:0:
141,107,41700,1,12,0:0:0:0:
141,107,41907,1,12,0:0:0:0:
141,107,42114,1,12,0:0:0:0:
191,141,42321,1,4,0:0:0:0:
191,141,42424,1,0,0:0:0:0:
191,141,42476,1,0,0:0:0:0:
191,141,42528,1,8,0:0:0:0:
191,141,42631,1,8,0:0:0:0:
191,141,42735,1,0,0:0:0:0:
208,74,42838,1,8,0:0:0:0:
208,74,42942,1,0,0:0:0:0:
208,74,43045,1,0,0:0:0:0:
96,135,43148,1,12,0:0:0:0:
141,128,43355,1,8,0:0:0:0:
141,128,43459,1,0,0:0:0:0:
141,128,43562,1,8,0:0:0:0:
141,128,43769,1,8,0:0:0:0:
141,128,43873,1,0,0:0:0:0:
60,173,43924,1,0,0:0:0:0:
145,138,43976,1,0,0:0:0:0:
141,128,44079,1,0,0:0:0:0:
141,128,44183,1,8,0:0:0:0:
105,169,44286,1,8,0:0:0:0:
74,151,44390,1,0,0:0:0:0:
74,151,44493,1,8,0:0:0:0:
74,151,44597,1,0,0:0:0:0:
74,151,44700,1,0,0:0:0:0:
74,151,44804,1,8,0:0:0:0:
171,152,45011,1,8,0:0:0:0:
171,152,45114,1,0,0:0:0:0:
171,152,45217,1,8,0:0:0:0:
171,152,45424,1,0,0:0:0:0:
171,152,45528,1,8,0:0:0:0:
171,152,45579,1,8,0:0:0:0:
171,152,45631,1,8,0:0:0:0:
328,195,45735,1,0,0:0:0:0:
345,128,45838,1,8,0:0:0:0:
350,47,45942,1,8,0:0:0:0:
350,47,46045,1,0,0:0:0:0:
350,47,46097,1,0,0:0:0:0:
350,47,46148,1,8,0:0:0:0:
82,127,46252,1,8,0:0:0:0:
82,127,46355,1,0,0:0:0:0:
82,127,46459,1,8,0:0:0:0:
82,127,46666,1,8,0:0:0:0:
82,127,46769,1,0,0:0:0:0:
82,127,46873,1,8,0:0:0:0:
141,128,47079,1,8,0:0:0:0:
141,128,47183,1,0,0:0:0:0:
60,173,47235,1,0,0:0:0:0:
145,138,47286,1,0,0:0:0:0:
141,128,47390,1,0,0:0:0:0:
141,128,47493,1,8,0:0:0:0:
105,169,47597,1,8,0:0:0:0:
74,151,47700,1,0,0:0:0:0:
74,151,47804,1,8,0:0:0:0:
74,151,47907,1,0,0:0:0:0:
74,151,48011,1,0,0:0:0:0:
74,151,48114,1,8,0:0:0:0:
171,152,48321,1,8,0:0:0:0:
171,152,48424,1,0,0:0:0:0:
171,152,48528,1,8,0:0:0:0:
171,152,48735,1,0,0:0:0:0:
171,152,48838,1,8,0:0:0:0:
171,152,48890,1,8,0:0:0:0:
171,152,48942,1,8,0:0:0:0:
96,176,49045,1,0,0:0:0:0:
96,176,49148,1,8,0:0:0:0:
96,176,49252,1,8,0:0:0:0:
149,83,49304,1,8,0:0:0:0:
96,176,49355,1,0,0:0:0:0:
96,176,49459,1,0,0:0:0:0:
96,176,49562,1,8,0:0:0:0:
96,176,49666,1,8,0:0:0:0:
136,152,49769,1,4,0:0:0:0:
114,222,49976,1,8,0:0:0:0:
114,222,50079,1,0,0:0:0:0:
114,222,50390,1,0,0:0:0:0:
114,222,50597,1,0,0:0:0:0:
114,222,50700,1,8,0:0:0:0:
114,222,50804,1,0,0:0:0:0:
114,222,50907,1,8,0:0:0:0:
136,154,51217,1,0,0:0:0:0:
136,154,51424,1,8,0:0:0:0:
136,154,51631,1,8,0:0:0:0:
136,154,51838,1,0,0:0:0:0:
136,154,52045,1,8,0:0:0:0:
136,154,52252,1,0,0:0:0:0:
136,154,52459,1,0,0:0:0:0:
344,57,52562,1,8,0:0:0:0:
32,157,52769,1,0,0:0:0:0:
344,57,52873,1,8,0:0:0:0:
344,57,52976,1,8,0:0:0:0:
344,57,53079,1,0,0:0:0:0:
204,149,53183,1,0,0:0:0:0:
41,153,53286,1,8,0:0:0:0:
41,153,53390,1,0,0:0:0:0:
234,88,53700,1,0,0:0:0:0:
234,88,53907,1,8,0:0:0:0:
234,88,54010,1,0,0:0:0:0:
143,125,54114,1,0,0:0:0:0:
143,125,54217,1,8,0:0:0:0:
36,182,54528,1,0,0:0:0:0:
88,111,54735,1,8,0:0:0:0:
88,111,54942,1,8,0:0:0:0:
88,111,55148,1,0,0:0:0:0:
88,111,55355,1,8,0:0:0:0:
88,111,55562,1,8,0:0:0:0:
168,148,55769,1,0,0:0:0:0:
168,148,55976,1,8,0:0:0:0:
168,148,56079,1,0,0:0:0:0:
61,159,56183,1,8,0:0:0:0:
168,148,56286,1,8,0:0:0:0:
366,204,56390,1,0,0:0:0:0:
138,117,56493,1,8,0:0:0:0:
366,204,56597,1,8,0:0:0:0:
366,204,56700,1,0,0:0:0:0:
366,204,57010,1,0,0:0:0:0:
366,204,57217,1,8,0:0:0:0:
366,204,57321,1,8,0:0:0:0:
53,147,57424,1,0,0:0:0:0:
53,147,57528,1,8,0:0:0:0:
126,71,57838,1,12,0:0:0:0:
246,49,58045,5,0,0:0:0:0:
246,49,58252,1,8,0:0:0:0:
246,49,58459,1,0,0:0:0:0:
41,133,58562,1,0,0:0:0:0:
246,49,58666,1,8,0:0:0:0:
266,178,58769,1,8,0:0:0:0:
143,125,58873,1,0,0:0:0:0:
136,117,59079,1,8,0:0:0:0:
136,117,59286,1,8,0:0:0:0:
171,131,59390,1,0,0:0:0:0:
136,117,59493,1,8,0:0:0:0:
132,159,59700,5,4,0:0:0:0:
174,76,59907,1,8,0:0:0:0:
174,76,60114,1,0,0:0:0:0:
174,76,60217,1,0,0:0:0:0:
174,76,60321,1,8,0:0:0:0:
132,159,60528,1,12,0:0:0:0:
154,124,60735,1,0,0:0:0:0:
235,215,60942,1,8,0:0:0:0:
235,215,61045,1,8,0:0:0:0:
235,215,61148,1,0,0:0:0:0:
132,159,61355,1,4,0:0:0:0:
136,142,61562,1,8,0:0:0:0:
266,57,61666,1,0,0:0:0:0:
195,148,61769,1,8,0:0:0:0:
266,57,61873,1,0,0:0:0:0:
195,148,61976,1,8,0:0:0:0:
169,106,62183,1,12,0:0:0:0:
1,47,62390,1,8,0:0:0:0:
67,154,62493,1,0,0:0:0:0:
266,178,62597,1,0,0:0:0:0:
91,158,62700,1,0,0:0:0:0:
92,158,62804,1,8,0:0:0:0:
187,225,63011,5,4,0:0:0:0:
228,178,63631,1,0,0:0:0:0:
228,178,63838,1,8,0:0:0:0:
228,178,64045,1,8,0:0:0:0:
228,178,64252,1,0,0:0:0:0:
228,178,64459,1,8,0:0:0:0:
97,136,64666,1,4,0:0:0:0:
218,138,65286,1,0,0:0:0:0:
218,138,65493,1,8,0:0:0:0:
218,138,65907,1,8,0:0:0:0:
218,138,66321,1,4,0:0:0:0:
218,138,66942,1,0,0:0:0:0:
218,138,67148,1,8,0:0:0:0:
218,138,67355,1,8,0:0:0:0:
154,144,67562,1,0,0:0:0:0:
154,144,67769,1,0,0:0:0:0:
218,138,67976,1,12,0:0:0:0:
46,152,68597,5,0,0:0:0:0:
46,152,68804,1,8,0:0:0:0:
46,152,69011,1,0,0:0:0:0:
46,152,69217,1,8,0:0:0:0:
46,152,69424,1,0,0:0:0:0:
46,152,69528,1,8,0:0:0:0:
187,225,69631,5,4,0:0:0:0:
46,152,70045,1,8,0:0:0:0:
46,152,70355,1,8,0:0:0:0:
46,152,70459,1,0,0:0:0:0:
46,152,70666,1,0,0:0:0:0:
46,152,70873,1,8,0:0:0:0:
46,152,71079,1,0,0:0:0:0:
187,225,71286,1,12,0:0:0:0:
101,152,71493,1,0,0:0:0:0:
101,152,71700,1,8,0:0:0:0:
305,281,72011,1,8,0:0:0:0:
305,281,72114,1,0,0:0:0:0:
303,192,72321,1,0,0:0:0:0:
303,192,72528,1,8,0:0:0:0:
303,192,72735,1,8,0:0:0:0:
187,225,72942,1,4,0:0:0:0:
217,88,73355,1,8,0:0:0:0:
217,88,73666,1,8,0:0:0:0:
217,88,73769,1,0,0:0:0:0:
173,92,73976,1,0,0:0:0:0:
201,52,74183,1,8,0:0:0:0:
201,52,74286,1,0,0:0:0:0:
201,52,74390,1,0,0:0:0:0:
187,225,74597,1,12,0:0:0:0:
173,92,74804,1,0,0:0:0:0:
187,225,74907,1,12,0:0:0:0:
173,92,75217,1,8,0:0:0:0:
187,225,75424,1,4,0:0:0:0:
330,280,75631,1,8,0:0:0:0:
187,225,75735,1,4,0:0:0:0:
173,92,76045,1,0,0:0:0:0:
330,280,76252,1,12,0:0:0:0:
330,280,76459,1,12,0:0:0:0:
330,280,76666,1,4,0:0:0:0:
330,280,76873,1,4,0:0:0:0:
330,280,77079,1,12,0:0:0:0:
312,67,77286,1,8,0:0:0:0:
312,67,77355,1,8,0:0:0:0:
312,67,77424,1,8,0:0:0:0:
187,225,77493,1,4,0:0:0:0:
173,92,77907,1,12,0:0:0:0:
35,165,78114,1,8,0:0:0:0:
131,136,78217,1,0,0:0:0:0:
131,136,78321,1,8,0:0:0:0:
131,136,78528,1,0,0:0:0:0:
131,136,78631,1,8,0:0:0:0:
131,136,78683,1,8,0:0:0:0:
131,136,78735,1,8,0:0:0:0:
149,135,78838,1,0,0:0:0:0:
149,135,78942,1,8,0:0:0:0:
241,57,79045,1,0,0:0:0:0:
86,133,79097,1,0,0:0:0:0:
241,57,79148,1,8,0:0:0:0:
241,57,79252,1,0,0:0:0:0:
241,57,79355,1,0,0:0:0:0:
13,123,79459,1,0,0:0:0:0:
241,57,79562,1,8,0:0:0:0:
171,158,79769,1,8,0:0:0:0:
233,162,79873,1,0,0:0:0:0:
233,162,79976,1,8,0:0:0:0:
223,43,80028,1,8,0:0:0:0:
233,162,80079,1,0,0:0:0:0:
233,162,80183,1,8,0:0:0:0:
107,122,80286,1,0,0:0:0:0:
107,122,80338,1,0,0:0:0:0:
233,162,80390,1,0,0:0:0:0:
148,107,80493,1,0,0:0:0:0:
79,113,80597,1,8,0:0:0:0:
79,113,80700,1,0,0:0:0:0:
79,113,80804,1,8,0:0:0:0:
107,122,81011,1,8,0:0:0:0:
107,122,81217,1,4,0:0:0:0:
311,187,81424,1,8,0:0:0:0:
311,187,81528,1,0,0:0:0:0:
311,187,81631,1,0,0:0:0:0:
293,159,81838,1,0,0:0:0:0:
181,103,81942,1,8,0:0:0:0:
181,103,81993,1,8,0:0:0:0:
181,103,82045,1,8,0:0:0:0:
236,6,82148,1,0,0:0:0:0:
172,122,82200,1,0,0:0:0:0:
236,6,82252,1,8,0:0:0:0:
236,6,82355,1,0,0:0:0:0:
236,12,82459,1,8,0:0:0:0:
236,12,82562,1,8,0:0:0:0:
236,12,82666,1,0,0:0:0:0:
13,123,82769,1,0,0:0:0:0:
236,12,82873,1,8,0:0:0:0:
236,12,83079,1,8,0:0:0:0:
236,12,83183,1,0,0:0:0:0:
236,12,83286,1,8,0:0:0:0:
211,45,83493,1,8,0:0:0:0:
144,83,83597,1,0,0:0:0:0:
144,83,83648,1,0,0:0:0:0:
144,83,83700,1,0,0:0:0:0:
144,83,83804,1,0,0:0:0:0:
109,102,83907,1,8,0:0:0:0:
96,112,83959,1,8,0:0:0:0:
96,112,84011,1,0,0:0:0:0:
96,112,84062,1,0,0:0:0:0:
109,102,84114,1,8,0:0:0:0:
96,112,84217,1,0,0:0:0:0:
109,102,84321,1,8,0:0:0:0:
246,139,84528,1,4,0:0:0:0:
35,165,84735,1,8,0:0:0:0:
131,136,84838,1,0,0:0:0:0:
131,136,84942,1,8,0:0:0:0:
131,136,85149,1,0,0:0:0:0:
131,136,85252,1,8,0:0:0:0:
131,136,85304,1,8,0:0:0:0:
131,136,85356,1,8,0:0:0:0:
149,135,85459,1,0,0:0:0:0:
149,135,85563,1,8,0:0:0:0:
241,57,85666,1,0,0:0:0:0:
86,133,85718,1,0,0:0:0:0:
241,57,85769,1,8,0:0:0:0:
241,57,85873,1,0,0:0:0:0:
241,57,85976,1,0,0:0:0:0:
13,123,86080,1,0,0:0:0:0:
241,57,86183,1,8,0:0:0:0:
171,158,86390,1,8,0:0:0:0:
233,162,86494,1,0,0:0:0:0:
233,162,86597,1,8,0:0:0:0:
223,43,86649,1,8,0:0:0:0:
233,162,86700,1,0,0:0:0:0:
233,162,86804,1,8,0:0:0:0:
107,122,86907,1,0,0:0:0:0:
107,122,86959,1,0,0:0:0:0:
233,162,87011,1,0,0:0:0:0:
148,107,87114,1,0,0:0:0:0:
79,113,87218,1,8,0:0:0:0:
79,113,87321,1,0,0:0:0:0:
79,113,87425,1,8,0:0:0:0:
140,112,87631,1,8,0:0:0:0:
221,140,87838,1,4,0:0:0:0:
234,163,88045,1,8,0:0:0:0:
234,163,88148,1,8,0:0:0:0:
234,163,88252,1,0,0:0:0:0:
234,163,88459,1,0,0:0:0:0:
232,127,88562,1,8,0:0:0:0:
232,127,88614,1,8,0:0:0:0:
232,127,88666,1,8,0:0:0:0:
20,159,88769,1,0,0:0:0:0:
69,148,88873,1,8,0:0:0:0:
179,130,88976,1,0,0:0:0:0:
203,137,89028,1,0,0:0:0:0:
203,137,89079,1,8,0:0:0:0:
203,137,89131,1,8,0:0:0:0:
179,130,89183,1,0,0:0:0:0:
204,137,89286,1,8,0:0:0:0:
286,273,89493,5,4,0:0:0:0:
69,148,89700,1,8,0:0:0:0:
76,145,89804,1,0,0:0:0:0:
118,136,90011,1,0,0:0:0:0:
118,136,90114,1,8,0:0:0:0:
118,136,90217,1,0,0:0:0:0:
142,123,90269,1,8,0:0:0:0:
118,136,90321,1,0,0:0:0:0:
118,136,90424,1,0,0:0:0:0:
118,136,90476,1,0,0:0:0:0:
118,136,90528,1,8,0:0:0:0:
36,148,90631,1,0,0:0:0:0:
36,148,90735,1,8,0:0:0:0:
36,148,90838,1,8,0:0:0:0:
36,148,90942,1,8,0:0:0:0:
36,148,91045,1,0,0:0:0:0:
96,135,91148,5,12,0:0:0:0:
141,128,91355,1,8,0:0:0:0:
141,128,91459,1,0,0:0:0:0:
141,128,91562,1,8,0:0:0:0:
141,128,91769,1,8,0:0:0:0:
141,128,91873,1,0,0:0:0:0:
60,173,91924,1,0,0:0:0:0:
145,138,91976,1,0,0:0:0:0:
141,128,92079,1,0,0:0:0:0:
141,128,92183,1,8,0:0:0:0:
105,169,92286,1,8,0:0:0:0:
74,151,92390,1,0,0:0:0:0:
28,145,92442,1,0,0:0:0:0:
74,151,92493,1,8,0:0:0:0:
74,151,92597,1,0,0:0:0:0:
74,151,92700,1,0,0:0:0:0:
74,151,92804,1,8,0:0:0:0:
171,152,93011,1,8,0:0:0:0:
171,152,93114,1,0,0:0:0:0:
171,152,93217,1,8,0:0:0:0:
171,152,93424,1,0,0:0:0:0:
171,152,93528,1,8,0:0:0:0:
171,152,93579,1,8,0:0:0:0:
171,152,93631,1,8,0:0:0:0:
328,195,93735,1,0,0:0:0:0:
76,170,93786,1,0,0:0:0:0:
345,128,93838,1,8,0:0:0:0:
350,47,93942,1,0,0:0:0:0:
350,47,94045,1,8,0:0:0:0:
350,47,94097,1,0,0:0:0:0:
350,47,94148,1,8,0:0:0:0:
28,145,94252,1,8,0:0:0:0:
82,127,94355,1,0,0:0:0:0:
82,127,94459,1,8,0:0:0:0:
82,127,94666,1,8,0:0:0:0:
82,127,94769,1,0,0:0:0:0:
82,127,94873,1,8,0:0:0:0:
141,128,95079,1,8,0:0:0:0:
141,128,95183,1,0,0:0:0:0:
60,173,95235,1,0,0:0:0:0:
145,138,95286,1,0,0:0:0:0:
141,128,95390,1,0,0:0:0:0:
141,128,95493,1,8,0:0:0:0:
105,169,95597,1,8,0:0:0:0:
74,151,95700,1,0,0:0:0:0:
139,172,95752,1,0,0:0:0:0:
74,151,95804,1,8,0:0:0:0:
74,151,95907,1,0,0:0:0:0:
74,151,96011,1,0,0:0:0:0:
74,151,96114,1,8,0:0:0:0:
171,152,96321,1,8,0:0:0:0:
171,152,96424,1,0,0:0:0:0:
171,152,96528,1,8,0:0:0:0:
171,152,96735,1,0,0:0:0:0:
171,152,96838,1,8,0:0:0:0:
171,152,96890,1,8,0:0:0:0:
171,152,96942,1,8,0:0:0:0:
96,176,97045,1,0,0:0:0:0:
96,176,97148,1,8,0:0:0:0:
259,100,97200,1,0,0:0:0:0:
96,176,97252,1,8,0:0:0:0:
149,83,97304,1,8,0:0:0:0:
96,176,97355,1,0,0:0:0:0:
96,176,97459,1,8,0:0:0:0:
96,176,97562,1,8,0:0:0:0:
96,176,97666,1,0,0:0:0:0:
335,207,97769,1,8,0:0:0:0:
141,128,97976,1,8,0:0:0:0:
141,128,98079,1,0,0:0:0:0:
141,128,98183,1,8,0:0:0:0:
141,128,98390,1,8,0:0:0:0:
141,128,98493,1,0,0:0:0:0:
60,173,98545,1,0,0:0:0:0:
145,138,98597,1,0,0:0:0:0:
141,128,98700,1,0,0:0:0:0:
141,128,98804,1,8,0:0:0:0:
105,169,98907,1,8,0:0:0:0:
74,151,99011,1,0,0:0:0:0:
159,122,99062,1,0,0:0:0:0:
74,151,99114,1,8,0:0:0:0:
74,151,99217,1,0,0:0:0:0:
74,151,99321,1,0,0:0:0:0:
74,151,99424,1,8,0:0:0:0:
171,152,99631,1,8,0:0:0:0:
171,152,99735,1,0,0:0:0:0:
171,152,99838,1,8,0:0:0:0:
171,152,100045,1,0,0:0:0:0:
171,152,100148,1,8,0:0:0:0:
171,152,100200,1,8,0:0:0:0:
171,152,100252,1,8,0:0:0:0:
328,195,100355,1,0,0:0:0:0:
159,122,100407,1,0,0:0:0:0:
345,128,100459,1,8,0:0:0:0:
350,47,100562,1,0,0:0:0:0:
350,47,100666,1,8,0:0:0:0:
350,47,100717,1,0,0:0:0:0:
350,47,100769,1,8,0:0:0:0:
82,127,100873,1,8,0:0:0:0:
82,127,100976,1,0,0:0:0:0:
82,127,101079,1,8,0:0:0:0:
82,127,101286,1,8,0:0:0:0:
82,127,101390,1,0,0:0:0:0:
82,127,101493,1,8,0:0:0:0:
141,128,101700,1,8,0:0:0:0:
141,128,101804,1,0,0:0:0:0:
60,173,101855,1,0,0:0:0:0:
145,138,101907,1,0,0:0:0:0:
141,128,102011,1,0,0:0:0:0:
141,128,102114,1,8,0:0:0:0:
105,169,102217,1,8,0:0:0:0:
74,151,102321,1,0,0:0:0:0:
159,122,102373,1,0,0:0:0:0:
74,151,102424,1,8,0:0:0:0:
74,151,102528,1,0,0:0:0:0:
74,151,102631,1,0,0:0:0:0:
74,151,102735,1,8,0:0:0:0:
171,152,102942,1,8,0:0:0:0:
171,152,103045,1,0,0:0:0:0:
171,152,103148,1,8,0:0:0:0:
171,152,103355,1,0,0:0:0:0:
171,152,103459,1,8,0:0:0:0:
171,152,103511,1,8,0:0:0:0:
171,152,103562,1,8,0:0:0:0:
382,187,103666,1,0,0:0:0:0:
382,187,103769,1,8,0:0:0:0:
397,92,103873,1,0,0:0:0:0:
397,92,103924,1,8,0:0:0:0:
397,92,103976,1,0,0:0:0:0:
397,92,104079,1,0,0:0:0:0:
138,143,104131,1,0,0:0:0:0:
397,92,104183,1,8,0:0:0:0:
397,92,104235,1,8,0:0:0:0:
397,92,104286,1,8,0:0:0:0:
