osu file format v14

[General]
AudioFilename: audio.mp3
AudioLeadIn: 0
PreviewTime: 77855
Countdown: 0
SampleSet: Normal
StackLeniency: 0.7
Mode: 1
LetterboxInBreaks: 0
WidescreenStoryboard: 0

[Editor]
Bookmarks: 39114
DistanceSpacing: 0.6
BeatDivisor: 8
GridSize: 32
TimelineZoom: 2.3

[Metadata]
Title:Towa naru Kizuna to Omoi no Kiseki
TitleUnicode:永遠なる絆と想いのキセキ
Artist:nao
ArtistUnicode:nao
Creator:[R]
Version:Occult Doll
Source:恋する少女(ドール)と想いのキセキ ~Poupee de souhaits~
Tags:ron volta charlotte Koi Suru Doll to Omoi no Kiseki Sugar Pot video game japanese visual novel eroge Koisuru Shoujo opening op jrock j-rock rock galgame
BeatmapID:2376877
BeatmapSetID:648066

[Difficulty]
HPDrainRate:7
CircleSize:2
OverallDifficulty:7
ApproachRate:5
SliderMultiplier:1.4
SliderTickRate:1

[Events]
//Background and Video events
0,0,"BG.jpg",0,30
//Break Periods
//Storyboard Layer 0 (Background)
//Storyboard Layer 1 (Fail)
//Storyboard Layer 2 (Pass)
//Storyboard Layer 3 (Foreground)
//Storyboard Layer 4 (Overlay)
//Storyboard Sound Samples

[TimingPoints]
189,352.941176470588,5,1,0,15,1,0
5483,352.941176470588,6,1,0,20,1,0
7600,352.941176470588,5,1,0,30,1,0
12894,352.941176470588,6,1,0,40,1,0
15011,206.896551724138,4,1,0,80,1,0
15011,-119.047619047619,4,1,0,90,0,0
15916,-116.279069767442,4,1,0,90,0,0
16019,-113.636363636364,4,1,0,90,0,0
16071,-112.359550561798,4,1,0,90,0,0
16123,-111.111111111111,4,1,0,90,0,0
16174,-109.89010989011,4,1,0,90,0,0
16226,-108.695652173913,4,1,0,90,0,0
16329,-106.382978723404,4,1,0,90,0,0
16433,-104.166666666667,4,1,0,90,0,0
16536,-102.040816326531,4,1,0,90,0,0
16640,-100,4,1,0,90,0,0
29881,-100,4,1,0,80,0,0
29985,-102.040816326531,4,1,0,80,0,0
30088,-104.166666666667,4,1,0,80,0,0
30192,-106.382978723404,4,1,0,70,0,0
30398,-113.636363636364,4,1,0,70,0,0
30502,-116.279069767442,4,1,0,70,0,0
30709,-119.047619047619,4,1,0,70,0,0
42347,-117.647058823529,4,1,0,70,0,0
42398,-116.279069767442,4,1,0,70,0,0
42450,-114.942528735632,4,1,0,70,0,0
42502,-113.636363636364,4,1,0,70,0,0
42605,-111.111111111111,4,1,0,70,0,0
42709,-108.695652173913,4,1,0,70,0,0
42761,-107.52688172043,4,1,0,70,0,0
42812,-106.382978723404,4,1,0,70,0,0
42916,-104.166666666667,4,1,0,70,0,0
43019,-102.040816326531,4,1,0,70,0,0
43123,-100,4,1,0,80,0,0
49743,-100,4,1,0,70,0,0
49847,-102.040816326531,4,1,0,70,0,0
49950,-104.166666666667,4,1,0,70,0,0
50054,-106.382978723404,4,1,0,70,0,0
50261,-111.111111111111,4,1,0,70,0,0
50364,-113.636363636364,4,1,0,70,0,0
50571,-119.047619047619,4,1,0,70,0,0
62261,-121.951219512195,4,1,0,70,0,0
62364,-125,4,1,0,70,0,0
62467,-128.205128205128,4,1,0,70,0,0
62571,-131.578947368421,4,1,0,70,0,0
62674,-135.135135135135,4,1,0,70,0,0
62778,-138.888888888889,4,1,0,70,0,0
62985,-147.058823529412,4,1,0,70,0,0
69502,-138.888888888889,4,1,0,70,0,0
69605,-131.578947368421,4,1,0,80,0,0
74571,-111.111111111111,4,1,0,90,0,0
77907,-100,4,1,0,90,0,1
91148,-100,4,1,0,90,0,0

[HitObjects]
166,184,189,5,0,0:0:0:0:
250,159,541,1,8,0:0:0:0:
250,159,718,1,8,0:0:0:0:
250,159,894,1,0,0:0:0:0:
250,159,1247,1,0,0:0:0:0:
250,159,1424,1,0,0:0:0:0:
250,159,1600,1,8,0:0:0:0:
166,184,1953,1,0,0:0:0:0:
250,159,2306,1,8,0:0:0:0:
166,184,2483,1,8,0:0:0:0:
166,184,2659,1,0,0:0:0:0:
250,159,3012,1,8,0:0:0:0:
250,159,3188,1,0,0:0:0:0:
250,159,3365,1,8,0:0:0:0:
250,159,3718,1,0,0:0:0:0:
250,159,4071,1,8,0:0:0:0:
166,184,4247,1,8,0:0:0:0:
250,159,4424,1,0,0:0:0:0:
250,159,4777,1,0,0:0:0:0:
250,159,4953,1,0,0:0:0:0:
166,184,5130,1,8,0:0:0:0:
250,159,5483,1,0,0:0:0:0:
250,159,5835,1,8,0:0:0:0:
166,184,6012,1,8,0:0:0:0:
166,184,6188,1,0,0:0:0:0:
250,159,6541,1,8,0:0:0:0:
250,159,6718,1,0,0:0:0:0:
250,159,6894,1,8,0:0:0:0:
250,159,7071,1,0,0:0:0:0:
166,184,7247,1,8,0:0:0:0:
250,159,7335,1,8,0:0:0:0:
250,159,7600,1,0,0:0:0:0:
250,159,7952,1,8,0:0:0:0:
166,184,8129,1,8,0:0:0:0:
166,184,8305,1,0,0:0:0:0:
250,159,8658,1,0,0:0:0:0:
250,159,8835,1,0,0:0:0:0:
250,159,9011,1,8,0:0:0:0:
250,159,9364,1,0,0:0:0:0:
250,159,9717,1,8,0:0:0:0:
166,184,9894,1,8,0:0:0:0:
250,159,10070,1,0,0:0:0:0:
250,159,10423,1,8,0:0:0:0:
250,159,10599,1,0,0:0:0:0:
250,159,10776,1,8,0:0:0:0:
250,159,11129,1,0,0:0:0:0:
250,159,11482,1,8,0:0:0:0:
166,184,11658,1,8,0:0:0:0:
166,184,11835,1,0,0:0:0:0:
250,159,12188,1,0,0:0:0:0:
250,159,12364,1,0,0:0:0:0:
166,184,12541,1,8,0:0:0:0:
250,159,12894,1,0,0:0:0:0:
166,184,13246,1,0,0:0:0:0:
250,159,13599,1,0,0:0:0:0:
250,159,13952,1,8,0:0:0:0:
250,159,14305,1,0,0:0:0:0:
250,159,14658,1,8,0:0:0:0:
250,159,14746,1,8,0:0:0:0:
171,195,15011,1,0,0:0:0:0:
166,184,15114,1,0,0:0:0:0:
166,184,15217,1,8,0:0:0:0:
166,184,15286,1,8,0:0:0:0:
250,159,15355,1,8,0:0:0:0:
250,159,15424,1,0,0:0:0:0:
250,159,15528,1,0,0:0:0:0:
166,184,15631,1,8,0:0:0:0:
250,159,15735,1,8,0:0:0:0:
166,184,15838,1,0,0:0:0:0:
234,152,15942,1,0,0:0:0:0:
234,152,16045,1,8,0:0:0:0:
250,159,16097,1,8,0:0:0:0:
166,184,16148,1,0,0:0:0:0:
250,159,16200,1,0,0:0:0:0:
250,159,16252,1,8,0:0:0:0:
171,195,16355,1,0,0:0:0:0:
171,195,16459,1,8,0:0:0:0:
171,195,16562,1,8,0:0:0:0:
266,171,16666,1,4,0:0:0:0:
234,152,16873,1,8,0:0:0:0:
234,152,16976,1,0,0:0:0:0:
250,159,17079,1,8,0:0:0:0:
250,159,17131,1,8,0:0:0:0:
250,159,17183,1,0,0:0:0:0:
234,152,17286,1,8,0:0:0:0:
250,159,17390,1,0,0:0:0:0:
250,159,17442,1,0,0:0:0:0:
250,159,17493,1,0,0:0:0:0:
250,159,17545,1,0,0:0:0:0:
250,159,17597,1,8,0:0:0:0:
250,159,17700,1,8,0:0:0:0:
250,159,17804,1,0,0:0:0:0:
250,159,17907,1,8,0:0:0:0:
250,159,17959,1,8,0:0:0:0:
250,159,18011,1,0,0:0:0:0:
250,159,18062,1,0,0:0:0:0:
250,159,18114,1,8,0:0:0:0:
234,152,18217,1,0,0:0:0:0:
266,171,18321,1,8,0:0:0:0:
250,159,18373,1,0,0:0:0:0:
250,159,18424,1,0,0:0:0:0:
250,159,18476,1,0,0:0:0:0:
250,159,18528,1,8,0:0:0:0:
250,159,18631,1,0,0:0:0:0:
266,171,18735,1,8,0:0:0:0:
250,159,18838,1,0,0:0:0:0:
250,159,18890,1,0,0:0:0:0:
250,159,18942,1,0,0:0:0:0:
234,152,19045,1,8,0:0:0:0:
250,159,19148,1,0,0:0:0:0:
250,159,19200,1,0,0:0:0:0:
250,159,19252,1,8,0:0:0:0:
250,159,19304,1,0,0:0:0:0:
266,171,19355,1,8,0:0:0:0:
234,152,19459,1,0,0:0:0:0:
250,159,19562,1,8,0:0:0:0:
250,159,19614,1,0,0:0:0:0:
234,152,19666,1,0,0:0:0:0:
250,159,19717,1,0,0:0:0:0:
234,152,19769,1,8,0:0:0:0:
234,152,19821,1,0,0:0:0:0:
250,159,19873,1,8,0:0:0:0:
250,159,19924,1,8,0:0:0:0:
266,171,19976,1,0,0:0:0:0:
250,159,20079,1,0,0:0:0:0:
250,159,20131,1,0,0:0:0:0:
250,159,20183,1,8,0:0:0:0:
171,195,20286,1,0,0:0:0:0:
234,152,20390,1,8,0:0:0:0:
250,159,20442,1,8,0:0:0:0:
250,159,20493,1,0,0:0:0:0:
250,159,20545,1,0,0:0:0:0:
250,159,20597,1,8,0:0:0:0:
234,152,20700,1,0,0:0:0:0:
250,159,20804,1,0,0:0:0:0:
234,152,20855,1,0,0:0:0:0:
171,195,20907,1,8,0:0:0:0:
171,195,21011,1,8,0:0:0:0:
171,195,21114,1,0,0:0:0:0:
266,171,21217,1,8,0:0:0:0:
234,152,21269,1,0,0:0:0:0:
234,152,21321,1,0,0:0:0:0:
250,159,21373,1,0,0:0:0:0:
234,152,21424,1,8,0:0:0:0:
234,152,21528,1,8,0:0:0:0:
266,171,21631,1,8,0:0:0:0:
234,152,21683,1,0,0:0:0:0:
266,171,21735,1,8,0:0:0:0:
234,152,21786,1,8,0:0:0:0:
171,195,21838,1,0,0:0:0:0:
171,195,21942,1,0,0:0:0:0:
171,195,22045,1,8,0:0:0:0:
171,195,22097,1,8,0:0:0:0:
171,195,22148,1,8,0:0:0:0:
171,195,22200,1,8,0:0:0:0:
250,159,22252,1,0,0:0:0:0:
234,152,22355,1,12,0:0:0:0:
171,195,22562,1,0,0:0:0:0:
171,195,22666,1,8,0:0:0:0:
171,195,22717,1,0,0:0:0:0:
171,195,22769,1,8,0:0:0:0:
171,195,22821,1,8,0:0:0:0:
171,195,22873,1,0,0:0:0:0:
234,152,22924,1,0,0:0:0:0:
234,152,22976,1,0,0:0:0:0:
234,152,23028,1,0,0:0:0:0:
171,195,23079,1,8,0:0:0:0:
234,152,23183,1,8,0:0:0:0:
234,152,23286,1,4,0:0:0:0:
234,152,23493,1,8,0:0:0:0:
234,152,23596,1,0,0:0:0:0:
250,159,23699,1,8,0:0:0:0:
250,159,23751,1,8,0:0:0:0:
250,159,23803,1,0,0:0:0:0:
234,152,23906,1,8,0:0:0:0:
250,159,24010,1,0,0:0:0:0:
250,159,24062,1,0,0:0:0:0:
250,159,24113,1,0,0:0:0:0:
250,159,24165,1,0,0:0:0:0:
250,159,24217,1,8,0:0:0:0:
250,159,24320,1,8,0:0:0:0:
250,159,24424,1,0,0:0:0:0:
250,159,24527,1,8,0:0:0:0:
250,159,24579,1,8,0:0:0:0:
250,159,24631,1,0,0:0:0:0:
250,159,24682,1,0,0:0:0:0:
250,159,24734,1,8,0:0:0:0:
234,152,24837,1,0,0:0:0:0:
266,171,24941,1,8,0:0:0:0:
250,159,24993,1,0,0:0:0:0:
250,159,25044,1,0,0:0:0:0:
250,159,25096,1,0,0:0:0:0:
250,159,25148,1,8,0:0:0:0:
250,159,25251,1,0,0:0:0:0:
266,171,25355,1,8,0:0:0:0:
250,159,25458,1,0,0:0:0:0:
250,159,25510,1,0,0:0:0:0:
250,159,25562,1,0,0:0:0:0:
234,152,25665,1,8,0:0:0:0:
250,159,25768,1,0,0:0:0:0:
250,159,25820,1,0,0:0:0:0:
250,159,25872,1,8,0:0:0:0:
250,159,25924,1,0,0:0:0:0:
266,171,25975,1,8,0:0:0:0:
234,152,26079,1,0,0:0:0:0:
250,159,26182,1,8,0:0:0:0:
250,159,26234,1,0,0:0:0:0:
234,152,26286,1,0,0:0:0:0:
250,159,26337,1,0,0:0:0:0:
234,152,26389,1,8,0:0:0:0:
234,152,26442,1,0,0:0:0:0:
250,159,26493,1,8,0:0:0:0:
250,159,26544,1,8,0:0:0:0:
266,171,26596,1,0,0:0:0:0:
250,159,26699,1,0,0:0:0:0:
250,159,26751,1,0,0:0:0:0:
250,159,26803,1,8,0:0:0:0:
171,195,26906,1,0,0:0:0:0:
234,152,27010,1,8,0:0:0:0:
250,159,27062,1,8,0:0:0:0:
250,159,27113,1,0,0:0:0:0:
250,159,27165,1,0,0:0:0:0:
250,159,27217,1,8,0:0:0:0:
234,152,27320,1,0,0:0:0:0:
250,159,27424,1,0,0:0:0:0:
234,152,27475,1,0,0:0:0:0:
171,195,27527,1,8,0:0:0:0:
171,195,27631,1,8,0:0:0:0:
171,195,27734,1,0,0:0:0:0:
266,171,27837,1,8,0:0:0:0:
234,152,27889,1,0,0:0:0:0:
234,152,27941,1,0,0:0:0:0:
250,159,27993,1,0,0:0:0:0:
234,152,28044,1,8,0:0:0:0:
234,152,28148,1,8,0:0:0:0:
266,171,28251,1,8,0:0:0:0:
234,152,28303,1,0,0:0:0:0:
266,171,28355,1,8,0:0:0:0:
234,152,28406,1,8,0:0:0:0:
171,195,28458,1,0,0:0:0:0:
171,195,28562,1,0,0:0:0:0:
171,195,28665,1,8,0:0:0:0:
171,195,28717,1,8,0:0:0:0:
171,195,28768,1,8,0:0:0:0:
171,195,28820,1,8,0:0:0:0:
250,159,28872,1,0,0:0:0:0:
234,152,28975,1,12,0:0:0:0:
171,195,29182,1,0,0:0:0:0:
171,195,29286,1,8,0:0:0:0:
171,195,29337,1,0,0:0:0:0:
171,195,29389,1,8,0:0:0:0:
171,195,29441,1,8,0:0:0:0:
171,195,29493,1,0,0:0:0:0:
234,152,29544,1,0,0:0:0:0:
234,152,29596,1,0,0:0:0:0:
234,152,29648,1,0,0:0:0:0:
171,195,29699,1,8,0:0:0:0:
234,152,29803,1,8,0:0:0:0:
266,171,29907,1,0,0:0:0:0:
266,171,30011,1,8,0:0:0:0:
266,171,30114,1,8,0:0:0:0:
266,171,30217,1,0,0:0:0:0:
266,171,30424,1,0,0:0:0:0:
266,171,30528,1,8,0:0:0:0:
266,171,30735,1,8,0:0:0:0:
266,171,30838,1,8,0:0:0:0:
266,171,30942,1,0,0:0:0:0:
266,171,31045,1,8,0:0:0:0:
266,171,31252,1,0,0:0:0:0:
266,171,31355,1,8,0:0:0:0:
266,171,31562,1,8,0:0:0:0:
266,171,31666,1,0,0:0:0:0:
266,171,31769,1,8,0:0:0:0:
266,171,31873,1,8,0:0:0:0:
266,171,31976,1,0,0:0:0:0:
266,171,32183,1,0,0:0:0:0:
234,152,32390,1,8,0:0:0:0:
266,171,32493,1,8,0:0:0:0:
171,195,32597,1,0,0:0:0:0:
266,171,32700,1,0,0:0:0:0:
171,195,32804,1,8,0:0:0:0:
171,195,32907,1,0,0:0:0:0:
266,171,33011,1,8,0:0:0:0:
266,171,33217,1,8,0:0:0:0:
266,171,33321,1,0,0:0:0:0:
171,195,33424,1,0,0:0:0:0:
266,171,33528,1,8,0:0:0:0:
266,171,33631,1,0,0:0:0:0:
266,171,33735,1,0,0:0:0:0:
171,195,33838,1,8,0:0:0:0:
266,171,33942,1,0,0:0:0:0:
266,171,34045,1,8,0:0:0:0:
266,171,34148,1,8,0:0:0:0:
171,195,34252,1,0,0:0:0:0:
266,171,34355,1,8,0:0:0:0:
266,171,34562,1,0,0:0:0:0:
266,171,34666,1,8,0:0:0:0:
266,171,34873,1,8,0:0:0:0:
266,171,34976,1,0,0:0:0:0:
266,171,35079,1,8,0:0:0:0:
171,195,35183,1,8,0:0:0:0:
266,171,35286,1,0,0:0:0:0:
266,171,35390,1,0,0:0:0:0:
266,171,35493,1,8,0:0:0:0:
234,152,35700,1,8,0:0:0:0:
171,195,35804,1,8,0:0:0:0:
266,171,35907,1,0,0:0:0:0:
266,171,36011,1,0,0:0:0:0:
266,171,36114,1,8,0:0:0:0:
171,195,36217,1,8,0:0:0:0:
266,171,36321,1,0,0:0:0:0:
266,171,36528,1,0,0:0:0:0:
266,171,36631,1,8,0:0:0:0:
171,195,36735,1,8,0:0:0:0:
266,171,36838,1,0,0:0:0:0:
171,195,36942,1,8,0:0:0:0:
266,171,37045,1,0,0:0:0:0:
171,195,37148,1,8,0:0:0:0:
171,195,37252,1,0,0:0:0:0:
266,171,37355,1,8,0:0:0:0:
266,171,37459,1,8,0:0:0:0:
171,195,37562,1,0,0:0:0:0:
266,171,37666,1,8,0:0:0:0:
171,195,37873,1,0,0:0:0:0:
171,195,37924,1,0,0:0:0:0:
171,195,37976,1,8,0:0:0:0:
171,195,38079,1,8,0:0:0:0:
266,171,38183,1,0,0:0:0:0:
266,171,38286,1,8,0:0:0:0:
171,195,38390,1,0,0:0:0:0:
171,195,38493,1,0,0:0:0:0:
266,171,38597,1,8,0:0:0:0:
266,171,38700,1,0,0:0:0:0:
268,142,38804,1,8,0:0:0:0:
234,152,39011,1,4,0:0:0:0:
270,180,39424,1,12,0:0:0:0:
272,184,39631,1,12,0:0:0:0:
266,171,39838,1,4,0:0:0:0:
171,195,40045,1,8,0:0:0:0:
171,195,40148,1,8,0:0:0:0:
171,195,40252,1,0,0:0:0:0:
171,195,40355,1,8,0:0:0:0:
171,195,40459,1,8,0:0:0:0:
171,195,40562,1,8,0:0:0:0:
171,195,40666,1,0,0:0:0:0:
171,195,40873,1,0,0:0:0:0:
171,195,40976,1,0,0:0:0:0:
171,195,41079,1,8,0:0:0:0:
171,195,41183,1,8,0:0:0:0:
171,195,41286,1,8,0:0:0:0:
171,195,41390,1,8,0:0:0:0:
266,171,41493,1,0,0:0:0:0:
171,195,41597,1,8,0:0:0:0:
171,195,41700,1,0,0:0:0:0:
171,195,41804,1,0,0:0:0:0:
171,195,41907,1,8,0:0:0:0:
171,195,42011,1,0,0:0:0:0:
171,195,42114,1,8,0:0:0:0:
171,195,42217,1,0,0:0:0:0:
171,195,42321,1,8,0:0:0:0:
171,195,42373,1,8,0:0:0:0:
171,195,42424,1,0,0:0:0:0:
171,195,42476,1,0,0:0:0:0:
171,195,42528,1,8,0:0:0:0:
171,195,42631,1,0,0:0:0:0:
171,195,42735,1,8,0:0:0:0:
171,195,42786,1,8,0:0:0:0:
171,195,42838,1,0,0:0:0:0:
171,195,42942,1,8,0:0:0:0:
171,195,43045,1,8,0:0:0:0:
266,171,43148,1,4,0:0:0:0:
234,152,43355,1,8,0:0:0:0:
234,152,43458,1,0,0:0:0:0:
250,159,43561,1,8,0:0:0:0:
250,159,43613,1,8,0:0:0:0:
250,159,43665,1,0,0:0:0:0:
234,152,43768,1,8,0:0:0:0:
250,159,43872,1,0,0:0:0:0:
250,159,43924,1,0,0:0:0:0:
250,159,43975,1,0,0:0:0:0:
250,159,44027,1,0,0:0:0:0:
250,159,44079,1,8,0:0:0:0:
250,159,44182,1,8,0:0:0:0:
250,159,44286,1,0,0:0:0:0:
250,159,44389,1,8,0:0:0:0:
250,159,44441,1,8,0:0:0:0:
250,159,44493,1,0,0:0:0:0:
250,159,44544,1,0,0:0:0:0:
250,159,44596,1,8,0:0:0:0:
234,152,44699,1,0,0:0:0:0:
266,171,44803,1,8,0:0:0:0:
250,159,44855,1,0,0:0:0:0:
250,159,44906,1,0,0:0:0:0:
250,159,44958,1,0,0:0:0:0:
250,159,45010,1,8,0:0:0:0:
250,159,45113,1,0,0:0:0:0:
266,171,45217,1,8,0:0:0:0:
250,159,45320,1,0,0:0:0:0:
250,159,45372,1,0,0:0:0:0:
250,159,45424,1,0,0:0:0:0:
234,152,45527,1,8,0:0:0:0:
250,159,45630,1,0,0:0:0:0:
250,159,45682,1,0,0:0:0:0:
250,159,45734,1,8,0:0:0:0:
250,159,45786,1,0,0:0:0:0:
266,171,45837,1,8,0:0:0:0:
234,152,45941,1,0,0:0:0:0:
250,159,46044,1,8,0:0:0:0:
250,159,46096,1,0,0:0:0:0:
234,152,46148,1,0,0:0:0:0:
250,159,46199,1,0,0:0:0:0:
234,152,46251,1,8,0:0:0:0:
234,152,46304,1,0,0:0:0:0:
250,159,46355,1,8,0:0:0:0:
250,159,46406,1,8,0:0:0:0:
266,171,46458,1,0,0:0:0:0:
250,159,46561,1,0,0:0:0:0:
250,159,46613,1,0,0:0:0:0:
250,159,46665,1,8,0:0:0:0:
171,195,46768,1,0,0:0:0:0:
234,152,46872,1,8,0:0:0:0:
250,159,46924,1,8,0:0:0:0:
250,159,46975,1,0,0:0:0:0:
250,159,47027,1,0,0:0:0:0:
250,159,47079,1,8,0:0:0:0:
234,152,47182,1,0,0:0:0:0:
250,159,47286,1,0,0:0:0:0:
234,152,47337,1,0,0:0:0:0:
171,195,47389,1,8,0:0:0:0:
171,195,47493,1,8,0:0:0:0:
171,195,47596,1,0,0:0:0:0:
266,171,47699,1,8,0:0:0:0:
234,152,47751,1,0,0:0:0:0:
234,152,47803,1,0,0:0:0:0:
250,159,47855,1,0,0:0:0:0:
234,152,47906,1,8,0:0:0:0:
234,152,48010,1,8,0:0:0:0:
266,171,48113,1,8,0:0:0:0:
234,152,48165,1,0,0:0:0:0:
266,171,48217,1,8,0:0:0:0:
234,152,48268,1,8,0:0:0:0:
171,195,48320,1,0,0:0:0:0:
171,195,48424,1,0,0:0:0:0:
171,195,48527,1,8,0:0:0:0:
171,195,48579,1,8,0:0:0:0:
171,195,48630,1,8,0:0:0:0:
171,195,48682,1,8,0:0:0:0:
250,159,48734,1,0,0:0:0:0:
234,152,48837,1,12,0:0:0:0:
171,195,49044,1,0,0:0:0:0:
171,195,49148,1,8,0:0:0:0:
171,195,49199,1,0,0:0:0:0:
171,195,49251,1,8,0:0:0:0:
171,195,49303,1,8,0:0:0:0:
171,195,49355,1,0,0:0:0:0:
234,152,49406,1,0,0:0:0:0:
234,152,49458,1,0,0:0:0:0:
234,152,49510,1,0,0:0:0:0:
171,195,49561,1,8,0:0:0:0:
234,152,49665,1,8,0:0:0:0:
234,152,49768,1,0,0:0:0:0:
266,171,49873,1,8,0:0:0:0:
266,171,49976,1,8,0:0:0:0:
266,171,50079,1,0,0:0:0:0:
266,171,50286,1,0,0:0:0:0:
266,171,50390,1,8,0:0:0:0:
266,171,50597,1,8,0:0:0:0:
266,171,50700,1,8,0:0:0:0:
266,171,50804,1,0,0:0:0:0:
266,171,50907,1,8,0:0:0:0:
266,171,51114,1,0,0:0:0:0:
266,171,51217,1,8,0:0:0:0:
266,171,51424,1,8,0:0:0:0:
266,171,51528,1,0,0:0:0:0:
266,171,51631,1,8,0:0:0:0:
266,171,51735,1,8,0:0:0:0:
266,171,51838,1,0,0:0:0:0:
266,171,52045,1,0,0:0:0:0:
234,152,52252,1,8,0:0:0:0:
266,171,52355,1,8,0:0:0:0:
171,195,52459,1,0,0:0:0:0:
266,171,52562,1,0,0:0:0:0:
171,195,52666,1,8,0:0:0:0:
171,195,52769,1,0,0:0:0:0:
266,171,52873,1,8,0:0:0:0:
266,171,53079,1,8,0:0:0:0:
266,171,53183,1,0,0:0:0:0:
171,195,53286,1,0,0:0:0:0:
266,171,53390,1,8,0:0:0:0:
266,171,53493,1,0,0:0:0:0:
266,171,53597,1,0,0:0:0:0:
171,195,53700,1,8,0:0:0:0:
266,171,53804,1,0,0:0:0:0:
266,171,53907,1,8,0:0:0:0:
266,171,54011,1,8,0:0:0:0:
171,195,54114,1,0,0:0:0:0:
266,171,54217,1,8,0:0:0:0:
266,171,54424,1,0,0:0:0:0:
266,171,54528,1,8,0:0:0:0:
266,171,54735,1,8,0:0:0:0:
266,171,54838,1,0,0:0:0:0:
266,171,54942,1,8,0:0:0:0:
171,195,55045,1,8,0:0:0:0:
266,171,55148,1,0,0:0:0:0:
266,171,55252,1,0,0:0:0:0:
266,171,55355,1,8,0:0:0:0:
234,152,55562,1,8,0:0:0:0:
171,195,55666,1,8,0:0:0:0:
266,171,55769,1,0,0:0:0:0:
266,171,55873,1,0,0:0:0:0:
266,171,55976,1,8,0:0:0:0:
171,195,56079,1,8,0:0:0:0:
266,171,56183,1,0,0:0:0:0:
266,171,56390,1,0,0:0:0:0:
266,171,56493,1,8,0:0:0:0:
171,195,56597,1,8,0:0:0:0:
266,171,56700,1,0,0:0:0:0:
266,171,56907,1,0,0:0:0:0:
171,195,57011,1,8,0:0:0:0:
266,171,57217,1,8,0:0:0:0:
266,171,57321,1,0,0:0:0:0:
171,195,57424,1,0,0:0:0:0:
266,171,57528,1,8,0:0:0:0:
171,195,57631,1,8,0:0:0:0:
171,195,57735,1,0,0:0:0:0:
171,195,57786,1,0,0:0:0:0:
171,195,57838,1,8,0:0:0:0:
266,171,58045,1,8,0:0:0:0:
266,171,58148,1,0,0:0:0:0:
171,195,58252,1,8,0:0:0:0:
171,195,58355,1,8,0:0:0:0:
266,171,58459,1,0,0:0:0:0:
266,171,58562,1,0,0:0:0:0:
268,142,58666,1,8,0:0:0:0:
234,152,58873,1,0,0:0:0:0:
247,163,59079,1,0,0:0:0:0:
230,180,59183,1,0,0:0:0:0:
270,180,59286,1,8,0:0:0:0:
230,180,59390,1,0,0:0:0:0:
272,184,59493,1,8,0:0:0:0:
230,180,59597,1,8,0:0:0:0:
266,171,59700,1,0,0:0:0:0:
171,195,59907,1,8,0:0:0:0:
171,195,60114,1,0,0:0:0:0:
171,195,60217,1,8,0:0:0:0:
171,195,60321,1,8,0:0:0:0:
206,180,60424,1,0,0:0:0:0:
266,171,60528,1,8,0:0:0:0:
230,180,60631,1,8,0:0:0:0:
171,195,60735,1,0,0:0:0:0:
171,195,60942,1,8,0:0:0:0:
171,195,61148,1,0,0:0:0:0:
268,143,61252,1,8,0:0:0:0:
266,171,61355,1,0,0:0:0:0:
171,195,61459,1,0,0:0:0:0:
234,152,61562,1,8,0:0:0:0:
171,195,61666,1,8,0:0:0:0:
234,152,61769,1,0,0:0:0:0:
234,152,61873,1,0,0:0:0:0:
234,152,61976,1,8,0:0:0:0:
234,152,62183,1,8,0:0:0:0:
458,317,62286,1,0,0:0:0:0:
458,317,62390,1,0,0:0:0:0:
234,152,62493,1,0,0:0:0:0:
234,152,62597,1,8,0:0:0:0:
266,171,62700,1,8,0:0:0:0:
266,171,62804,1,0,0:0:0:0:
252,137,63011,1,12,0:0:0:0:
268,142,63631,1,0,0:0:0:0:
268,142,63838,1,8,0:0:0:0:
268,142,64045,1,0,0:0:0:0:
138,164,64252,1,8,0:0:0:0:
138,164,64459,1,8,0:0:0:0:
252,137,64666,1,0,0:0:0:0:
268,142,65079,1,0,0:0:0:0:
268,142,65286,1,0,0:0:0:0:
348,191,65493,1,8,0:0:0:0:
268,142,65700,1,8,0:0:0:0:
266,171,65907,1,0,0:0:0:0:
252,137,66321,1,8,0:0:0:0:
268,142,66735,1,0,0:0:0:0:
268,142,66942,1,0,0:0:0:0:
268,142,67148,1,8,0:0:0:0:
138,164,67355,1,0,0:0:0:0:
268,142,67562,1,8,0:0:0:0:
138,164,67769,1,8,0:0:0:0:
252,137,67976,1,0,0:0:0:0:
268,142,68390,1,8,0:0:0:0:
266,171,68597,1,0,0:0:0:0:
268,142,68700,1,0,0:0:0:0:
348,191,68804,1,8,0:0:0:0:
266,171,69011,1,0,0:0:0:0:
138,164,69217,1,8,0:0:0:0:
138,164,69424,1,8,0:0:0:0:
138,164,69528,1,8,0:0:0:0:
231,129,69631,1,4,0:0:0:0:
138,164,69838,1,0,0:0:0:0:
138,164,70045,1,8,0:0:0:0:
138,164,70252,1,0,0:0:0:0:
138,164,70355,1,8,0:0:0:0:
138,164,70459,1,0,0:0:0:0:
231,129,70666,1,0,0:0:0:0:
138,164,70873,1,8,0:0:0:0:
138,164,70976,1,0,0:0:0:0:
138,164,71079,1,8,0:0:0:0:
138,164,71183,1,8,0:0:0:0:
231,129,71286,1,4,0:0:0:0:
138,164,71493,1,0,0:0:0:0:
231,129,71700,1,8,0:0:0:0:
138,164,71907,1,0,0:0:0:0:
138,164,72011,1,8,0:0:0:0:
138,164,72114,1,0,0:0:0:0:
138,164,72217,1,8,0:0:0:0:
138,164,72321,1,0,0:0:0:0:
231,129,72528,1,8,0:0:0:0:
138,164,72735,1,8,0:0:0:0:
138,164,72838,1,8,0:0:0:0:
231,129,72942,1,4,0:0:0:0:
138,164,73148,1,0,0:0:0:0:
138,164,73355,1,8,0:0:0:0:
138,164,73562,1,0,0:0:0:0:
138,164,73666,1,8,0:0:0:0:
266,171,73769,1,0,0:0:0:0:
138,164,73976,1,0,0:0:0:0:
231,129,74183,1,8,0:0:0:0:
138,164,74390,1,0,0:0:0:0:
245,210,74597,1,12,0:0:0:0:
138,164,74907,1,12,0:0:0:0:
138,164,75114,1,0,0:0:0:0:
138,164,75217,1,0,0:0:0:0:
245,210,75424,1,12,0:0:0:0:
138,164,75735,1,12,0:0:0:0:
138,164,75942,1,0,0:0:0:0:
138,164,76045,1,0,0:0:0:0:
245,210,76252,1,12,0:0:0:0:
138,164,76459,1,12,0:0:0:0:
245,210,76666,1,12,0:0:0:0:
138,164,76873,1,12,0:0:0:0:
245,210,77079,1,12,0:0:0:0:
138,164,77286,1,0,0:0:0:0:
138,164,77355,1,0,0:0:0:0:
138,164,77424,1,0,0:0:0:0:
138,164,77493,1,8,0:0:0:0:
172,157,77907,1,4,0:0:0:0:
268,142,78011,1,0,0:0:0:0:
138,164,78114,1,8,0:0:0:0:
268,142,78217,1,0,0:0:0:0:
268,142,78321,1,8,0:0:0:0:
138,164,78373,1,8,0:0:0:0:
138,164,78424,1,8,0:0:0:0:
268,142,78476,1,8,0:0:0:0:
138,164,78528,1,0,0:0:0:0:
268,142,78631,1,8,0:0:0:0:
268,142,78735,1,0,0:0:0:0:
268,142,78786,1,0,0:0:0:0:
268,142,78838,1,8,0:0:0:0:
268,142,78890,1,0,0:0:0:0:
268,142,78942,1,8,0:0:0:0:
268,142,79045,1,0,0:0:0:0:
172,157,79148,1,8,0:0:0:0:
268,142,79200,1,8,0:0:0:0:
268,142,79252,1,0,0:0:0:0:
138,164,79304,1,0,0:0:0:0:
268,142,79355,1,8,0:0:0:0:
138,164,79459,1,8,0:0:0:0:
268,142,79511,1,8,0:0:0:0:
172,157,79562,1,0,0:0:0:0:
268,142,79666,1,0,0:0:0:0:
138,164,79769,1,8,0:0:0:0:
268,142,79873,1,0,0:0:0:0:
268,142,79976,1,8,0:0:0:0:
138,164,80028,1,8,0:0:0:0:
138,164,80079,1,0,0:0:0:0:
268,142,80131,1,8,0:0:0:0:
268,142,80183,1,0,0:0:0:0:
166,184,80235,1,0,0:0:0:0:
138,164,80286,1,8,0:0:0:0:
138,164,80390,1,0,0:0:0:0:
268,142,80493,1,8,0:0:0:0:
138,164,80545,1,0,0:0:0:0:
138,164,80597,1,8,0:0:0:0:
138,164,80700,1,0,0:0:0:0:
268,142,80804,1,8,0:0:0:0:
268,142,80855,1,0,0:0:0:0:
138,164,80907,1,0,0:0:0:0:
138,164,80959,1,0,0:0:0:0:
268,142,81011,1,8,0:0:0:0:
268,142,81114,1,0,0:0:0:0:
172,157,81217,1,8,0:0:0:0:
268,142,81321,1,0,0:0:0:0:
268,142,81373,1,0,0:0:0:0:
138,164,81424,1,8,0:0:0:0:
138,164,81528,1,0,0:0:0:0:
138,164,81631,1,8,0:0:0:0:
138,164,81683,1,8,0:0:0:0:
138,164,81735,1,8,0:0:0:0:
138,164,81786,1,8,0:0:0:0:
138,164,81838,1,0,0:0:0:0:
268,142,81942,1,8,0:0:0:0:
138,164,82045,1,0,0:0:0:0:
138,164,82097,1,8,0:0:0:0:
138,164,82148,1,0,0:0:0:0:
138,164,82200,1,0,0:0:0:0:
268,142,82252,1,8,0:0:0:0:
138,164,82355,1,0,0:0:0:0:
128,176,82459,1,8,0:0:0:0:
138,164,82511,1,0,0:0:0:0:
138,164,82562,1,8,0:0:0:0:
138,164,82614,1,8,0:0:0:0:
268,142,82666,1,0,0:0:0:0:
138,164,82769,1,8,0:0:0:0:
172,157,82873,1,0,0:0:0:0:
138,164,82924,1,8,0:0:0:0:
138,164,82976,1,0,0:0:0:0:
138,164,83079,1,8,0:0:0:0:
138,164,83183,1,0,0:0:0:0:
268,142,83286,1,8,0:0:0:0:
268,142,83338,1,0,0:0:0:0:
268,142,83390,1,0,0:0:0:0:
268,142,83442,1,0,0:0:0:0:
268,142,83493,1,8,0:0:0:0:
138,164,83597,1,8,0:0:0:0:
138,164,83804,1,8,0:0:0:0:
138,164,83907,1,0,0:0:0:0:
138,164,83959,1,0,0:0:0:0:
138,164,84011,1,8,0:0:0:0:
138,164,84062,1,8,0:0:0:0:
138,164,84114,1,0,0:0:0:0:
138,164,84166,1,8,0:0:0:0:
138,164,84217,1,8,0:0:0:0:
138,164,84269,1,8,0:0:0:0:
138,164,84321,1,0,0:0:0:0:
138,164,84424,1,8,0:0:0:0:
172,157,84528,1,0,0:0:0:0:
172,157,84631,1,0,0:0:0:0:
138,164,84735,1,8,0:0:0:0:
268,142,84838,1,0,0:0:0:0:
268,142,84942,1,8,0:0:0:0:
138,164,84993,1,8,0:0:0:0:
138,164,85045,1,8,0:0:0:0:
268,142,85097,1,8,0:0:0:0:
138,164,85148,1,0,0:0:0:0:
268,142,85252,1,8,0:0:0:0:
268,142,85355,1,0,0:0:0:0:
268,142,85407,1,0,0:0:0:0:
268,142,85458,1,8,0:0:0:0:
268,142,85510,1,0,0:0:0:0:
268,142,85562,1,8,0:0:0:0:
268,142,85665,1,0,0:0:0:0:
172,157,85768,1,8,0:0:0:0:
268,142,85820,1,8,0:0:0:0:
268,142,85872,1,0,0:0:0:0:
138,164,85924,1,0,0:0:0:0:
268,142,85975,1,8,0:0:0:0:
138,164,86079,1,8,0:0:0:0:
268,142,86131,1,8,0:0:0:0:
172,157,86182,1,0,0:0:0:0:
268,142,86286,1,0,0:0:0:0:
138,164,86389,1,8,0:0:0:0:
268,142,86493,1,0,0:0:0:0:
268,142,86596,1,8,0:0:0:0:
138,164,86648,1,8,0:0:0:0:
138,164,86699,1,0,0:0:0:0:
268,142,86751,1,8,0:0:0:0:
268,142,86803,1,0,0:0:0:0:
166,184,86855,1,0,0:0:0:0:
138,164,86906,1,8,0:0:0:0:
138,164,87010,1,0,0:0:0:0:
268,142,87113,1,8,0:0:0:0:
138,164,87165,1,0,0:0:0:0:
138,164,87217,1,8,0:0:0:0:
138,164,87320,1,0,0:0:0:0:
268,142,87424,1,8,0:0:0:0:
268,142,87475,1,0,0:0:0:0:
138,164,87527,1,0,0:0:0:0:
138,164,87579,1,0,0:0:0:0:
268,142,87631,1,8,0:0:0:0:
268,142,87734,1,0,0:0:0:0:
172,157,87837,1,8,0:0:0:0:
268,142,87941,1,0,0:0:0:0:
268,142,87993,1,0,0:0:0:0:
138,164,88044,1,8,0:0:0:0:
138,164,88148,1,0,0:0:0:0:
138,164,88251,1,8,0:0:0:0:
138,164,88303,1,8,0:0:0:0:
138,164,88355,1,8,0:0:0:0:
138,164,88406,1,8,0:0:0:0:
138,164,88458,1,0,0:0:0:0:
268,142,88562,1,8,0:0:0:0:
138,164,88665,1,0,0:0:0:0:
138,164,88717,1,8,0:0:0:0:
138,164,88768,1,0,0:0:0:0:
138,164,88820,1,0,0:0:0:0:
268,142,88872,1,8,0:0:0:0:
138,164,88975,1,0,0:0:0:0:
128,176,89079,1,8,0:0:0:0:
138,164,89131,1,0,0:0:0:0:
138,164,89182,1,8,0:0:0:0:
138,164,89234,1,8,0:0:0:0:
268,142,89286,1,0,0:0:0:0:
138,164,89389,1,8,0:0:0:0:
172,157,89493,1,0,0:0:0:0:
172,157,89597,1,0,0:0:0:0:
172,157,89648,1,0,0:0:0:0:
172,157,89700,1,8,0:0:0:0:
172,157,89804,1,0,0:0:0:0:
172,157,89907,1,8,0:0:0:0:
172,157,89959,1,8,0:0:0:0:
283,137,90011,1,0,0:0:0:0:
138,164,90062,1,0,0:0:0:0:
138,164,90114,1,8,0:0:0:0:
166,184,90166,1,0,0:0:0:0:
138,164,90217,1,8,0:0:0:0:
166,184,90321,1,8,0:0:0:0:
250,159,90373,1,8,0:0:0:0:
234,152,90424,1,0,0:0:0:0:
250,159,90476,1,0,0:0:0:0:
234,152,90528,1,8,0:0:0:0:
166,184,90579,1,0,0:0:0:0:
166,184,90631,1,0,0:0:0:0:
166,184,90683,1,0,0:0:0:0:
250,159,90735,1,8,0:0:0:0:
171,195,90786,1,8,0:0:0:0:
171,195,90838,1,0,0:0:0:0:
171,195,90890,1,0,0:0:0:0:
171,195,90942,1,8,0:0:0:0:
166,184,90993,1,0,0:0:0:0:
171,195,91045,1,8,0:0:0:0:
266,171,91148,1,4,0:0:0:0:
234,152,91355,1,8,0:0:0:0:
234,152,91458,1,0,0:0:0:0:
250,159,91561,1,8,0:0:0:0:
250,159,91613,1,8,0:0:0:0:
250,159,91665,1,0,0:0:0:0:
234,152,91768,1,8,0:0:0:0:
250,159,91872,1,0,0:0:0:0:
250,159,91924,1,0,0:0:0:0:
250,159,91975,1,0,0:0:0:0:
250,159,92027,1,0,0:0:0:0:
250,159,92079,1,8,0:0:0:0:
250,159,92182,1,8,0:0:0:0:
250,159,92286,1,0,0:0:0:0:
250,159,92389,1,8,0:0:0:0:
250,159,92441,1,8,0:0:0:0:
250,159,92493,1,0,0:0:0:0:
250,159,92544,1,0,0:0:0:0:
250,159,92596,1,8,0:0:0:0:
234,152,92699,1,0,0:0:0:0:
266,171,92803,1,8,0:0:0:0:
250,159,92855,1,0,0:0:0:0:
250,159,92906,1,0,0:0:0:0:
250,159,92958,1,0,0:0:0:0:
250,159,93010,1,8,0:0:0:0:
250,159,93113,1,0,0:0:0:0:
266,171,93217,1,8,0:0:0:0:
250,159,93320,1,0,0:0:0:0:
250,159,93372,1,0,0:0:0:0:
250,159,93424,1,0,0:0:0:0:
234,152,93527,1,8,0:0:0:0:
250,159,93630,1,0,0:0:0:0:
250,159,93682,1,0,0:0:0:0:
250,159,93734,1,8,0:0:0:0:
250,159,93786,1,0,0:0:0:0:
266,171,93837,1,8,0:0:0:0:
234,152,93941,1,0,0:0:0:0:
250,159,94044,1,8,0:0:0:0:
250,159,94096,1,0,0:0:0:0:
234,152,94148,1,0,0:0:0:0:
250,159,94199,1,0,0:0:0:0:
234,152,94251,1,8,0:0:0:0:
234,152,94304,1,0,0:0:0:0:
250,159,94355,1,8,0:0:0:0:
250,159,94406,1,8,0:0:0:0:
266,171,94458,1,0,0:0:0:0:
250,159,94561,1,0,0:0:0:0:
250,159,94613,1,0,0:0:0:0:
250,159,94665,1,8,0:0:0:0:
171,195,94768,1,0,0:0:0:0:
234,152,94872,1,8,0:0:0:0:
250,159,94924,1,8,0:0:0:0:
250,159,94975,1,0,0:0:0:0:
250,159,95027,1,0,0:0:0:0:
250,159,95079,1,8,0:0:0:0:
234,152,95182,1,0,0:0:0:0:
250,159,95286,1,0,0:0:0:0:
234,152,95337,1,0,0:0:0:0:
171,195,95389,1,8,0:0:0:0:
171,195,95493,1,8,0:0:0:0:
171,195,95596,1,0,0:0:0:0:
266,171,95699,1,8,0:0:0:0:
234,152,95751,1,0,0:0:0:0:
234,152,95803,1,0,0:0:0:0:
250,159,95855,1,0,0:0:0:0:
234,152,95906,1,8,0:0:0:0:
234,152,96010,1,8,0:0:0:0:
266,171,96113,1,8,0:0:0:0:
234,152,96165,1,0,0:0:0:0:
266,171,96217,1,8,0:0:0:0:
234,152,96268,1,8,0:0:0:0:
171,195,96320,1,0,0:0:0:0:
171,195,96424,1,0,0:0:0:0:
171,195,96527,1,8,0:0:0:0:
171,195,96579,1,8,0:0:0:0:
171,195,96630,1,8,0:0:0:0:
171,195,96682,1,8,0:0:0:0:
250,159,96734,1,0,0:0:0:0:
234,152,96837,1,12,0:0:0:0:
171,195,97044,1,0,0:0:0:0:
171,195,97148,1,8,0:0:0:0:
171,195,97199,1,0,0:0:0:0:
171,195,97251,1,8,0:0:0:0:
171,195,97303,1,8,0:0:0:0:
171,195,97355,1,0,0:0:0:0:
234,152,97406,1,0,0:0:0:0:
234,152,97458,1,0,0:0:0:0:
234,152,97510,1,0,0:0:0:0:
171,195,97561,1,8,0:0:0:0:
234,152,97665,1,8,0:0:0:0:
234,152,97768,1,4,0:0:0:0:
234,152,97976,1,8,0:0:0:0:
234,152,98079,1,0,0:0:0:0:
250,159,98182,1,8,0:0:0:0:
250,159,98234,1,8,0:0:0:0:
250,159,98286,1,0,0:0:0:0:
234,152,98389,1,8,0:0:0:0:
250,159,98493,1,0,0:0:0:0:
250,159,98545,1,0,0:0:0:0:
250,159,98596,1,0,0:0:0:0:
250,159,98648,1,0,0:0:0:0:
250,159,98700,1,8,0:0:0:0:
250,159,98803,1,8,0:0:0:0:
250,159,98907,1,0,0:0:0:0:
250,159,99010,1,8,0:0:0:0:
250,159,99062,1,8,0:0:0:0:
250,159,99114,1,0,0:0:0:0:
250,159,99165,1,0,0:0:0:0:
250,159,99217,1,8,0:0:0:0:
234,152,99320,1,0,0:0:0:0:
266,171,99424,1,8,0:0:0:0:
250,159,99476,1,0,0:0:0:0:
250,159,99527,1,0,0:0:0:0:
250,159,99579,1,0,0:0:0:0:
250,159,99631,1,8,0:0:0:0:
250,159,99734,1,0,0:0:0:0:
266,171,99838,1,8,0:0:0:0:
250,159,99941,1,0,0:0:0:0:
250,159,99993,1,0,0:0:0:0:
250,159,100045,1,0,0:0:0:0:
234,152,100148,1,8,0:0:0:0:
250,159,100251,1,0,0:0:0:0:
250,159,100303,1,0,0:0:0:0:
250,159,100355,1,8,0:0:0:0:
250,159,100407,1,0,0:0:0:0:
266,171,100458,1,8,0:0:0:0:
234,152,100562,1,0,0:0:0:0:
250,159,100665,1,8,0:0:0:0:
250,159,100717,1,0,0:0:0:0:
234,152,100769,1,0,0:0:0:0:
250,159,100820,1,0,0:0:0:0:
234,152,100872,1,8,0:0:0:0:
234,152,100924,1,0,0:0:0:0:
250,159,100976,1,8,0:0:0:0:
250,159,101027,1,8,0:0:0:0:
266,171,101079,1,0,0:0:0:0:
250,159,101182,1,0,0:0:0:0:
250,159,101234,1,0,0:0:0:0:
250,159,101286,1,8,0:0:0:0:
171,195,101389,1,0,0:0:0:0:
234,152,101493,1,8,0:0:0:0:
250,159,101545,1,8,0:0:0:0:
250,159,101596,1,0,0:0:0:0:
250,159,101648,1,0,0:0:0:0:
250,159,101700,1,8,0:0:0:0:
234,152,101803,1,0,0:0:0:0:
250,159,101907,1,0,0:0:0:0:
234,152,101958,1,0,0:0:0:0:
171,195,102010,1,8,0:0:0:0:
171,195,102114,1,8,0:0:0:0:
171,195,102217,1,0,0:0:0:0:
266,171,102320,1,8,0:0:0:0:
234,152,102372,1,0,0:0:0:0:
234,152,102424,1,0,0:0:0:0:
250,159,102476,1,0,0:0:0:0:
234,152,102527,1,8,0:0:0:0:
234,152,102631,1,8,0:0:0:0:
266,171,102734,1,8,0:0:0:0:
234,152,102786,1,0,0:0:0:0:
266,171,102838,1,8,0:0:0:0:
234,152,102889,1,8,0:0:0:0:
171,195,102941,1,0,0:0:0:0:
171,195,103045,1,0,0:0:0:0:
171,195,103148,1,8,0:0:0:0:
171,195,103200,1,8,0:0:0:0:
171,195,103251,1,8,0:0:0:0:
171,195,103303,1,8,0:0:0:0:
250,159,103355,1,0,0:0:0:0:
234,152,103458,1,12,0:0:0:0:
171,195,103665,1,0,0:0:0:0:
171,195,103769,1,8,0:0:0:0:
171,195,103820,1,0,0:0:0:0:
171,195,103872,1,8,0:0:0:0:
171,195,103924,1,8,0:0:0:0:
171,195,103976,1,0,0:0:0:0:
234,152,104027,1,8,0:0:0:0:
234,152,104079,1,0,0:0:0:0:
234,152,104131,1,0,0:0:0:0:
171,195,104182,1,8,0:0:0:0:
234,152,104235,1,0,0:0:0:0:
234,152,104286,1,8,0:0:0:0:
