osu file format v14

[General]
AudioFilename: Toaru shougoku no ohimesama ga, atta koto mo nai ani no ie ni yattekite sumitsuita jijou..mp3
AudioLeadIn: 0
PreviewTime: 49977
Countdown: 0
SampleSet: Soft
StackLeniency: 0.7
Mode: 0
LetterboxInBreaks: 0
WidescreenStoryboard: 1

[Editor]
Bookmarks: 3773,4048,27443,76846
DistanceSpacing: 1.2
BeatDivisor: 4
GridSize: 4
TimelineZoom: 1.5

[Metadata]
Title:Toaru shougoku no ohimesama ga
TitleUnicode:とある小国のお姫様が
Artist:nao
ArtistUnicode:nao
Creator:Doxa
Version:Princess Sugar
Source:姫様LOVEライフ!
Tags:Demetori 寺前甲 maya 山下慎一狼 Princess Sugar とある小国のお姫様が、会ったこともない兄の家にやってきて住みついた事情。
BeatmapID:819703
BeatmapSetID:374188

[Difficulty]
HPDrainRate:6
CircleSize:4
OverallDifficulty:8.5
ApproachRate:9.5
SliderMultiplier:1.8
SliderTickRate:1

[Events]
//Background and Video events
0,0,"cg12.jpg",0,0
//Break Periods
//Storyboard Layer 0 (Background)
//Storyboard Layer 1 (Fail)
//Storyboard Layer 2 (Pass)
//Storyboard Layer 3 (Foreground)
//Storyboard Sound Samples

[TimingPoints]
1021,275.229357798165,4,2,10,50,1,0
1984,-100,4,2,10,75,0,0
10932,-125,4,2,10,50,0,0
15195,-100,4,2,10,75,0,0
19598,-83.3333333333333,4,2,10,75,0,0
20011,-125,4,2,10,75,0,0
23452,-100,4,2,10,75,0,0
24002,-83.3333333333333,4,2,10,90,0,0
24415,-100,4,2,10,90,0,0
25103,-83.3333333333333,4,2,10,90,0,0
25516,-100,4,2,10,90,0,0
26204,-83.3333333333333,4,2,10,75,0,0
26617,-100,4,2,10,75,0,0
28543,-133.333333333333,4,2,10,50,0,0
35011,-100,4,2,10,75,0,0
50011,-83.3333333333333,4,2,10,100,0,1
64874,-166.666666666667,4,2,10,70,0,0
65218,-100,4,2,10,70,0,0
67901,-83.3333333333333,4,2,10,100,0,1
76846,-166.666666666667,4,2,10,100,0,0
77465,-166.666666666667,4,2,10,30,0,0

[Colours]
Combo1 : 220,160,140
Combo2 : 128,64,64
Combo3 : 157,60,255
Combo4 : 62,168,255

[HitObjects]
244,88,1021,5,0,0:0:0:0:
208,204,1158,1,0,0:0:0:0:
328,176,1296,1,0,0:0:0:0:
164,128,1433,1,0,0:0:0:0:
284,260,1571,1,0,0:0:0:0:
336,88,1709,1,0,0:0:0:0:
376,320,1846,1,0,0:0:0:0:
180,176,1984,6,0,P|184:116|288:68,1,180
284,172,2397,2,0,P|290:216|260:248,1,90
131,143,2672,2,0,P|137:99|164:64,1,90
172,292,2947,1,0,0:0:0:0:
206,175,3085,1,0,0:0:0:0:
324,220,3222,5,0,0:0:0:0:
232,96,3360,2,0,P|204:134|208:180,1,90
368,72,3635,1,0,0:0:0:0:
356,212,3773,1,0,0:0:0:0:
344,255,3841,1,0,0:0:0:0:
317,290,3910,1,0,0:0:0:0:
277,311,3979,1,0,0:0:0:0:
233,314,4048,1,0,0:0:0:0:
192,304,4186,6,0,P|152:260|160:208,1,90
172,96,4461,1,0,0:0:0:0:
280,112,4598,1,0,0:0:0:0:
216,200,4736,1,0,0:0:0:0:
240,36,4874,1,0,0:0:0:0:
312,212,5011,1,0,0:0:0:0:
112,172,5149,1,0,0:0:0:0:
348,72,5287,1,0,0:0:0:0:
112,172,5424,5,0,0:0:0:0:
384,280,5562,1,0,0:0:0:0:
128,264,5699,1,0,0:0:0:0:
276,20,5837,1,0,0:0:0:0:
32,112,5975,1,0,0:0:0:0:
212,304,6112,1,0,0:0:0:0:
260,316,6181,1,0,0:0:0:0:
308,320,6250,1,0,0:0:0:0:
356,316,6319,1,0,0:0:0:0:
396,292,6387,2,0,P|420:252|412:212,1,90
332,64,6663,5,0,0:0:0:0:
228,136,6800,1,0,0:0:0:0:
340,208,6938,1,0,0:0:0:0:
252,56,7076,1,0,0:0:0:0:
240,240,7213,1,0,0:0:0:0:
408,148,7351,1,0,0:0:0:0:
252,56,7488,1,0,0:0:0:0:
120,204,7626,5,0,0:0:0:0:
284,316,7764,1,0,0:0:0:0:
408,148,7901,1,0,0:0:0:0:
284,316,8039,1,0,0:0:0:0:
240,160,8176,1,0,0:0:0:0:
248,132,8245,1,0,0:0:0:0:
264,96,8314,2,0,P|308:88|352:100,1,90
133,276,8589,2,0,P|194:216|176:132,1,180
296,204,9002,5,0,0:0:0:0:
296,52,9140,1,0,0:0:0:0:
420,156,9277,1,0,0:0:0:0:
260,272,9415,1,0,0:0:0:0:
320,124,9553,1,0,0:0:0:0:
432,236,9690,2,0,P|436:288|324:336,1,180
184,252,10103,5,0,0:0:0:0:
336,172,10241,1,0,0:0:0:0:
200,340,10378,1,0,0:0:0:0:
144,320,10447,1,0,0:0:0:0:
100,280,10516,1,0,0:0:0:0:
68,232,10585,1,0,0:0:0:0:
56,176,10654,2,0,P|60:152|120:120,1,90
360,280,11204,6,0,L|280:228,1,72
282,126,11479,2,0,L|352:172,1,72
424,216,11754,1,0,0:0:0:0:
462,99,11892,2,0,P|473:167|424:216,1,144
348,156,12305,2,0,P|352:124|384:136,1,72
320,252,12580,2,0,P|276:232|276:200,1,72
423,216,12855,1,0,0:0:0:0:
320,252,12993,2,0,P|254:228|228:163,1,144
368,216,13406,5,0,0:0:0:0:
272,312,13543,2,0,P|231:309|208:260,1,72
168,175,13819,2,0,L|136:240,1,72
268,208,14094,1,0,0:0:0:0:
337,292,14232,2,0,P|307:311|272:312,1,72
160,272,14507,2,0,B|112:276|128:224|72:236,2,72
296,192,14920,1,0,0:0:0:0:
224,64,15057,1,0,0:0:0:0:
200,224,15195,6,0,P|144:168|224:140,1,180
377,58,15608,2,0,L|348:144,1,90
384,308,15883,2,0,L|412:222,1,90
312,96,16158,1,0,0:0:0:0:
180,320,16296,2,0,P|260:280|292:172,1,180
211,49,16709,6,0,P|194:90|210:131,1,90
268,296,16984,2,0,P|283:255|266:214,1,90
136,148,17259,1,0,0:0:0:0:
148,256,17397,2,0,P|244:248|268:168,1,180
316,64,17809,6,0,P|360:44|400:72,1,90
353,194,18085,2,0,P|310:198|265:174,1,90
200,80,18360,1,0,0:0:0:0:
160,188,18498,1,0,0:0:0:0:
144,229,18566,1,0,0:0:0:0:
152,273,18635,1,0,0:0:0:0:
182,305,18704,1,0,0:0:0:0:
225,316,18773,1,0,0:0:0:0:
272,308,18842,2,0,L|316:280,1,45
412,112,19048,6,0,P|371:128|343:163,1,90
368,268,19323,6,0,P|408:248|432:204,1,90
336,68,19598,6,0,B|276:100|316:200|236:256,1,215.999993408203
108,224,20011,5,0,0:0:0:0:
152,104,20149,2,0,P|179:82|232:72,1,72
292,152,20424,2,0,P|260:176|220:184,1,72
91,231,20699,2,0,P|89:193|116:164,1,72
184,80,20975,6,0,P|207:51|252:28,2,72
264,260,21387,2,0,P|260:220|224:176,1,72
160,112,21663,1,0,0:0:0:0:
129,230,21800,2,0,P|129:265|148:296,1,72
292,344,22076,5,0,0:0:0:0:
392,232,22213,2,0,P|406:208|408:136,1,72
360,64,22488,2,0,P|322:112|328:152,1,72
208,272,22764,2,0,P|248:264|260:220,1,72
244,104,23039,6,0,L|182:65,2,72
216,304,23452,2,0,P|188:260|196:200,1,90
173,100,23727,1,0,0:0:0:0:
96,192,23865,1,0,0:0:0:0:
176,288,24002,2,0,P|216:228|168:96,1,215.999993408203
308,64,24415,6,0,L|336:168,1,90
436,268,24691,2,0,L|404:164,1,90
260,60,24966,1,0,0:0:0:0:
245,263,25103,2,0,B|317:159|253:47,1,215.999993408203
200,36,25516,5,0,0:0:0:0:
108,254,25654,1,0,0:0:0:0:
306,129,25791,1,0,0:0:0:0:
216,296,25929,2,0,P|151:303|108:252,1,135
112,208,26204,2,0,B|172:196|228:104|316:132,1,215.999993408203
420,160,26617,5,0,0:0:0:0:
336,312,26754,2,0,L|412:256,1,90
472,60,27030,1,0,0:0:0:0:
233,181,27167,2,0,L|317:121,1,90
408,104,27443,5,0,0:0:0:0:
452,116,27511,1,0,0:0:0:0:
480,148,27580,1,0,0:0:0:0:
500,188,27649,1,0,0:0:0:0:
504,232,27718,1,0,0:0:0:0:
488,276,27787,1,0,0:0:0:0:
456,308,27855,1,0,0:0:0:0:
412,316,27924,1,0,0:0:0:0:
368,304,27993,1,0,0:0:0:0:
328,288,28062,1,0,0:0:0:0:
292,264,28131,1,0,0:0:0:0:
260,228,28199,1,0,0:0:0:0:
232,196,28268,1,0,0:0:0:0:
204,160,28337,1,0,0:0:0:0:
180,120,28406,1,0,0:0:0:0:
156,84,28475,1,0,0:0:0:0:
120,56,28543,6,0,P|63:100|52:184,1,135.000005149842
64,280,29094,1,0,0:0:0:0:
220,264,29369,1,0,0:0:0:0:
176,120,29644,1,0,0:0:0:0:
176,120,29782,2,0,L|248:124,1,67.5000025749208
316,212,30057,1,0,0:0:0:0:
344,324,30195,2,0,P|395:295|419:212,1,135.000005149842
316,76,30745,5,0,0:0:0:0:
164,76,31020,1,0,0:0:0:0:
96,208,31296,1,0,0:0:0:0:
160,264,31433,2,0,P|200:263|224:224,1,67.5000025749208
280,176,31709,1,0,0:0:0:0:
352,120,31846,2,0,P|419:95|488:112,2,135.000005149842
212,228,32534,5,0,0:0:0:0:
212,228,32603,1,0,0:0:0:0:
212,228,32672,1,0,0:0:0:0:
356,328,32947,1,0,0:0:0:0:
340,192,33222,2,0,P|310:125|332:48,2,135.000005149842
264,284,34048,5,0,0:0:0:0:
165,296,34186,2,0,P|123:281|109:236,1,67.5000025749208
76,156,34461,1,0,0:0:0:0:
112,264,34598,2,0,P|154:230|188:128,1,135.000005149842
292,72,35149,5,0,0:0:0:0:
312,184,35287,1,0,0:0:0:0:
408,88,35424,2,0,P|428:140|396:172,1,90
172,180,35699,1,0,0:0:0:0:
240,248,35837,1,0,0:0:0:0:
128,104,35975,2,0,P|148:71|208:72,1,90
344,88,36250,5,0,0:0:0:0:
328,232,36387,2,0,P|277:220|260:164,1,90
192,80,36594,2,0,L|163:114,1,45
112,196,36732,1,0,0:0:0:0:
128,248,36800,1,0,0:0:0:0:
160,296,36869,1,0,0:0:0:0:
208,320,36938,1,0,0:0:0:0:
260,324,37007,1,0,0:0:0:0:
308,312,37076,2,0,P|348:280|352:244,1,90
236,142,37351,6,0,P|261:110|312:112,1,90
400,156,37626,1,0,0:0:0:0:
404,268,37764,2,0,L|300:232,1,90
168,192,38039,1,0,0:0:0:0:
264,48,38176,1,0,0:0:0:0:
336,200,38314,1,0,0:0:0:0:
160,68,38452,6,0,P|112:112|120:160,1,90
240,224,38727,1,0,0:0:0:0:
200,332,38865,2,0,P|132:328|128:296,1,90
72,164,39140,1,0,0:0:0:0:
224,64,39277,2,0,L|316:100,1,90
432,60,39553,6,0,P|432:137|292:256,1,270
236,168,40103,2,0,P|188:152|204:184,1,90
160,256,40378,2,0,P|108:256|124:224,1,90
176,68,40654,2,0,P|266:76|368:152,1,180
428,268,41066,1,0,0:0:0:0:
252,200,41204,1,0,0:0:0:0:
316,344,41342,1,0,0:0:0:0:
341,121,41479,1,0,0:0:0:0:
428,268,41617,1,0,0:0:0:0:
208,120,41754,6,0,P|168:148|143:193,1,90
312,224,42030,1,0,0:0:0:0:
272,28,42167,1,0,0:0:0:0:
368,120,42305,2,0,P|424:120|456:96,1,90
248,40,42580,1,0,0:0:0:0:
200,200,42718,2,0,P|164:168|144:120,1,90
96,268,42993,6,0,P|110:306|180:324,1,90
100,148,43268,1,0,0:0:0:0:
184,244,43406,2,0,P|227:230|252:172,1,90
336,48,43681,1,0,0:0:0:0:
432,204,43819,1,0,0:0:0:0:
200,64,43956,6,0,L|296:116,1,90
408,116,44232,1,0,0:0:0:0:
250,195,44369,2,0,L|350:239,1,90
480,64,44645,2,0,P|427:80|392:112,1,90
232,64,44920,1,0,0:0:0:0:
84,240,45058,6,0,P|125:216|156:180,1,90
232,64,45332,1,0,0:0:0:0:
288,196,45470,1,0,0:0:0:0:
332,248,45539,1,0,0:0:0:0:
400,256,45608,1,0,0:0:0:0:
456,220,45677,1,0,0:0:0:0:
468,156,45745,1,0,0:0:0:0:
440,96,45814,1,0,0:0:0:0:
380,68,45883,2,0,P|344:64|304:116,1,90
88,144,46158,6,0,L|161:92,1,90
420,64,46433,2,0,L|340:120,1,90
124,316,46709,2,0,L|197:264,1,90
488,224,46984,2,0,L|408:280,1,90
116,124,47259,6,0,L|189:72,1,90
424,104,47534,2,0,L|344:160,1,90
196,344,47809,2,0,L|269:292,1,90
336,44,48085,2,0,L|256:100,1,90
112,184,48360,5,0,0:0:0:0:
336,132,48498,1,0,0:0:0:0:
244,344,48635,1,0,0:0:0:0:
192,84,48773,1,0,0:0:0:0:
392,264,48910,1,0,0:0:0:0:
88,244,49048,1,0,0:0:0:0:
268,88,49186,1,0,0:0:0:0:
308,328,49323,1,0,0:0:0:0:
64,56,49461,5,0,0:0:0:0:
320,52,50011,6,0,P|256:60|208:88,1,107.999996704102
136,224,50287,1,0,0:0:0:0:
240,160,50424,2,0,P|216:276|136:344,1,215.999993408203
132,88,50837,1,0,0:0:0:0:
304,364,50975,2,0,P|348:335|367:286,1,107.999996704102
404,40,51250,1,0,0:0:0:0:
512,192,51387,1,0,0:0:0:0:
296,280,51525,2,0,P|300:228|327:181,1,107.999996704102
204,50,51800,6,0,P|177:95|196:144,1,107.999996704102
392,316,52076,2,0,P|410:267|383:222,1,107.999996704102
96,236,52351,1,0,0:0:0:0:
264,120,52488,1,0,0:0:0:0:
288,328,52626,1,0,0:0:0:0:
168,120,52764,6,0,B|160:184|180:228|180:232,1,107.999996704102
312,112,53039,1,0,0:0:0:0:
444,200,53176,1,0,0:0:0:0:
300,280,53314,1,0,0:0:0:0:
412,88,53452,1,0,0:0:0:0:
232,168,53589,1,0,0:0:0:0:
408,304,53727,1,0,0:0:0:0:
243,64,53865,6,0,P|224:118|239:184,1,107.999996704102
196,340,54140,2,0,P|231:303|268:232,1,107.999996704102
280,116,54415,1,0,0:0:0:0:
416,224,54553,1,0,0:0:0:0:
444,60,54690,1,0,0:0:0:0:
340,292,54828,2,0,P|312:240|324:180,1,107.999996704102
208,56,55103,5,0,0:0:0:0:
160,244,55241,1,0,0:0:0:0:
340,128,55378,2,0,P|324:192|280:224,1,107.999996704102
112,120,55654,1,0,0:0:0:0:
224,320,55791,1,0,0:0:0:0:
348,68,55929,2,0,P|296:128|292:176,1,107.999996704102
168,336,56204,6,0,P|134:282|132:224,1,107.999996704102
399,130,56479,2,0,P|350:181|299:194,1,107.999996704102
148,40,56754,2,0,P|159:101|208:132,1,107.999996704102
368,261,57030,2,0,P|382:306|336:308,1,107.999996704102
236,56,57305,5,0,0:0:0:0:
104,204,57443,1,0,0:0:0:0:
304,300,57580,1,0,0:0:0:0:
193,127,57718,1,0,0:0:0:0:
304,300,57855,1,0,0:0:0:0:
420,152,57993,1,0,0:0:0:0:
304,300,58131,2,0,P|244:256|228:216,1,107.999996704102
160,48,58406,5,0,0:0:0:0:
56,264,58543,2,0,P|93:239|140:164,1,107.999996704102
216,60,58819,1,0,0:0:0:0:
244,200,58956,1,0,0:0:0:0:
280,260,59025,1,0,0:0:0:0:
348,276,59094,1,0,0:0:0:0:
416,252,59163,1,0,0:0:0:0:
440,188,59232,1,0,0:0:0:0:
424,28,59369,5,0,0:0:0:0:
272,332,59507,2,0,P|208:304|192:256,1,107.999996704102
96,148,59782,1,0,0:0:0:0:
300,52,59920,2,0,P|267:109|257:151,1,107.999996704102
424,340,60195,2,0,P|381:311|356:244,1,107.999996704102
264,68,60470,5,0,0:0:0:0:
264,248,60608,1,0,0:0:0:0:
416,152,60745,1,0,0:0:0:0:
124,292,60883,2,0,L|204:200,1,107.999996704102
376,88,61158,2,0,L|308:172,1,107.999996704102
328,244,61433,5,0,0:0:0:0:
180,172,61571,1,0,0:0:0:0:
316,68,61708,1,0,0:0:0:0:
228,264,61846,1,0,0:0:0:0:
200,48,61983,1,0,0:0:0:0:
404,148,62121,1,0,0:0:0:0:
288,332,62259,1,0,0:0:0:0:
132,120,62397,1,0,0:0:0:0:
416,96,62534,1,0,0:0:0:0:
196,300,62672,5,0,0:0:0:0:
280,56,62809,1,0,0:0:0:0:
196,300,62947,1,0,0:0:0:0:
288,156,63085,2,0,P|332:190|360:236,1,107.999996704102
136,188,63360,1,0,0:0:0:0:
292,56,63498,1,0,0:0:0:0:
336,248,63635,1,0,0:0:0:0:
360,44,63773,6,0,L|312:140,1,107.999996704102
172,328,64048,2,0,L|220:232,1,107.999996704102
440,60,64323,2,0,L|392:156,1,107.999996704102
88,304,64598,2,0,L|136:208,1,107.999996704102
248,88,64874,6,0,P|296:76|348:104,1,107.999996704102
362,255,65424,2,0,P|322:283|276:280,1,90
148,160,65699,2,0,P|137:203|153:244,1,90
232,28,65975,6,0,P|249:92|236:208,1,180
352,128,66387,1,0,0:0:0:0:
156,328,66525,2,0,L|156:232,1,90
296,78,66800,2,0,L|296:168,1,90
456,276,67076,6,0,L|456:164,1,90
400,20,67351,1,0,0:0:0:0:
372,180,67488,1,0,0:0:0:0:
340,228,67557,1,0,0:0:0:0:
288,252,67626,1,0,0:0:0:0:
232,240,67695,1,0,0:0:0:0:
200,192,67764,1,0,0:0:0:0:
176,44,67901,1,0,0:0:0:0:
102,191,68039,6,0,P|150:211|210:179,1,107.999996704102
280,44,68314,1,0,0:0:0:0:
356,340,68452,2,0,B|380:308|360:236,1,107.999996704102
480,72,68727,2,0,P|428:103|404:152,1,107.999996704102
148,208,69002,1,0,0:0:0:0:
224,352,69140,1,0,0:0:0:0:
360,268,69277,5,0,0:0:0:0:
292,128,69415,1,0,0:0:0:0:
136,76,69553,2,0,P|122:124|156:184,1,107.999996704102
212,260,69828,1,0,0:0:0:0:
260,304,69897,1,0,0:0:0:0:
324,320,69965,1,0,0:0:0:0:
388,312,70034,1,0,0:0:0:0:
436,268,70103,1,0,0:0:0:0:
472,168,70241,2,0,P|452:128|388:120,1,107.999996704102
208,56,70516,5,0,0:0:0:0:
236,184,70654,1,0,0:0:0:0:
368,96,70791,1,0,0:0:0:0:
248,292,70929,1,0,0:0:0:0:
104,200,71066,1,0,0:0:0:0:
248,104,71204,1,0,0:0:0:0:
132,276,71342,2,0,P|150:326|180:284,1,107.999996704102
332,56,71617,5,0,0:0:0:0:
296,216,71754,1,0,0:0:0:0:
456,180,71892,1,0,0:0:0:0:
296,88,72030,1,0,0:0:0:0:
204,216,72167,1,0,0:0:0:0:
212,284,72236,1,0,0:0:0:0:
268,320,72305,1,0,0:0:0:0:
336,320,72374,1,0,0:0:0:0:
380,268,72443,1,0,0:0:0:0:
424,104,72580,5,0,0:0:0:0:
301,299,72718,2,0,P|309:239|280:200,1,107.999996704102
192,60,72993,1,0,0:0:0:0:
324,232,73131,1,0,0:0:0:0:
412,52,73268,1,0,0:0:0:0:
264,252,73406,1,0,0:0:0:0:
176,72,73543,1,0,0:0:0:0:
80,308,73681,6,0,P|79:255|116:212,1,107.999996704102
216,48,73956,2,0,P|232:104|216:160,1,107.999996704102
200,280,74232,1,0,0:0:0:0:
248,328,74300,1,0,0:0:0:0:
316,332,74369,1,0,0:0:0:0:
376,304,74438,1,0,0:0:0:0:
392,240,74507,1,0,0:0:0:0:
404,132,74644,2,0,B|364:80|296:88,1,107.999996704102
120,172,74920,5,0,0:0:0:0:
256,292,75057,1,0,0:0:0:0:
276,120,75195,1,0,0:0:0:0:
160,276,75332,1,0,0:0:0:0:
316,208,75470,1,0,0:0:0:0:
188,100,75608,1,0,0:0:0:0:
152,260,75745,2,0,P|188:308|312:244,1,215.999993408203
344,112,76158,6,0,P|372:60|408:80,1,107.999996704102
440,156,76365,1,0,0:0:0:0:
440,224,76433,1,0,0:0:0:0:
416,288,76502,1,0,0:0:0:0:
356,320,76571,1,0,0:0:0:0:
288,320,76640,1,0,0:0:0:0:
232,280,76709,1,0,0:0:0:0:
200,220,76777,1,0,0:0:0:0:
192,152,76846,6,0,B|256:80|336:56|420:96,1,242.999992584229
