osu file format v14

[General]
AudioFilename: audio.mp3
AudioLeadIn: 0
PreviewTime: 116731
Countdown: 0
SampleSet: Normal
StackLeniency: 0.7
Mode: 1
LetterboxInBreaks: 0
WidescreenStoryboard: 0

[Editor]
DistanceSpacing: 0.8
BeatDivisor: 8
GridSize: 32
TimelineZoom: 2.4

[Metadata]
Title:Toaru Shoukoku no Ohimesama ga...
TitleUnicode:とある小国のお姫様が...
Artist:nao
ArtistUnicode:nao
Creator:yassu-
Version:Oni
Source:姫様LOVEライフ!
Tags:himesama love life! visual novel vn jrock j-rock japanese rock Metal videogame eroge Video Game music vgm opening op princess sugar hime-sama ohime-sama ohimesama atta koto mo nai ani no ie ni yattekite sumitsuita jijou ga, jijou. とある小国のお姫様が、会ったこともない兄の家にやってきて住みついた事情。 8th album innocent prelude. maya 山下慎一狼 Yamashita Shinichiro 寺前甲 demetori
BeatmapID:879806
BeatmapSetID:401799

[Difficulty]
HPDrainRate:5
CircleSize:5
OverallDifficulty:6
ApproachRate:5
SliderMultiplier:1.4
SliderTickRate:1

[Events]
//Background and Video events
0,0,"himesama_BG.jpg",0,50
//Break Periods
//Storyboard Layer 0 (Background)
//Storyboard Layer 1 (Fail)
//Storyboard Layer 2 (Pass)
//Storyboard Layer 3 (Foreground)
//Storyboard Layer 4 (Overlay)
//Storyboard Sound Samples

[TimingPoints]
619,275.229357798165,4,1,0,80,1,0
619,-111.111111111111,4,1,0,80,0,0
2683,-100,4,1,0,80,0,0
28210,-101.26582278481,4,1,0,80,0,0
28279,-102.564102564103,4,1,0,80,0,0
28348,-103.896103896104,4,1,0,80,0,0
28417,-105.263157894737,4,1,0,80,0,0
28485,-106.666666666667,4,1,0,80,0,0
28554,-108.108108108108,4,1,0,80,0,0
28692,-111.111111111111,4,1,0,80,0,0
28830,-114.285714285714,4,1,0,80,0,0
28967,-117.647058823529,4,1,0,80,0,0
29105,-121.212121212121,4,1,0,80,0,0
29242,-125,4,1,0,80,0,0
35022,-121.212121212121,4,1,0,80,0,0
35297,-117.647058823529,4,1,0,80,0,0
35573,-114.285714285714,4,1,0,80,0,0
35848,-111.111111111111,4,1,0,80,0,0
37430,-109.89010989011,4,1,0,80,0,0
37499,-108.695652173913,4,1,0,80,0,0
37568,-107.52688172043,4,1,0,80,0,0
37637,-106.382978723404,4,1,0,80,0,0
37706,-105.263157894737,4,1,0,80,0,0
37774,-104.166666666667,4,1,0,80,0,0
37912,-102.040816326531,4,1,0,80,0,0
38050,-100,4,1,0,80,0,0
50573,-100,4,1,0,60,0,0
50848,-98.3606557383499,4,1,0,60,0,0
50985,-96.7741938605619,4,1,0,60,0,0
51054,-96.7741938605619,4,1,0,80,0,0
51123,-95.2380952380952,4,1,0,80,0,1
68187,-96.1538461538461,4,1,0,80,0,1
68256,-96.6183574879227,4,1,0,80,0,1
68325,-97.0873786407767,4,1,0,80,0,1
68463,-98.0392156862745,4,1,0,80,0,1
68600,-99.009900990099,4,1,0,80,0,1
68738,-100,4,1,0,80,0,0
77683,-105.263157894737,4,1,0,80,0,0
77820,-111.111111111111,4,1,0,80,0,0
81398,-108.695652173913,4,1,0,80,0,0
81467,-107.52688172043,4,1,0,80,0,0
81536,-106.382978723404,4,1,0,80,0,0
81674,-104.166666666667,4,1,0,80,0,0
81811,-102.040816326531,4,1,0,80,0,0
81949,-100,4,1,0,80,0,0
86490,-105.263157894737,4,1,0,80,0,0
86628,-111.111111111111,4,1,0,80,0,0
90206,-108.695652173913,4,1,0,80,0,0
90343,-106.382978723404,4,1,0,80,0,0
90481,-104.166666666667,4,1,0,80,0,0
90618,-102.040816326531,4,1,0,80,0,0
90756,-100,4,1,0,80,0,0
95366,-97.5609756097561,4,1,0,80,0,0
95435,-95.2380952380952,4,1,0,80,0,0
95504,-93.0232558139535,4,1,0,80,0,0
95573,-90.9090909090909,4,1,0,80,0,0
103554,-92.5925925925926,4,1,0,80,0,0
103692,-94.3396226415094,4,1,0,80,0,0
103830,-96.1538461538461,4,1,0,80,0,0
103967,-98.0392156862745,4,1,0,80,0,0
104105,-100,4,1,0,80,0,0
116628,-100,4,1,0,60,0,0
116903,-98.3606557383499,4,1,0,60,0,0
117041,-96.7741935486993,4,1,0,60,0,0
117109,-96.7741935486993,4,1,0,80,0,0
117178,-95.2380952380952,4,1,0,80,0,1
132178,-100,4,1,0,80,0,1
132729,-105.263157894737,4,1,0,80,0,1
134930,-125,4,1,0,80,0,0
138784,-117.647058823529,4,1,0,80,0,0
139334,-111.111111111111,4,1,0,80,0,0
142843,-110.09174715933,4,1,0,80,0,0
142912,-109.090909884298,4,1,0,80,0,0
143050,-107.14285752551,4,1,0,80,0,0
143118,-106.194690273005,4,1,0,80,0,0
143187,-105.263157894737,4,1,0,80,0,0
143325,-103.448276575505,4,1,0,80,0,0
143463,-101.694915598966,4,1,0,80,0,0
143600,-100,4,1,0,80,0,0
178554,-97.5609756097561,4,1,0,80,0,0
178623,-96.3855421686747,4,1,0,80,0,0
178692,-95.2380952380952,4,1,0,80,0,0
178830,-93.0232558139535,4,1,0,80,0,0
178967,-90.9090909090909,4,1,0,80,0,0
182820,-133.333333333333,4,1,0,40,0,0
189151,-117.647058823529,4,1,0,80,0,0
189701,-111.111111111111,4,1,0,80,0,0
189976,-105.263157894737,4,1,0,80,0,0
191077,-100,4,1,0,80,0,0
191628,-100,4,1,0,60,0,0
191972,-100,4,1,0,80,0,0
192041,-95.2380952380952,4,1,0,80,0,1
224518,-96.1538461538461,4,1,0,80,0,1
224586,-96.6183574879227,4,1,0,80,0,1
224655,-97.0873786407767,4,1,0,80,0,1
224793,-98.0392156862745,4,1,0,80,0,1
224930,-99.009900990099,4,1,0,80,0,1
225068,-100,4,1,0,80,0,0

[HitObjects]
279,201,1719,5,2,0:0:0:0:
265,207,1995,1,2,0:0:0:0:
265,205,2270,1,2,0:0:0:0:
269,205,2407,1,0,0:0:0:0:
269,206,2476,1,0,0:0:0:0:
269,206,2545,1,2,0:0:0:0:
267,206,2683,1,4,0:0:0:0:
261,205,2958,1,0,0:0:0:0:
278,205,3096,1,2,0:0:0:0:
244,169,3233,1,2,0:0:0:0:
258,191,3371,1,0,0:0:0:0:
266,184,3508,1,2,0:0:0:0:
250,195,3646,1,0,0:0:0:0:
254,203,3784,1,2,0:0:0:0:
257,181,3852,1,2,0:0:0:0:
246,182,3921,1,0,0:0:0:0:
259,197,4059,1,2,0:0:0:0:
258,198,4196,1,0,0:0:0:0:
249,203,4334,1,2,0:0:0:0:
259,222,4472,1,0,0:0:0:0:
263,200,4541,1,2,0:0:0:0:
259,197,4609,1,0,0:0:0:0:
263,201,4678,1,0,0:0:0:0:
260,202,4747,1,2,0:0:0:0:
261,213,4885,1,0,0:0:0:0:
261,213,5160,1,0,0:0:0:0:
259,214,5297,1,2,0:0:0:0:
239,173,5435,1,2,0:0:0:0:
259,214,5573,1,0,0:0:0:0:
261,213,5710,1,0,0:0:0:0:
261,213,5848,1,2,0:0:0:0:
265,211,5985,1,0,0:0:0:0:
263,231,6261,1,0,0:0:0:0:
271,171,6398,1,2,0:0:0:0:
268,180,6536,1,0,0:0:0:0:
267,181,6674,1,0,0:0:0:0:
267,181,6811,1,0,0:0:0:0:
242,172,6880,1,0,0:0:0:0:
254,178,6949,1,2,0:0:0:0:
256,177,7086,1,4,0:0:0:0:
257,176,7362,1,0,0:0:0:0:
256,175,7499,1,2,0:0:0:0:
245,166,7637,1,2,0:0:0:0:
254,178,7774,1,0,0:0:0:0:
254,210,7912,1,2,0:0:0:0:
254,210,8050,1,0,0:0:0:0:
254,210,8187,1,2,0:0:0:0:
242,186,8256,1,2,0:0:0:0:
248,188,8325,1,0,0:0:0:0:
254,210,8463,1,2,0:0:0:0:
233,204,8600,1,0,0:0:0:0:
248,162,8738,1,2,0:0:0:0:
233,204,8875,1,0,0:0:0:0:
253,170,8944,1,2,0:0:0:0:
278,236,9013,1,0,0:0:0:0:
245,169,9082,1,0,0:0:0:0:
292,231,9151,1,2,0:0:0:0:
290,229,9288,1,4,0:0:0:0:
291,229,9563,1,0,0:0:0:0:
288,208,9701,1,2,0:0:0:0:
250,173,9839,1,0,0:0:0:0:
250,165,9976,1,2,0:0:0:0:
241,169,10114,1,0,0:0:0:0:
250,154,10252,1,0,0:0:0:0:
253,150,10389,1,6,0:0:0:0:
256,162,10664,1,0,0:0:0:0:
265,168,10802,1,6,0:0:0:0:
266,168,10940,1,0,0:0:0:0:
266,168,11077,1,2,0:0:0:0:
257,194,11146,1,2,0:0:0:0:
257,194,11215,1,0,0:0:0:0:
257,194,11284,1,0,0:0:0:0:
257,194,11352,1,2,0:0:0:0:
255,183,11490,1,4,0:0:0:0:
260,186,11903,1,2,0:0:0:0:
260,186,12453,1,2,0:0:0:0:
260,186,13004,1,2,0:0:0:0:
233,178,13279,1,0,0:0:0:0:
222,175,13417,1,0,0:0:0:0:
250,175,13692,1,4,0:0:0:0:
250,179,14105,1,2,0:0:0:0:
250,179,14655,1,2,0:0:0:0:
248,185,15068,1,0,0:0:0:0:
239,186,15206,1,2,0:0:0:0:
250,190,15481,1,2,0:0:0:0:
248,185,15618,1,2,0:0:0:0:
235,188,15756,1,0,0:0:0:0:
236,189,15894,1,6,0:0:0:0:
242,189,16169,1,0,0:0:0:0:
247,185,16307,1,2,0:0:0:0:
239,179,16582,1,0,0:0:0:0:
239,181,16719,1,0,0:0:0:0:
247,185,16857,1,2,0:0:0:0:
234,184,16995,1,0,0:0:0:0:
234,184,17270,1,0,0:0:0:0:
247,185,17407,1,2,0:0:0:0:
203,178,17545,1,0,0:0:0:0:
234,184,17683,1,0,0:0:0:0:
256,188,17820,1,0,0:0:0:0:
247,185,17958,1,2,0:0:0:0:
256,188,18096,1,4,0:0:0:0:
252,188,18371,1,0,0:0:0:0:
247,185,18508,1,2,0:0:0:0:
252,188,18784,1,0,0:0:0:0:
249,184,18921,1,0,0:0:0:0:
247,185,19059,1,6,0:0:0:0:
242,181,19196,1,0,0:0:0:0:
242,181,19334,1,2,0:0:0:0:
233,198,19403,1,2,0:0:0:0:
254,203,19472,1,0,0:0:0:0:
254,203,19541,1,0,0:0:0:0:
254,203,19609,1,2,0:0:0:0:
257,203,19747,1,4,0:0:0:0:
261,203,20022,1,4,0:0:0:0:
218,182,20160,1,2,0:0:0:0:
263,204,20297,1,4,0:0:0:0:
250,173,20710,1,2,0:0:0:0:
250,173,21261,1,2,0:0:0:0:
281,142,21811,1,2,0:0:0:0:
280,179,22086,1,0,0:0:0:0:
280,179,22224,1,0,0:0:0:0:
280,179,22499,1,4,0:0:0:0:
280,179,22912,1,2,0:0:0:0:
280,179,23463,1,2,0:0:0:0:
285,179,23875,1,0,0:0:0:0:
282,187,23944,1,0,0:0:0:0:
280,188,24013,1,2,0:0:0:0:
280,188,24151,1,0,0:0:0:0:
280,188,24288,1,2,0:0:0:0:
280,188,24426,1,2,0:0:0:0:
285,186,24563,1,0,0:0:0:0:
283,186,24701,1,6,0:0:0:0:
266,195,24976,1,0,0:0:0:0:
274,201,25114,1,2,0:0:0:0:
249,205,25389,1,0,0:0:0:0:
241,205,25527,1,0,0:0:0:0:
245,207,25664,1,2,0:0:0:0:
246,207,25802,1,0,0:0:0:0:
259,208,26077,1,0,0:0:0:0:
263,209,26215,1,2,0:0:0:0:
280,220,26352,1,0,0:0:0:0:
275,208,26490,1,2,0:0:0:0:
276,207,26628,1,2,0:0:0:0:
283,210,26765,1,0,0:0:0:0:
274,214,26903,1,6,0:0:0:0:
275,208,27178,1,0,0:0:0:0:
284,205,27316,1,2,0:0:0:0:
296,208,27591,1,2,0:0:0:0:
283,229,27729,1,0,0:0:0:0:
280,218,27866,1,6,0:0:0:0:
280,218,28004,1,0,0:0:0:0:
254,208,28141,1,2,0:0:0:0:
263,210,28210,1,2,0:0:0:0:
259,208,28279,1,0,0:0:0:0:
269,215,28348,1,0,0:0:0:0:
254,236,28417,1,2,0:0:0:0:
304,252,28485,1,2,0:0:0:0:
297,250,28554,1,0,0:0:0:0:
293,247,28692,1,2,0:0:0:0:
294,248,28830,1,2,0:0:0:0:
294,248,28967,1,0,0:0:0:0:
294,248,29105,1,2,0:0:0:0:
295,248,29242,1,0,0:0:0:0:
278,223,29518,1,0,0:0:0:0:
257,214,29793,1,0,0:0:0:0:
256,219,30068,1,0,0:0:0:0:
253,221,30343,1,0,0:0:0:0:
253,221,30618,1,0,0:0:0:0:
226,198,30894,1,0,0:0:0:0:
232,212,31169,1,0,0:0:0:0:
238,212,31307,1,2,0:0:0:0:
248,210,31444,1,0,0:0:0:0:
248,203,31719,1,0,0:0:0:0:
248,203,31995,1,0,0:0:0:0:
246,202,32270,1,0,0:0:0:0:
248,203,32545,1,0,0:0:0:0:
237,177,32820,1,0,0:0:0:0:
239,178,33096,1,0,0:0:0:0:
254,192,33233,1,2,0:0:0:0:
255,194,33371,1,0,0:0:0:0:
255,195,33508,1,0,0:0:0:0:
254,196,33577,1,0,0:0:0:0:
246,199,33646,1,2,0:0:0:0:
268,204,33921,1,0,0:0:0:0:
263,218,34196,1,0,0:0:0:0:
262,213,34472,1,0,0:0:0:0:
263,219,34747,1,0,0:0:0:0:
263,218,35022,1,0,0:0:0:0:
285,218,35297,1,0,0:0:0:0:
282,221,35573,1,0,0:0:0:0:
281,222,35848,1,2,0:0:0:0:
285,218,35985,1,0,0:0:0:0:
311,197,36123,1,2,0:0:0:0:
278,208,36398,1,0,0:0:0:0:
287,199,36536,1,2,0:0:0:0:
292,199,36811,1,0,0:0:0:0:
167,249,36880,1,0,0:0:0:0:
256,214,36949,1,2,0:0:0:0:
256,214,37086,1,0,0:0:0:0:
256,214,37224,1,2,0:0:0:0:
265,205,37362,1,0,0:0:0:0:
280,209,37430,1,0,0:0:0:0:
273,220,37499,1,2,0:0:0:0:
271,220,37568,1,2,0:0:0:0:
269,217,37637,1,0,0:0:0:0:
269,217,37706,1,0,0:0:0:0:
269,218,37774,1,2,0:0:0:0:
257,201,37912,1,2,0:0:0:0:
265,201,38050,1,4,0:0:0:0:
263,212,38325,1,2,0:0:0:0:
248,205,38600,1,0,0:0:0:0:
259,205,38738,1,0,0:0:0:0:
265,201,38875,1,2,0:0:0:0:
266,203,39151,1,0,0:0:0:0:
267,213,39426,1,2,0:0:0:0:
251,214,39563,1,0,0:0:0:0:
240,199,39839,1,0,0:0:0:0:
245,199,39976,1,2,0:0:0:0:
246,199,40114,1,2,0:0:0:0:
246,196,40252,1,4,0:0:0:0:
248,196,40527,1,2,0:0:0:0:
249,196,40802,1,0,0:0:0:0:
252,191,40940,1,2,0:0:0:0:
259,195,41215,1,0,0:0:0:0:
261,200,41352,1,2,0:0:0:0:
261,201,41490,1,0,0:0:0:0:
257,202,41559,1,0,0:0:0:0:
253,190,41628,1,2,0:0:0:0:
252,191,41765,1,0,0:0:0:0:
243,197,41834,1,0,0:0:0:0:
249,199,41903,1,2,0:0:0:0:
249,199,42041,1,2,0:0:0:0:
250,199,42178,1,0,0:0:0:0:
248,200,42316,1,0,0:0:0:0:
257,198,42453,1,6,0:0:0:0:
258,198,42729,1,2,0:0:0:0:
284,216,43004,1,0,0:0:0:0:
283,210,43141,1,2,0:0:0:0:
283,209,43417,1,0,0:0:0:0:
282,208,43554,1,2,0:0:0:0:
281,210,43830,1,0,0:0:0:0:
276,170,43967,1,2,0:0:0:0:
252,218,44105,1,0,0:0:0:0:
288,175,44242,1,0,0:0:0:0:
289,173,44380,1,2,0:0:0:0:
285,172,44518,1,2,0:0:0:0:
281,181,44655,1,4,0:0:0:0:
281,181,44930,1,2,0:0:0:0:
252,177,45068,1,2,0:0:0:0:
281,179,45206,1,0,0:0:0:0:
278,177,45343,1,2,0:0:0:0:
275,179,45618,1,0,0:0:0:0:
268,179,45687,1,0,0:0:0:0:
263,177,45756,1,2,0:0:0:0:
245,161,45894,1,0,0:0:0:0:
281,179,46031,1,2,0:0:0:0:
278,177,46169,1,2,0:0:0:0:
282,182,46238,1,2,0:0:0:0:
282,182,46307,1,0,0:0:0:0:
281,181,46444,1,2,0:0:0:0:
285,169,46582,1,0,0:0:0:0:
263,178,46719,1,0,0:0:0:0:
269,179,46857,1,6,0:0:0:0:
280,182,47132,1,2,0:0:0:0:
281,181,47407,1,2,0:0:0:0:
278,183,47545,1,0,0:0:0:0:
272,177,47683,1,2,0:0:0:0:
278,173,47820,1,0,0:0:0:0:
274,175,47958,1,2,0:0:0:0:
270,177,48233,1,2,0:0:0:0:
291,248,48508,1,2,0:0:0:0:
297,225,48646,1,0,0:0:0:0:
300,225,48784,1,2,0:0:0:0:
306,225,48921,1,0,0:0:0:0:
297,233,49059,1,6,0:0:0:0:
293,242,49196,1,0,0:0:0:0:
293,242,49334,1,0,0:0:0:0:
294,242,49472,1,6,0:0:0:0:
310,240,49747,1,0,0:0:0:0:
317,240,49885,1,6,0:0:0:0:
313,235,50160,1,6,0:0:0:0:
257,193,50710,1,0,0:0:0:0:
267,199,50848,1,2,0:0:0:0:
267,199,50985,1,2,0:0:0:0:
266,188,51123,1,4,0:0:0:0:
235,198,51398,1,0,0:0:0:0:
289,211,51536,1,2,0:0:0:0:
261,208,51674,1,2,0:0:0:0:
260,210,51742,1,2,0:0:0:0:
258,208,51811,1,0,0:0:0:0:
280,206,51949,1,0,0:0:0:0:
259,208,52086,1,2,0:0:0:0:
271,202,52224,1,0,0:0:0:0:
263,220,52293,1,0,0:0:0:0:
276,214,52362,1,0,0:0:0:0:
283,221,52499,1,2,0:0:0:0:
284,225,52637,1,2,0:0:0:0:
319,185,52774,1,0,0:0:0:0:
295,239,52843,1,2,0:0:0:0:
290,239,52912,1,0,0:0:0:0:
274,214,53050,1,0,0:0:0:0:
283,218,53187,1,2,0:0:0:0:
309,241,53325,1,0,0:0:0:0:
288,235,53600,1,0,0:0:0:0:
287,234,53738,1,2,0:0:0:0:
261,238,53875,1,0,0:0:0:0:
282,263,53944,1,0,0:0:0:0:
271,184,54013,1,2,0:0:0:0:
286,190,54151,1,0,0:0:0:0:
286,190,54288,1,2,0:0:0:0:
288,193,54426,1,0,0:0:0:0:
259,169,54563,1,6,0:0:0:0:
259,169,54839,1,6,0:0:0:0:
259,152,55114,1,6,0:0:0:0:
283,222,55252,1,0,0:0:0:0:
255,188,55389,1,0,0:0:0:0:
257,188,55527,1,6,0:0:0:0:
274,231,55802,1,0,0:0:0:0:
274,223,55940,1,2,0:0:0:0:
271,225,56077,1,0,0:0:0:0:
274,231,56146,1,0,0:0:0:0:
270,235,56215,1,2,0:0:0:0:
269,248,56352,1,2,0:0:0:0:
269,249,56490,1,0,0:0:0:0:
271,251,56628,1,2,0:0:0:0:
271,251,56696,1,2,0:0:0:0:
266,263,56765,1,2,0:0:0:0:
298,253,56903,1,0,0:0:0:0:
295,254,57041,1,2,0:0:0:0:
295,255,57178,1,0,0:0:0:0:
294,248,57247,1,2,0:0:0:0:
298,253,57385,1,2,0:0:0:0:
293,248,57453,1,0,0:0:0:0:
291,252,57591,1,2,0:0:0:0:
265,227,57729,1,0,0:0:0:0:
278,218,58004,1,0,0:0:0:0:
263,199,58141,1,2,0:0:0:0:
272,207,58279,1,2,0:0:0:0:
265,204,58348,1,2,0:0:0:0:
265,204,58417,1,0,0:0:0:0:
265,204,58554,1,0,0:0:0:0:
265,204,58692,1,2,0:0:0:0:
256,220,58830,1,4,0:0:0:0:
241,189,59105,1,0,0:0:0:0:
257,190,59242,1,2,0:0:0:0:
258,187,59380,1,2,0:0:0:0:
226,186,59449,1,2,0:0:0:0:
254,168,59518,1,0,0:0:0:0:
190,185,59655,1,0,0:0:0:0:
242,171,59793,1,0,0:0:0:0:
241,169,59930,1,6,0:0:0:0:
223,175,60206,1,0,0:0:0:0:
265,188,60343,1,2,0:0:0:0:
252,147,60481,1,2,0:0:0:0:
252,158,60550,1,2,0:0:0:0:
252,147,60618,1,0,0:0:0:0:
255,160,60756,1,0,0:0:0:0:
256,164,60894,1,2,0:0:0:0:
257,159,61031,1,0,0:0:0:0:
258,158,61100,1,2,0:0:0:0:
263,158,61169,1,0,0:0:0:0:
263,159,61307,1,0,0:0:0:0:
264,159,61444,1,2,0:0:0:0:
266,142,61582,1,0,0:0:0:0:
267,130,61651,1,0,0:0:0:0:
266,129,61719,1,2,0:0:0:0:
261,134,61788,1,2,0:0:0:0:
252,149,61857,1,0,0:0:0:0:
258,145,61995,1,2,0:0:0:0:
258,142,62132,1,4,0:0:0:0:
255,164,62407,1,0,0:0:0:0:
284,194,62545,1,2,0:0:0:0:
284,194,62683,1,4,0:0:0:0:
284,194,62958,1,2,0:0:0:0:
287,171,63096,1,0,0:0:0:0:
271,181,63233,1,6,0:0:0:0:
271,181,63508,1,2,0:0:0:0:
266,184,63646,1,0,0:0:0:0:
261,179,63784,1,6,0:0:0:0:
264,184,63921,1,0,0:0:0:0:
279,169,63990,1,0,0:0:0:0:
259,191,64059,1,0,0:0:0:0:
255,194,64128,1,0,0:0:0:0:
256,192,64196,1,2,0:0:0:0:
276,192,64334,1,4,0:0:0:0:
256,203,64609,1,0,0:0:0:0:
265,207,64747,1,2,0:0:0:0:
273,212,64885,1,0,0:0:0:0:
271,219,65022,1,2,0:0:0:0:
273,225,65160,1,0,0:0:0:0:
295,199,65297,1,2,0:0:0:0:
289,200,65435,1,0,0:0:0:0:
289,200,65504,1,0,0:0:0:0:
277,210,65573,1,2,0:0:0:0:
278,210,66123,1,2,0:0:0:0:
256,190,66674,1,4,0:0:0:0:
256,190,66949,1,0,0:0:0:0:
259,148,67224,1,0,0:0:0:0:
259,148,67499,1,0,0:0:0:0:
259,148,67637,1,2,0:0:0:0:
259,148,67774,1,0,0:0:0:0:
264,139,68050,1,0,0:0:0:0:
263,137,68187,1,2,0:0:0:0:
268,134,68256,1,2,0:0:0:0:
269,134,68325,1,2,0:0:0:0:
287,98,68463,1,2,0:0:0:0:
278,117,68600,1,2,0:0:0:0:
274,120,68738,1,4,0:0:0:0:
261,205,69013,1,0,0:0:0:0:
278,205,69151,1,2,0:0:0:0:
244,169,69288,1,2,0:0:0:0:
258,191,69426,1,0,0:0:0:0:
266,184,69563,1,2,0:0:0:0:
250,195,69701,1,0,0:0:0:0:
254,203,69839,1,2,0:0:0:0:
263,214,69907,1,0,0:0:0:0:
267,208,69976,1,0,0:0:0:0:
259,197,70114,1,2,0:0:0:0:
258,198,70252,1,0,0:0:0:0:
249,203,70389,1,2,0:0:0:0:
259,222,70527,1,0,0:0:0:0:
263,200,70596,1,2,0:0:0:0:
259,197,70664,1,0,0:0:0:0:
263,201,70733,1,0,0:0:0:0:
260,202,70802,1,2,0:0:0:0:
261,213,70940,1,0,0:0:0:0:
261,213,71215,1,0,0:0:0:0:
259,214,71352,1,2,0:0:0:0:
239,173,71490,1,2,0:0:0:0:
259,214,71628,1,0,0:0:0:0:
261,213,71765,1,0,0:0:0:0:
261,213,71903,1,2,0:0:0:0:
265,211,72041,1,0,0:0:0:0:
254,211,72109,1,0,0:0:0:0:
274,202,72178,1,0,0:0:0:0:
263,231,72316,1,0,0:0:0:0:
271,171,72453,1,2,0:0:0:0:
268,180,72591,1,0,0:0:0:0:
267,181,72729,1,2,0:0:0:0:
267,181,72866,1,0,0:0:0:0:
242,172,72935,1,0,0:0:0:0:
254,178,73004,1,2,0:0:0:0:
256,177,73141,1,4,0:0:0:0:
257,176,73417,1,0,0:0:0:0:
256,175,73554,1,2,0:0:0:0:
245,166,73692,1,2,0:0:0:0:
254,178,73830,1,0,0:0:0:0:
254,210,73967,1,2,0:0:0:0:
254,210,74105,1,0,0:0:0:0:
254,210,74242,1,2,0:0:0:0:
248,203,74311,1,2,0:0:0:0:
245,188,74380,1,0,0:0:0:0:
254,210,74518,1,2,0:0:0:0:
233,204,74655,1,0,0:0:0:0:
248,162,74793,1,2,0:0:0:0:
233,204,74930,1,0,0:0:0:0:
253,170,74999,1,2,0:0:0:0:
278,236,75068,1,0,0:0:0:0:
245,169,75137,1,0,0:0:0:0:
292,231,75206,1,2,0:0:0:0:
290,229,75343,1,4,0:0:0:0:
291,229,75618,1,0,0:0:0:0:
288,208,75756,1,2,0:0:0:0:
250,173,75894,1,0,0:0:0:0:
280,193,76031,1,2,0:0:0:0:
279,193,76100,1,2,0:0:0:0:
280,193,76169,1,0,0:0:0:0:
282,193,76238,1,0,0:0:0:0:
282,193,76307,1,0,0:0:0:0:
253,150,76444,1,6,0:0:0:0:
256,162,76719,1,0,0:0:0:0:
265,168,76857,1,2,0:0:0:0:
266,168,76995,1,2,0:0:0:0:
266,168,77132,1,0,0:0:0:0:
257,194,77270,1,0,0:0:0:0:
257,194,77339,1,0,0:0:0:0:
257,194,77407,1,2,0:0:0:0:
255,183,77545,1,4,0:0:0:0:
261,203,77820,1,0,0:0:0:0:
268,203,77958,1,0,0:0:0:0:
278,216,78096,1,2,0:0:0:0:
286,229,78233,1,0,0:0:0:0:
289,201,78371,1,2,0:0:0:0:
291,225,78508,1,0,0:0:0:0:
296,237,78646,1,2,0:0:0:0:
283,164,78921,1,2,0:0:0:0:
283,242,79059,1,0,0:0:0:0:
290,208,79196,1,0,0:0:0:0:
292,234,79334,1,2,0:0:0:0:
272,240,79472,1,0,0:0:0:0:
283,188,79747,1,4,0:0:0:0:
272,173,80022,1,0,0:0:0:0:
278,174,80160,1,0,0:0:0:0:
279,173,80297,1,2,0:0:0:0:
278,173,80435,1,0,0:0:0:0:
274,175,80710,1,0,0:0:0:0:
275,178,80848,1,2,0:0:0:0:
277,182,80985,1,0,0:0:0:0:
280,182,81123,1,0,0:0:0:0:
270,172,81261,1,2,0:0:0:0:
278,195,81398,1,2,0:0:0:0:
273,185,81467,1,2,0:0:0:0:
278,185,81536,1,2,0:0:0:0:
280,184,81674,1,0,0:0:0:0:
280,182,81811,1,0,0:0:0:0:
278,176,81949,1,6,0:0:0:0:
242,189,82224,1,0,0:0:0:0:
247,185,82362,1,2,0:0:0:0:
239,179,82637,1,0,0:0:0:0:
239,181,82774,1,0,0:0:0:0:
247,185,82912,1,2,0:0:0:0:
234,184,83050,1,0,0:0:0:0:
234,184,83325,1,0,0:0:0:0:
247,185,83463,1,2,0:0:0:0:
203,178,83600,1,0,0:0:0:0:
234,184,83738,1,0,0:0:0:0:
256,188,83875,1,0,0:0:0:0:
247,185,84013,1,2,0:0:0:0:
256,188,84151,1,4,0:0:0:0:
252,188,84426,1,0,0:0:0:0:
247,185,84563,1,2,0:0:0:0:
252,188,84839,1,0,0:0:0:0:
249,184,84976,1,0,0:0:0:0:
247,185,85114,1,2,0:0:0:0:
242,181,85252,1,4,0:0:0:0:
254,203,85527,1,2,0:0:0:0:
254,203,85664,1,0,0:0:0:0:
257,203,85802,1,2,0:0:0:0:
257,212,85940,1,0,0:0:0:0:
261,203,86077,1,0,0:0:0:0:
267,216,86146,1,0,0:0:0:0:
265,206,86215,1,0,0:0:0:0:
265,206,86352,1,6,0:0:0:0:
260,219,86628,1,0,0:0:0:0:
247,203,86765,1,0,0:0:0:0:
270,204,87041,1,2,0:0:0:0:
278,199,87178,1,0,0:0:0:0:
283,194,87316,1,2,0:0:0:0:
269,198,87591,1,0,0:0:0:0:
285,195,87729,1,2,0:0:0:0:
270,204,87866,1,0,0:0:0:0:
261,203,88004,1,0,0:0:0:0:
263,199,88073,1,0,0:0:0:0:
238,207,88141,1,2,0:0:0:0:
270,210,88279,1,2,0:0:0:0:
291,195,88417,1,2,0:0:0:0:
294,193,88554,1,4,0:0:0:0:
261,204,88830,1,0,0:0:0:0:
253,208,88967,1,0,0:0:0:0:
248,208,89242,1,2,0:0:0:0:
267,193,89380,1,0,0:0:0:0:
278,197,89518,1,2,0:0:0:0:
283,201,89655,1,2,0:0:0:0:
283,201,89793,1,0,0:0:0:0:
283,201,89930,1,0,0:0:0:0:
283,201,89999,1,0,0:0:0:0:
281,201,90068,1,2,0:0:0:0:
279,199,90206,1,2,0:0:0:0:
278,199,90343,1,0,0:0:0:0:
276,203,90481,1,0,0:0:0:0:
276,203,90618,1,0,0:0:0:0:
276,203,90756,1,6,0:0:0:0:
266,195,91031,1,0,0:0:0:0:
274,201,91169,1,2,0:0:0:0:
249,205,91444,1,0,0:0:0:0:
241,205,91582,1,0,0:0:0:0:
245,207,91719,1,2,0:0:0:0:
246,207,91857,1,0,0:0:0:0:
259,208,92132,1,0,0:0:0:0:
263,209,92270,1,2,0:0:0:0:
280,220,92407,1,0,0:0:0:0:
275,208,92545,1,2,0:0:0:0:
276,207,92683,1,2,0:0:0:0:
283,210,92820,1,0,0:0:0:0:
274,214,92958,1,6,0:0:0:0:
275,208,93233,1,0,0:0:0:0:
284,205,93371,1,2,0:0:0:0:
296,208,93646,1,2,0:0:0:0:
283,229,93784,1,0,0:0:0:0:
280,218,93921,1,6,0:0:0:0:
280,218,94059,1,0,0:0:0:0:
254,208,94196,1,2,0:0:0:0:
263,210,94265,1,2,0:0:0:0:
259,208,94334,1,0,0:0:0:0:
269,215,94403,1,0,0:0:0:0:
254,236,94472,1,2,0:0:0:0:
304,252,94541,1,2,0:0:0:0:
297,250,94609,1,0,0:0:0:0:
293,247,94747,1,2,0:0:0:0:
294,248,94885,1,0,0:0:0:0:
294,248,95022,1,2,0:0:0:0:
294,248,95160,1,0,0:0:0:0:
295,248,95297,1,2,0:0:0:0:
233,220,95366,1,0,0:0:0:0:
242,194,95435,1,0,0:0:0:0:
229,191,95504,1,0,0:0:0:0:
244,202,95573,1,2,0:0:0:0:
247,195,95848,1,2,0:0:0:0:
248,196,95985,1,0,0:0:0:0:
247,197,96123,1,2,0:0:0:0:
249,191,96261,1,0,0:0:0:0:
220,191,96398,1,2,0:0:0:0:
254,218,96674,1,2,0:0:0:0:
252,183,96949,1,2,0:0:0:0:
252,183,97086,1,0,0:0:0:0:
248,182,97224,1,2,0:0:0:0:
246,181,97362,1,0,0:0:0:0:
258,186,97499,1,2,0:0:0:0:
258,185,97774,1,2,0:0:0:0:
259,184,98050,1,2,0:0:0:0:
278,178,98187,1,0,0:0:0:0:
278,179,98325,1,2,0:0:0:0:
280,179,98463,1,0,0:0:0:0:
289,182,98600,1,6,0:0:0:0:
291,186,98875,1,6,0:0:0:0:
303,199,99151,1,6,0:0:0:0:
270,195,99426,1,6,0:0:0:0:
274,195,99701,1,6,0:0:0:0:
270,195,99976,1,2,0:0:0:0:
270,195,100252,1,2,0:0:0:0:
274,186,100389,1,0,0:0:0:0:
291,174,100527,1,2,0:0:0:0:
292,174,100664,1,0,0:0:0:0:
308,173,100802,1,2,0:0:0:0:
307,173,101077,1,2,0:0:0:0:
307,173,101352,1,2,0:0:0:0:
301,171,101490,1,0,0:0:0:0:
301,171,101628,1,2,0:0:0:0:
301,171,101765,1,0,0:0:0:0:
321,167,101834,1,0,0:0:0:0:
324,164,101903,1,2,0:0:0:0:
248,181,102178,1,2,0:0:0:0:
277,138,102453,1,2,0:0:0:0:
274,156,102591,1,0,0:0:0:0:
266,150,102729,1,2,0:0:0:0:
270,154,102866,1,0,0:0:0:0:
267,140,103004,1,2,0:0:0:0:
240,143,103141,1,0,0:0:0:0:
250,125,103210,1,2,0:0:0:0:
250,125,103279,1,2,0:0:0:0:
248,127,103417,1,2,0:0:0:0:
241,126,103554,1,0,0:0:0:0:
241,126,103692,1,0,0:0:0:0:
239,127,103830,1,0,0:0:0:0:
254,126,103967,1,2,0:0:0:0:
255,165,104105,1,4,0:0:0:0:
263,212,104380,1,2,0:0:0:0:
248,205,104655,1,0,0:0:0:0:
259,205,104793,1,0,0:0:0:0:
265,201,104930,1,2,0:0:0:0:
266,203,105206,1,0,0:0:0:0:
267,213,105481,1,2,0:0:0:0:
251,214,105618,1,0,0:0:0:0:
240,199,105894,1,0,0:0:0:0:
245,199,106031,1,2,0:0:0:0:
252,198,106169,1,2,0:0:0:0:
246,196,106307,1,4,0:0:0:0:
249,196,106857,1,4,0:0:0:0:
261,200,107407,1,6,0:0:0:0:
261,201,107545,1,0,0:0:0:0:
253,190,107683,1,2,0:0:0:0:
252,191,107820,1,0,0:0:0:0:
243,197,107889,1,0,0:0:0:0:
249,199,107958,1,2,0:0:0:0:
261,222,108027,1,2,0:0:0:0:
258,226,108096,1,0,0:0:0:0:
257,223,108164,1,0,0:0:0:0:
258,212,108233,1,2,0:0:0:0:
248,200,108371,1,2,0:0:0:0:
257,198,108508,1,4,0:0:0:0:
258,198,108784,1,2,0:0:0:0:
284,216,109059,1,0,0:0:0:0:
283,210,109196,1,2,0:0:0:0:
283,209,109472,1,0,0:0:0:0:
282,208,109609,1,2,0:0:0:0:
281,210,109885,1,0,0:0:0:0:
276,170,110022,1,2,0:0:0:0:
252,218,110160,1,0,0:0:0:0:
288,175,110297,1,0,0:0:0:0:
289,173,110435,1,2,0:0:0:0:
285,172,110573,1,2,0:0:0:0:
281,181,110710,1,4,0:0:0:0:
281,181,110985,1,2,0:0:0:0:
252,177,111123,1,2,0:0:0:0:
281,179,111261,1,0,0:0:0:0:
278,177,111398,1,2,0:0:0:0:
275,179,111674,1,0,0:0:0:0:
268,179,111742,1,0,0:0:0:0:
263,177,111811,1,2,0:0:0:0:
298,198,111949,1,0,0:0:0:0:
281,179,112086,1,2,0:0:0:0:
278,177,112224,1,2,0:0:0:0:
282,182,112293,1,2,0:0:0:0:
282,182,112362,1,0,0:0:0:0:
281,181,112499,1,2,0:0:0:0:
285,169,112637,1,0,0:0:0:0:
263,178,112774,1,0,0:0:0:0:
269,179,112912,1,6,0:0:0:0:
280,182,113187,1,2,0:0:0:0:
281,181,113463,1,2,0:0:0:0:
278,183,113600,1,0,0:0:0:0:
272,177,113738,1,2,0:0:0:0:
278,173,113875,1,0,0:0:0:0:
274,175,114013,1,2,0:0:0:0:
270,177,114288,1,2,0:0:0:0:
291,248,114563,1,2,0:0:0:0:
297,225,114701,1,0,0:0:0:0:
300,225,114839,1,2,0:0:0:0:
306,225,114976,1,2,0:0:0:0:
297,233,115114,1,4,0:0:0:0:
293,242,115389,1,2,0:0:0:0:
294,242,115527,1,4,0:0:0:0:
306,242,115664,5,0,0:0:0:0:
310,240,115802,1,2,0:0:0:0:
317,240,115940,1,4,0:0:0:0:
313,235,116215,1,4,0:0:0:0:
257,193,116765,5,2,0:0:0:0:
267,199,116903,1,0,0:0:0:0:
267,199,117041,1,0,0:0:0:0:
266,188,117178,1,6,0:0:0:0:
235,198,117453,1,0,0:0:0:0:
289,211,117591,1,2,0:0:0:0:
261,208,117729,1,0,0:0:0:0:
260,210,117797,1,0,0:0:0:0:
258,208,117866,1,2,0:0:0:0:
280,206,118004,1,0,0:0:0:0:
259,208,118141,1,2,0:0:0:0:
271,202,118279,1,0,0:0:0:0:
263,220,118348,1,0,0:0:0:0:
276,214,118417,1,0,0:0:0:0:
283,221,118554,1,2,0:0:0:0:
284,225,118692,1,2,0:0:0:0:
319,185,118830,1,0,0:0:0:0:
295,239,118898,1,2,0:0:0:0:
290,239,118967,1,0,0:0:0:0:
274,214,119105,1,0,0:0:0:0:
283,218,119242,1,2,0:0:0:0:
309,241,119380,1,0,0:0:0:0:
288,235,119655,1,0,0:0:0:0:
287,234,119793,1,2,0:0:0:0:
261,238,119930,1,0,0:0:0:0:
282,263,119999,1,0,0:0:0:0:
271,184,120068,1,2,0:0:0:0:
286,190,120206,1,2,0:0:0:0:
286,190,120343,1,0,0:0:0:0:
288,193,120481,1,2,0:0:0:0:
259,169,120618,1,4,0:0:0:0:
259,169,120894,1,4,0:0:0:0:
259,152,121169,1,4,0:0:0:0:
283,222,121307,1,2,0:0:0:0:
255,188,121444,1,2,0:0:0:0:
257,188,121582,1,4,0:0:0:0:
274,231,121857,1,0,0:0:0:0:
274,223,121995,1,2,0:0:0:0:
271,225,122132,1,2,0:0:0:0:
274,231,122201,1,2,0:0:0:0:
270,235,122270,1,0,0:0:0:0:
269,248,122407,1,2,0:0:0:0:
269,249,122545,1,0,0:0:0:0:
271,251,122683,1,2,0:0:0:0:
271,251,122752,1,2,0:0:0:0:
266,263,122820,1,2,0:0:0:0:
298,253,122958,1,0,0:0:0:0:
295,254,123096,1,2,0:0:0:0:
295,255,123233,1,0,0:0:0:0:
294,248,123302,1,2,0:0:0:0:
298,253,123440,1,2,0:0:0:0:
293,248,123508,1,0,0:0:0:0:
291,252,123646,1,2,0:0:0:0:
265,227,123784,1,0,0:0:0:0:
278,218,124059,1,0,0:0:0:0:
263,199,124196,1,2,0:0:0:0:
272,207,124334,1,0,0:0:0:0:
265,204,124403,1,0,0:0:0:0:
265,204,124472,1,2,0:0:0:0:
265,204,124609,1,2,0:0:0:0:
265,204,124747,1,0,0:0:0:0:
256,220,124885,1,6,0:0:0:0:
241,189,125160,1,0,0:0:0:0:
257,190,125297,1,2,0:0:0:0:
258,187,125435,1,2,0:0:0:0:
226,186,125504,1,2,0:0:0:0:
254,168,125573,1,2,0:0:0:0:
190,185,125710,1,2,0:0:0:0:
242,171,125848,1,2,0:0:0:0:
241,169,125985,1,4,0:0:0:0:
223,175,126261,1,0,0:0:0:0:
265,188,126398,1,2,0:0:0:0:
252,147,126536,1,0,0:0:0:0:
252,158,126605,1,0,0:0:0:0:
252,147,126674,1,2,0:0:0:0:
255,160,126811,1,0,0:0:0:0:
256,164,126949,1,2,0:0:0:0:
257,159,127086,1,0,0:0:0:0:
258,158,127155,1,2,0:0:0:0:
263,158,127224,1,0,0:0:0:0:
263,159,127362,1,0,0:0:0:0:
264,159,127499,1,2,0:0:0:0:
261,134,127568,1,2,0:0:0:0:
266,142,127637,1,0,0:0:0:0:
267,130,127706,1,0,0:0:0:0:
266,129,127774,1,2,0:0:0:0:
252,149,127912,1,0,0:0:0:0:
258,145,128050,1,2,0:0:0:0:
258,142,128187,1,4,0:0:0:0:
255,164,128463,1,0,0:0:0:0:
284,194,128600,1,2,0:0:0:0:
284,194,128738,1,4,0:0:0:0:
284,194,129013,1,2,0:0:0:0:
287,171,129151,1,0,0:0:0:0:
271,181,129288,1,6,0:0:0:0:
271,181,129563,1,2,0:0:0:0:
266,184,129701,1,0,0:0:0:0:
261,179,129839,1,6,0:0:0:0:
264,184,129976,1,0,0:0:0:0:
279,169,130045,1,0,0:0:0:0:
259,191,130114,1,0,0:0:0:0:
255,194,130183,1,0,0:0:0:0:
256,192,130252,1,2,0:0:0:0:
276,192,130389,1,4,0:0:0:0:
256,203,130664,1,0,0:0:0:0:
265,207,130802,1,2,0:0:0:0:
273,212,130940,1,0,0:0:0:0:
271,219,131077,1,2,0:0:0:0:
273,225,131215,1,0,0:0:0:0:
295,199,131352,1,2,0:0:0:0:
289,200,131490,1,0,0:0:0:0:
289,200,131559,1,0,0:0:0:0:
277,210,131628,1,2,0:0:0:0:
226,203,132178,1,2,0:0:0:0:
255,192,132729,2,4,L|126:97,6,132.999996448517
259,204,134930,5,4,0:0:0:0:
291,160,135068,1,4,0:0:0:0:
258,185,137132,1,6,0:0:0:0:
246,215,137270,1,6,0:0:0:0:
287,194,138784,2,0,L|173:115,1,119.000002269745
252,192,139334,1,4,0:0:0:0:
273,195,139472,1,0,0:0:0:0:
252,192,139747,1,0,0:0:0:0:
250,184,139885,1,2,0:0:0:0:
250,184,140160,1,0,0:0:0:0:
252,192,140297,1,2,0:0:0:0:
232,186,140435,1,0,0:0:0:0:
252,192,140573,1,0,0:0:0:0:
252,192,140710,1,2,0:0:0:0:
250,184,140985,1,0,0:0:0:0:
239,186,141123,1,2,0:0:0:0:
261,195,141261,1,2,0:0:0:0:
238,186,141398,1,0,0:0:0:0:
199,194,141536,1,2,0:0:0:0:
250,192,141811,1,0,0:0:0:0:
260,194,141949,1,2,0:0:0:0:
233,184,142086,1,2,0:0:0:0:
259,197,142224,1,0,0:0:0:0:
274,176,142362,1,2,0:0:0:0:
270,171,142499,1,0,0:0:0:0:
258,195,142637,1,2,0:0:0:0:
250,192,142774,1,0,0:0:0:0:
252,195,142843,1,0,0:0:0:0:
290,195,142912,1,2,0:0:0:0:
290,195,143050,1,0,0:0:0:0:
288,195,143118,1,0,0:0:0:0:
300,194,143187,1,2,0:0:0:0:
300,192,143325,1,2,0:0:0:0:
296,186,143463,1,2,0:0:0:0:
298,188,143600,1,4,0:0:0:0:
272,191,143875,1,0,0:0:0:0:
259,186,144013,1,2,0:0:0:0:
259,186,144082,1,2,0:0:0:0:
257,180,144151,1,0,0:0:0:0:
280,205,144288,1,2,0:0:0:0:
279,190,144426,1,0,0:0:0:0:
275,187,144495,1,0,0:0:0:0:
275,185,144563,1,2,0:0:0:0:
266,171,144701,1,0,0:0:0:0:
293,169,144770,1,2,0:0:0:0:
287,168,144839,1,0,0:0:0:0:
285,199,144976,1,0,0:0:0:0:
285,194,145114,1,2,0:0:0:0:
285,185,145183,1,2,0:0:0:0:
285,190,145252,1,0,0:0:0:0:
287,168,145389,1,2,0:0:0:0:
280,192,145527,1,0,0:0:0:0:
280,190,145596,1,0,0:0:0:0:
280,190,145664,1,2,0:0:0:0:
293,169,145802,1,0,0:0:0:0:
269,177,146077,1,0,0:0:0:0:
269,177,146215,1,2,0:0:0:0:
269,177,146352,1,2,0:0:0:0:
257,173,146490,1,0,0:0:0:0:
257,173,146628,1,0,0:0:0:0:
257,176,146765,1,2,0:0:0:0:
257,176,146903,1,0,0:0:0:0:
256,177,147041,1,2,0:0:0:0:
254,178,147178,1,0,0:0:0:0:
254,178,147316,1,2,0:0:0:0:
258,179,147453,1,0,0:0:0:0:
258,179,147591,1,0,0:0:0:0:
267,182,147729,1,0,0:0:0:0:
261,181,147866,1,2,0:0:0:0:
256,177,148004,1,4,0:0:0:0:
253,188,148279,1,0,0:0:0:0:
251,169,148417,1,2,0:0:0:0:
264,160,148692,1,0,0:0:0:0:
267,170,148830,1,0,0:0:0:0:
239,168,148967,1,2,0:0:0:0:
272,181,149105,1,0,0:0:0:0:
289,187,149174,1,0,0:0:0:0:
289,186,149242,1,0,0:0:0:0:
273,182,149380,1,0,0:0:0:0:
284,181,149518,1,2,0:0:0:0:
289,133,149793,1,0,0:0:0:0:
274,204,149930,1,0,0:0:0:0:
263,151,150068,1,2,0:0:0:0:
263,151,150206,1,0,0:0:0:0:
263,144,150481,1,0,0:0:0:0:
261,144,150618,1,2,0:0:0:0:
261,143,150756,1,0,0:0:0:0:
276,162,150825,1,2,0:0:0:0:
274,162,150894,1,0,0:0:0:0:
261,142,151031,1,0,0:0:0:0:
261,158,151169,1,2,0:0:0:0:
274,162,151307,1,4,0:0:0:0:
253,179,151582,1,0,0:0:0:0:
256,167,151651,1,0,0:0:0:0:
275,169,151719,1,2,0:0:0:0:
278,171,151857,1,0,0:0:0:0:
294,203,151995,1,2,0:0:0:0:
283,162,152132,1,2,0:0:0:0:
273,199,152270,1,2,0:0:0:0:
274,198,152407,1,4,0:0:0:0:
244,203,152683,1,0,0:0:0:0:
234,202,152752,1,0,0:0:0:0:
248,195,152820,1,2,0:0:0:0:
254,193,152958,1,2,0:0:0:0:
255,195,153096,1,0,0:0:0:0:
232,205,153233,1,0,0:0:0:0:
243,214,153371,1,2,0:0:0:0:
250,225,153508,1,0,0:0:0:0:
244,197,153646,1,2,0:0:0:0:
254,205,153715,1,0,0:0:0:0:
248,199,153784,1,2,0:0:0:0:
248,195,153852,1,2,0:0:0:0:
239,192,153921,1,0,0:0:0:0:
237,192,154059,1,2,0:0:0:0:
240,190,154196,1,0,0:0:0:0:
239,187,154334,1,0,0:0:0:0:
239,187,154472,1,2,0:0:0:0:
244,186,154609,1,0,0:0:0:0:
246,177,154747,1,0,0:0:0:0:
236,184,154816,1,2,0:0:0:0:
254,195,154885,1,0,0:0:0:0:
254,192,154953,1,0,0:0:0:0:
252,160,155022,1,2,0:0:0:0:
252,160,155160,1,2,0:0:0:0:
252,160,155297,1,0,0:0:0:0:
259,201,155435,1,2,0:0:0:0:
274,186,155573,1,2,0:0:0:0:
275,175,155710,1,4,0:0:0:0:
273,167,155985,1,2,0:0:0:0:
274,141,156054,1,2,0:0:0:0:
274,141,156123,1,0,0:0:0:0:
274,141,156261,1,6,0:0:0:0:
274,141,156536,1,6,0:0:0:0:
274,141,156674,1,0,0:0:0:0:
279,140,156811,1,6,0:0:0:0:
274,141,157086,1,0,0:0:0:0:
281,140,157224,1,2,0:0:0:0:
283,136,157499,1,0,0:0:0:0:
283,136,157637,1,0,0:0:0:0:
292,138,157774,1,2,0:0:0:0:
294,138,157912,1,2,0:0:0:0:
242,198,157981,1,2,0:0:0:0:
242,198,158050,1,2,0:0:0:0:
294,138,158187,1,0,0:0:0:0:
293,139,158325,1,2,0:0:0:0:
238,188,158600,1,0,0:0:0:0:
238,164,158738,1,0,0:0:0:0:
232,169,158875,1,2,0:0:0:0:
235,178,159013,1,4,0:0:0:0:
256,195,159288,1,0,0:0:0:0:
256,174,159426,1,2,0:0:0:0:
254,173,159495,1,0,0:0:0:0:
254,173,159563,1,2,0:0:0:0:
240,186,159701,1,0,0:0:0:0:
269,162,159839,1,0,0:0:0:0:
257,163,159976,1,2,0:0:0:0:
259,157,160114,1,4,0:0:0:0:
263,153,160389,1,0,0:0:0:0:
247,157,160527,1,2,0:0:0:0:
257,138,160664,1,4,0:0:0:0:
230,151,160940,1,0,0:0:0:0:
235,143,161008,1,0,0:0:0:0:
235,143,161077,1,2,0:0:0:0:
242,173,161352,1,4,0:0:0:0:
261,182,161628,1,2,0:0:0:0:
260,178,161903,1,0,0:0:0:0:
262,175,162041,1,0,0:0:0:0:
267,175,162178,1,2,0:0:0:0:
267,175,162453,1,0,0:0:0:0:
267,183,162729,1,2,0:0:0:0:
267,184,162866,1,0,0:0:0:0:
261,171,163141,1,0,0:0:0:0:
260,145,163279,1,2,0:0:0:0:
260,145,163554,1,0,0:0:0:0:
261,149,163830,1,2,0:0:0:0:
261,149,164105,1,0,0:0:0:0:
260,145,164242,1,0,0:0:0:0:
255,139,164380,1,2,0:0:0:0:
260,140,164518,1,2,0:0:0:0:
261,140,164655,1,0,0:0:0:0:
262,140,164930,1,2,0:0:0:0:
262,139,165068,1,0,0:0:0:0:
255,139,165343,1,0,0:0:0:0:
260,140,165481,1,2,0:0:0:0:
257,137,165756,1,4,0:0:0:0:
254,142,166031,1,2,0:0:0:0:
252,132,166169,1,0,0:0:0:0:
252,132,166444,1,0,0:0:0:0:
252,130,166582,1,2,0:0:0:0:
252,130,166857,1,0,0:0:0:0:
263,131,167132,1,2,0:0:0:0:
263,131,167270,1,0,0:0:0:0:
267,136,167407,1,2,0:0:0:0:
261,133,167545,1,0,0:0:0:0:
263,134,167683,1,2,0:0:0:0:
228,134,167958,1,4,0:0:0:0:
228,134,168233,1,2,0:0:0:0:
228,134,168508,1,0,0:0:0:0:
228,134,168646,1,0,0:0:0:0:
209,140,168784,1,6,0:0:0:0:
270,137,168921,1,0,0:0:0:0:
264,138,168990,1,0,0:0:0:0:
264,138,169059,1,2,0:0:0:0:
264,138,169196,1,2,0:0:0:0:
270,137,169334,1,2,0:0:0:0:
270,137,169472,1,2,0:0:0:0:
270,137,169609,1,0,0:0:0:0:
270,137,169747,1,0,0:0:0:0:
270,137,169885,1,0,0:0:0:0:
270,137,170022,1,0,0:0:0:0:
270,136,170160,1,6,0:0:0:0:
296,154,170297,1,0,0:0:0:0:
297,130,170366,1,0,0:0:0:0:
298,131,170435,1,2,0:0:0:0:
270,137,170573,1,0,0:0:0:0:
270,137,170710,1,2,0:0:0:0:
276,172,170779,1,2,0:0:0:0:
298,130,170848,1,0,0:0:0:0:
302,128,170985,1,2,0:0:0:0:
302,128,171123,1,0,0:0:0:0:
304,128,171261,1,2,0:0:0:0:
311,128,171398,1,0,0:0:0:0:
304,128,171467,1,0,0:0:0:0:
313,128,171536,1,2,0:0:0:0:
312,123,171674,1,0,0:0:0:0:
308,121,171811,1,2,0:0:0:0:
306,115,171880,1,2,0:0:0:0:
302,112,171949,1,0,0:0:0:0:
306,133,172018,1,0,0:0:0:0:
339,153,172086,1,2,0:0:0:0:
339,153,172224,1,0,0:0:0:0:
331,134,172362,1,6,0:0:0:0:
330,132,172499,1,0,0:0:0:0:
326,125,172568,1,0,0:0:0:0:
319,112,172637,1,2,0:0:0:0:
317,112,172774,1,0,0:0:0:0:
312,100,172912,1,2,0:0:0:0:
282,38,173050,1,0,0:0:0:0:
276,41,173118,1,0,0:0:0:0:
273,24,173187,1,2,0:0:0:0:
280,214,173256,1,2,0:0:0:0:
255,211,173325,1,0,0:0:0:0:
256,206,173463,1,2,0:0:0:0:
256,206,173738,1,0,0:0:0:0:
257,206,173875,1,0,0:0:0:0:
262,210,173944,1,0,0:0:0:0:
259,206,174013,1,2,0:0:0:0:
261,208,174151,1,0,0:0:0:0:
264,207,174426,1,4,0:0:0:0:
275,201,174701,1,0,0:0:0:0:
253,199,174839,1,2,0:0:0:0:
257,199,175114,1,0,0:0:0:0:
257,214,175252,1,0,0:0:0:0:
249,207,175389,1,2,0:0:0:0:
257,205,175527,1,0,0:0:0:0:
263,218,175596,1,0,0:0:0:0:
265,216,175664,1,0,0:0:0:0:
255,206,175802,1,0,0:0:0:0:
260,218,175940,1,2,0:0:0:0:
281,225,176077,1,2,0:0:0:0:
257,214,176215,1,0,0:0:0:0:
265,215,176352,1,0,0:0:0:0:
265,219,176490,1,2,0:0:0:0:
276,224,176628,1,4,0:0:0:0:
275,225,176903,1,0,0:0:0:0:
275,225,177041,1,2,0:0:0:0:
281,207,177178,1,2,0:0:0:0:
285,207,177316,1,0,0:0:0:0:
274,207,177453,1,0,0:0:0:0:
274,209,177591,1,2,0:0:0:0:
273,210,177729,1,0,0:0:0:0:
259,218,177866,1,2,0:0:0:0:
256,220,178004,1,0,0:0:0:0:
261,227,178141,1,0,0:0:0:0:
276,218,178279,1,2,0:0:0:0:
260,214,178417,1,0,0:0:0:0:
269,215,178554,1,0,0:0:0:0:
272,220,178623,1,0,0:0:0:0:
271,218,178692,1,2,0:0:0:0:
270,215,178830,1,0,0:0:0:0:
271,205,178967,1,6,0:0:0:0:
255,194,179242,1,2,0:0:0:0:
259,218,179518,1,2,0:0:0:0:
278,215,179655,1,0,0:0:0:0:
274,213,179793,1,2,0:0:0:0:
254,206,179930,1,0,0:0:0:0:
261,205,180068,1,2,0:0:0:0:
264,205,180343,1,2,0:0:0:0:
276,189,180618,1,2,0:0:0:0:
278,190,180825,1,0,0:0:0:0:
280,181,180894,1,2,0:0:0:0:
280,175,181031,1,0,0:0:0:0:
280,175,181169,1,6,0:0:0:0:
275,197,181307,1,0,0:0:0:0:
274,213,181444,1,0,0:0:0:0:
275,202,181582,1,6,0:0:0:0:
278,210,181719,1,0,0:0:0:0:
274,227,181857,1,0,0:0:0:0:
274,227,181995,1,6,0:0:0:0:
274,213,182132,1,0,0:0:0:0:
281,220,182201,1,0,0:0:0:0:
281,221,182270,1,2,0:0:0:0:
257,188,183233,1,0,0:0:0:0:
242,171,184334,1,2,0:0:0:0:
272,163,184609,1,2,0:0:0:0:
253,168,184885,1,0,0:0:0:0:
272,163,185160,1,0,0:0:0:0:
245,175,185435,1,2,0:0:0:0:
265,180,187224,1,2,0:0:0:0:
260,189,187362,1,2,0:0:0:0:
240,188,187637,1,0,0:0:0:0:
245,175,188738,1,2,0:0:0:0:
267,177,189288,1,0,0:0:0:0:
276,180,189357,1,0,0:0:0:0:
271,175,189426,1,2,0:0:0:0:
261,194,189701,1,2,0:0:0:0:
274,172,189976,1,4,0:0:0:0:
286,185,190252,1,0,0:0:0:0:
286,186,190527,1,0,0:0:0:0:
283,186,190802,1,0,0:0:0:0:
286,185,191077,1,2,0:0:0:0:
304,185,191215,1,2,0:0:0:0:
302,175,191352,1,2,0:0:0:0:
285,168,191490,1,2,0:0:0:0:
266,188,192041,5,4,0:0:0:0:
235,198,192316,1,0,0:0:0:0:
289,211,192453,1,2,0:0:0:0:
261,208,192591,1,2,0:0:0:0:
260,210,192660,1,2,0:0:0:0:
258,208,192729,1,0,0:0:0:0:
280,206,192866,1,0,0:0:0:0:
259,208,193004,1,2,0:0:0:0:
271,202,193141,1,0,0:0:0:0:
263,220,193210,1,0,0:0:0:0:
277,235,193279,1,0,0:0:0:0:
283,221,193417,1,2,0:0:0:0:
284,225,193554,1,2,0:0:0:0:
319,185,193692,1,0,0:0:0:0:
295,239,193761,1,2,0:0:0:0:
290,239,193830,1,0,0:0:0:0:
274,214,193967,1,0,0:0:0:0:
283,218,194105,1,2,0:0:0:0:
309,241,194242,1,0,0:0:0:0:
288,235,194518,1,0,0:0:0:0:
287,234,194655,1,2,0:0:0:0:
261,238,194793,1,0,0:0:0:0:
282,263,194862,1,0,0:0:0:0:
271,184,194930,1,2,0:0:0:0:
286,190,195068,1,0,0:0:0:0:
286,190,195206,1,2,0:0:0:0:
288,193,195343,1,0,0:0:0:0:
259,169,195481,1,6,0:0:0:0:
259,169,195756,1,6,0:0:0:0:
259,152,196031,1,6,0:0:0:0:
283,222,196169,1,0,0:0:0:0:
255,188,196307,1,0,0:0:0:0:
257,188,196444,1,6,0:0:0:0:
274,231,196719,1,0,0:0:0:0:
274,223,196857,1,2,0:0:0:0:
271,225,196995,1,0,0:0:0:0:
274,231,197063,1,0,0:0:0:0:
270,235,197132,1,2,0:0:0:0:
269,248,197270,1,2,0:0:0:0:
269,249,197407,1,0,0:0:0:0:
271,251,197545,1,2,0:0:0:0:
271,251,197614,1,2,0:0:0:0:
266,263,197683,1,2,0:0:0:0:
298,253,197820,1,0,0:0:0:0:
295,254,197958,1,2,0:0:0:0:
295,255,198096,1,0,0:0:0:0:
294,248,198164,1,2,0:0:0:0:
298,253,198302,1,2,0:0:0:0:
293,248,198371,1,0,0:0:0:0:
291,252,198508,1,2,0:0:0:0:
265,227,198646,1,0,0:0:0:0:
278,218,198921,1,0,0:0:0:0:
263,199,199059,1,2,0:0:0:0:
272,207,199196,1,2,0:0:0:0:
265,204,199265,1,2,0:0:0:0:
265,204,199334,1,0,0:0:0:0:
265,204,199472,1,0,0:0:0:0:
265,204,199609,1,2,0:0:0:0:
256,220,199747,1,4,0:0:0:0:
241,189,200022,1,0,0:0:0:0:
257,190,200160,1,2,0:0:0:0:
258,187,200297,1,2,0:0:0:0:
226,186,200366,1,2,0:0:0:0:
254,168,200435,1,0,0:0:0:0:
190,185,200573,1,0,0:0:0:0:
242,171,200710,1,0,0:0:0:0:
241,169,200848,1,6,0:0:0:0:
223,175,201123,1,0,0:0:0:0:
265,188,201261,1,2,0:0:0:0:
252,147,201398,1,2,0:0:0:0:
252,158,201467,1,2,0:0:0:0:
252,147,201536,1,0,0:0:0:0:
255,160,201674,1,0,0:0:0:0:
256,164,201811,1,2,0:0:0:0:
257,159,201949,1,0,0:0:0:0:
258,158,202018,1,2,0:0:0:0:
263,158,202086,1,0,0:0:0:0:
263,159,202224,1,0,0:0:0:0:
264,159,202362,1,2,0:0:0:0:
266,142,202499,1,0,0:0:0:0:
267,130,202568,1,0,0:0:0:0:
266,129,202637,1,2,0:0:0:0:
261,134,202706,1,2,0:0:0:0:
252,149,202774,1,0,0:0:0:0:
258,145,202912,1,2,0:0:0:0:
258,142,203050,1,4,0:0:0:0:
255,164,203325,1,0,0:0:0:0:
284,194,203463,1,2,0:0:0:0:
284,194,203600,1,4,0:0:0:0:
284,194,203875,1,2,0:0:0:0:
287,171,204013,1,0,0:0:0:0:
271,181,204151,1,6,0:0:0:0:
271,181,204426,1,2,0:0:0:0:
266,184,204563,1,0,0:0:0:0:
261,179,204701,1,6,0:0:0:0:
264,184,204839,1,0,0:0:0:0:
279,169,204907,1,0,0:0:0:0:
259,191,204976,1,0,0:0:0:0:
255,194,205045,1,0,0:0:0:0:
256,192,205114,1,2,0:0:0:0:
276,192,205252,1,4,0:0:0:0:
256,203,205527,1,0,0:0:0:0:
265,207,205664,1,2,0:0:0:0:
273,212,205802,1,0,0:0:0:0:
271,219,205940,1,2,0:0:0:0:
273,225,206077,1,0,0:0:0:0:
295,199,206215,1,2,0:0:0:0:
289,200,206352,1,0,0:0:0:0:
289,200,206421,1,0,0:0:0:0:
277,210,206490,1,2,0:0:0:0:
272,210,206628,1,2,0:0:0:0:
274,206,206696,1,2,0:0:0:0:
278,209,206765,1,0,0:0:0:0:
280,211,206834,1,0,0:0:0:0:
277,200,206903,1,0,0:0:0:0:
289,208,207041,1,2,0:0:0:0:
267,216,207178,1,0,0:0:0:0:
267,207,207316,1,0,0:0:0:0:
272,208,207453,1,6,0:0:0:0:
235,198,207729,1,0,0:0:0:0:
289,211,207866,1,2,0:0:0:0:
261,208,208004,1,0,0:0:0:0:
260,210,208073,1,0,0:0:0:0:
258,208,208141,1,2,0:0:0:0:
280,206,208279,1,0,0:0:0:0:
259,208,208417,1,2,0:0:0:0:
271,202,208554,1,0,0:0:0:0:
263,220,208623,1,0,0:0:0:0:
276,214,208692,1,0,0:0:0:0:
283,221,208830,1,2,0:0:0:0:
284,225,208967,1,2,0:0:0:0:
319,185,209105,1,0,0:0:0:0:
295,239,209174,1,2,0:0:0:0:
290,239,209242,1,0,0:0:0:0:
274,214,209380,1,0,0:0:0:0:
283,218,209518,1,2,0:0:0:0:
309,241,209655,1,0,0:0:0:0:
288,235,209930,1,0,0:0:0:0:
287,234,210068,1,2,0:0:0:0:
261,238,210206,1,0,0:0:0:0:
282,263,210274,1,0,0:0:0:0:
271,184,210343,1,2,0:0:0:0:
286,190,210481,1,2,0:0:0:0:
286,190,210618,1,0,0:0:0:0:
288,193,210756,1,2,0:0:0:0:
259,169,210894,1,4,0:0:0:0:
275,196,211031,1,2,0:0:0:0:
274,195,211169,1,2,0:0:0:0:
274,195,211307,1,4,0:0:0:0:
259,152,211444,1,2,0:0:0:0:
283,222,211582,1,2,0:0:0:0:
255,188,211719,1,2,0:0:0:0:
257,188,211857,1,4,0:0:0:0:
274,231,212132,1,0,0:0:0:0:
274,223,212270,1,2,0:0:0:0:
271,225,212407,1,2,0:0:0:0:
274,231,212476,1,2,0:0:0:0:
270,235,212545,1,0,0:0:0:0:
269,248,212683,1,2,0:0:0:0:
269,249,212820,1,0,0:0:0:0:
271,251,212958,1,2,0:0:0:0:
271,251,213027,1,2,0:0:0:0:
266,263,213096,1,2,0:0:0:0:
298,253,213233,1,0,0:0:0:0:
295,254,213371,1,2,0:0:0:0:
323,251,213440,1,0,0:0:0:0:
298,267,213577,1,0,0:0:0:0:
294,248,213646,1,2,0:0:0:0:
293,248,213784,1,0,0:0:0:0:
291,252,213921,1,2,0:0:0:0:
265,227,214059,1,0,0:0:0:0:
278,218,214334,1,0,0:0:0:0:
263,199,214472,1,2,0:0:0:0:
272,207,214609,1,0,0:0:0:0:
265,204,214678,1,0,0:0:0:0:
265,204,214747,1,2,0:0:0:0:
265,204,214885,1,2,0:0:0:0:
265,204,215022,1,0,0:0:0:0:
256,220,215160,1,6,0:0:0:0:
241,189,215435,1,0,0:0:0:0:
257,190,215573,1,2,0:0:0:0:
258,187,215710,1,2,0:0:0:0:
226,186,215779,1,2,0:0:0:0:
280,194,215848,1,0,0:0:0:0:
265,194,215917,1,0,0:0:0:0:
190,185,215985,1,0,0:0:0:0:
242,171,216123,1,0,0:0:0:0:
241,169,216261,1,6,0:0:0:0:
223,175,216536,1,0,0:0:0:0:
265,188,216674,1,2,0:0:0:0:
252,147,216811,1,0,0:0:0:0:
252,158,216880,1,0,0:0:0:0:
252,147,216949,1,2,0:0:0:0:
261,164,217018,1,2,0:0:0:0:
255,160,217086,1,0,0:0:0:0:
256,164,217224,1,2,0:0:0:0:
257,159,217362,1,0,0:0:0:0:
258,158,217430,1,2,0:0:0:0:
263,158,217499,1,0,0:0:0:0:
263,159,217637,1,0,0:0:0:0:
264,159,217774,1,2,0:0:0:0:
261,134,217843,1,2,0:0:0:0:
266,142,217912,1,0,0:0:0:0:
267,130,217981,1,0,0:0:0:0:
266,129,218050,1,2,0:0:0:0:
252,149,218187,1,0,0:0:0:0:
258,145,218325,1,2,0:0:0:0:
258,142,218463,1,4,0:0:0:0:
255,164,218738,1,0,0:0:0:0:
284,194,218875,1,2,0:0:0:0:
284,194,219013,1,4,0:0:0:0:
284,194,219288,1,2,0:0:0:0:
287,171,219426,1,0,0:0:0:0:
246,164,219563,1,6,0:0:0:0:
271,181,219839,1,2,0:0:0:0:
266,184,219976,1,0,0:0:0:0:
261,179,220114,1,6,0:0:0:0:
264,184,220252,1,0,0:0:0:0:
279,169,220320,1,0,0:0:0:0:
259,191,220389,1,0,0:0:0:0:
255,194,220458,1,0,0:0:0:0:
256,192,220527,1,2,0:0:0:0:
276,192,220664,1,4,0:0:0:0:
256,203,220940,1,0,0:0:0:0:
265,207,221077,1,2,0:0:0:0:
273,212,221215,1,0,0:0:0:0:
271,219,221352,1,2,0:0:0:0:
273,225,221490,1,0,0:0:0:0:
295,199,221628,1,2,0:0:0:0:
289,200,221765,1,0,0:0:0:0:
289,200,221834,1,0,0:0:0:0:
277,210,221903,1,2,0:0:0:0:
252,144,222041,1,2,0:0:0:0:
252,144,222109,1,2,0:0:0:0:
252,144,222178,1,0,0:0:0:0:
248,147,222247,1,0,0:0:0:0:
258,148,222316,1,0,0:0:0:0:
226,203,222453,1,2,0:0:0:0:
258,184,222591,1,0,0:0:0:0:
258,184,222729,1,0,0:0:0:0:
258,184,222866,1,0,0:0:0:0:
255,175,223004,1,6,0:0:0:0:
256,192,223141,12,0,224380,0:0:0:0:
252,206,224518,5,0,0:0:0:0:
245,197,224586,1,0,0:0:0:0:
349,207,224655,1,2,0:0:0:0:
276,180,224793,1,2,0:0:0:0:
267,160,224930,1,2,0:0:0:0:
257,169,225068,1,4,0:0:0:0:
261,205,225343,1,0,0:0:0:0:
278,205,225481,1,2,0:0:0:0:
244,169,225618,1,2,0:0:0:0:
258,191,225756,1,0,0:0:0:0:
266,184,225894,1,2,0:0:0:0:
250,195,226031,1,0,0:0:0:0:
254,203,226169,1,2,0:0:0:0:
257,181,226238,1,2,0:0:0:0:
246,182,226307,1,0,0:0:0:0:
259,197,226444,1,2,0:0:0:0:
258,198,226582,1,0,0:0:0:0:
249,203,226719,1,2,0:0:0:0:
259,222,226857,1,0,0:0:0:0:
263,200,226926,1,2,0:0:0:0:
259,197,226995,1,0,0:0:0:0:
263,201,227063,1,0,0:0:0:0:
260,202,227132,1,2,0:0:0:0:
261,213,227270,1,0,0:0:0:0:
261,213,227545,1,0,0:0:0:0:
259,214,227683,1,2,0:0:0:0:
239,173,227820,1,2,0:0:0:0:
259,214,227958,1,0,0:0:0:0:
261,213,228096,1,0,0:0:0:0:
261,213,228233,1,2,0:0:0:0:
265,211,228371,1,0,0:0:0:0:
263,231,228646,1,0,0:0:0:0:
271,171,228784,1,2,0:0:0:0:
268,180,228921,1,0,0:0:0:0:
267,181,229059,1,0,0:0:0:0:
267,181,229196,1,0,0:0:0:0:
242,172,229265,1,0,0:0:0:0:
254,178,229334,1,2,0:0:0:0:
256,177,229472,1,4,0:0:0:0:
257,176,229747,1,0,0:0:0:0:
256,175,229885,1,2,0:0:0:0:
245,166,230022,1,2,0:0:0:0:
254,178,230160,1,0,0:0:0:0:
254,210,230297,1,2,0:0:0:0:
254,210,230435,1,0,0:0:0:0:
254,210,230573,1,2,0:0:0:0:
242,186,230641,1,2,0:0:0:0:
248,188,230710,1,0,0:0:0:0:
254,210,230848,1,2,0:0:0:0:
233,204,230985,1,0,0:0:0:0:
248,162,231123,1,2,0:0:0:0:
233,204,231261,1,0,0:0:0:0:
253,170,231330,1,2,0:0:0:0:
278,236,231398,1,0,0:0:0:0:
245,169,231467,1,0,0:0:0:0:
292,231,231536,1,2,0:0:0:0:
290,229,231674,1,4,0:0:0:0:
291,229,231949,1,0,0:0:0:0:
288,208,232086,1,2,0:0:0:0:
250,173,232224,1,0,0:0:0:0:
250,165,232362,1,2,0:0:0:0:
241,169,232499,1,0,0:0:0:0:
250,154,232637,1,0,0:0:0:0:
253,150,232774,1,6,0:0:0:0:
256,162,233050,1,0,0:0:0:0:
265,168,233187,1,6,0:0:0:0:
266,168,233325,1,0,0:0:0:0:
266,168,233463,1,2,0:0:0:0:
257,194,233531,1,2,0:0:0:0:
257,194,233600,1,0,0:0:0:0:
257,194,233669,1,0,0:0:0:0:
257,194,233738,1,2,0:0:0:0:
255,183,233875,1,4,0:0:0:0:
261,205,234151,1,0,0:0:0:0:
278,205,234288,1,2,0:0:0:0:
244,169,234426,1,2,0:0:0:0:
258,191,234563,1,0,0:0:0:0:
266,184,234701,1,2,0:0:0:0:
250,195,234839,1,0,0:0:0:0:
254,203,234976,1,2,0:0:0:0:
257,181,235045,1,2,0:0:0:0:
246,182,235114,1,0,0:0:0:0:
259,197,235252,1,2,0:0:0:0:
258,198,235389,1,0,0:0:0:0:
249,203,235527,1,2,0:0:0:0:
259,222,235664,1,0,0:0:0:0:
263,200,235733,1,2,0:0:0:0:
259,197,235802,1,0,0:0:0:0:
263,201,235871,1,0,0:0:0:0:
260,202,235940,1,2,0:0:0:0:
261,213,236077,1,0,0:0:0:0:
261,213,236352,1,0,0:0:0:0:
259,214,236490,1,2,0:0:0:0:
239,173,236628,1,2,0:0:0:0:
259,214,236765,1,0,0:0:0:0:
261,213,236903,1,0,0:0:0:0:
261,213,237041,1,2,0:0:0:0:
265,211,237178,1,0,0:0:0:0:
263,231,237453,1,0,0:0:0:0:
271,171,237591,1,2,0:0:0:0:
268,180,237729,1,0,0:0:0:0:
267,181,237866,1,0,0:0:0:0:
267,181,238004,1,0,0:0:0:0:
242,172,238073,1,0,0:0:0:0:
254,178,238141,1,2,0:0:0:0:
256,177,238279,1,4,0:0:0:0:
257,176,238554,1,0,0:0:0:0:
256,175,238692,1,2,0:0:0:0:
245,166,238830,1,2,0:0:0:0:
254,178,238967,1,0,0:0:0:0:
254,210,239105,1,2,0:0:0:0:
254,210,239242,1,0,0:0:0:0:
254,210,239380,1,2,0:0:0:0:
242,186,239449,1,2,0:0:0:0:
248,188,239518,1,0,0:0:0:0:
254,210,239655,1,2,0:0:0:0:
233,204,239793,1,0,0:0:0:0:
248,162,239930,1,2,0:0:0:0:
233,204,240068,1,0,0:0:0:0:
253,170,240137,1,2,0:0:0:0:
278,236,240206,1,0,0:0:0:0:
245,169,240274,1,0,0:0:0:0:
292,231,240343,1,2,0:0:0:0:
290,229,240481,1,4,0:0:0:0:
291,229,240756,1,0,0:0:0:0:
288,208,240894,1,2,0:0:0:0:
250,173,241031,1,0,0:0:0:0:
250,165,241169,1,2,0:0:0:0:
241,169,241307,1,0,0:0:0:0:
250,154,241444,1,0,0:0:0:0:
253,150,241582,1,6,0:0:0:0:
256,162,241857,1,0,0:0:0:0:
265,168,241995,1,6,0:0:0:0:
266,168,242132,1,2,0:0:0:0:
284,185,242201,1,2,0:0:0:0:
266,168,242270,1,0,0:0:0:0:
257,194,242407,1,0,0:0:0:0:
257,194,242476,1,0,0:0:0:0:
257,194,242545,1,2,0:0:0:0:
255,183,242683,1,4,0:0:0:0:
