osu file format v14

[General]
AudioFilename: audio.ogg
AudioLeadIn: 0
PreviewTime: 192108
Countdown: 0
SampleSet: Normal
StackLeniency: 0.7
Mode: 1
LetterboxInBreaks: 0
WidescreenStoryboard: 1

[Editor]
Bookmarks: 2235,12005,20812,29757,38565,51638,60446,69253,78060,86868,96088,104620,117693,126501,135446,144115,152923,170675,179482,192556,201363,207968,216776,225583,234390
DistanceSpacing: 0.5
BeatDivisor: 2
GridSize: 32
TimelineZoom: 1.4

[Metadata]
Title:Toaru Shoukoku no Ohimesama ga...
TitleUnicode:とある小国のお姫様が...
Artist:nao
ArtistUnicode:nao
Creator:gaston_2199
Version:Sen's Futsuu
Source:姫様LOVEライフ!
Tags:innocent prelude. とある小国のお姫様が、会ったこともない兄の家にやってきて住みついた事情。 Toaru Shoukoku no Ohimesama ga, Atta koto mo nai Ani no Ie ni yattekite Sumitsuita Jijou. demetori 寺前甲 maya 山下慎一狼 princess sugar himesama love life eroge visual novel op opening video game japanese metal rock jrock j-rock paz08 [r] Ron KyeX SenSenko
BeatmapID:3508275
BeatmapSetID:1716803

[Difficulty]
HPDrainRate:6
CircleSize:2
OverallDifficulty:4
ApproachRate:10
SliderMultiplier:1.4
SliderTickRate:1

[Events]
//Background and Video events
0,0,"BG3.jpg",0,40
//Break Periods
2,183748,189491
//Storyboard Layer 0 (Background)
//Storyboard Layer 1 (Fail)
//Storyboard Layer 2 (Pass)
//Storyboard Layer 3 (Foreground)
//Storyboard Layer 4 (Overlay)
//Storyboard Sound Samples

[TimingPoints]
1134,275.229357798165,4,1,0,80,1,8
51638,-100,4,1,0,90,0,1
69253,-100,4,1,0,80,0,0
117693,-100,4,1,0,90,0,1
135445,-100,4,1,0,80,0,0
144115,-100,4,1,0,90,0,1
161867,-100,4,1,0,80,0,0
170675,-100,4,1,0,90,0,1
183748,-100,4,1,0,80,0,0
192556,-100,4,1,0,90,0,1
207556,-100,4,1,0,80,0,0
207968,-100,4,1,0,90,0,1
225583,-100,4,1,0,80,0,0

[HitObjects]
256,192,2234,5,8,0:0:0:0:
256,192,2510,1,8,0:0:0:0:
256,192,2785,1,8,0:0:0:0:
256,192,3198,1,4,0:0:0:0:
256,192,3611,1,8,0:0:0:0:
256,192,3886,1,0,0:0:0:0:
256,192,4161,1,8,0:0:0:0:
256,192,4299,1,0,0:0:0:0:
192,160,4574,1,8,0:0:0:0:
256,192,4849,1,0,0:0:0:0:
256,192,4987,1,8,0:0:0:0:
248,169,5124,1,0,0:0:0:0:
448,64,5400,1,8,0:0:0:0:
256,192,5812,1,8,0:0:0:0:
448,64,6088,1,0,0:0:0:0:
256,192,6363,1,8,0:0:0:0:
256,192,6500,1,0,0:0:0:0:
142,139,6913,1,8,0:0:0:0:
256,192,7189,1,0,0:0:0:0:
256,192,7601,1,4,0:0:0:0:
256,192,8014,1,8,0:0:0:0:
448,64,8289,1,0,0:0:0:0:
64,64,8565,1,8,0:0:0:0:
448,64,8702,1,0,0:0:0:0:
448,64,8978,1,8,0:0:0:0:
448,64,9253,1,0,0:0:0:0:
64,64,9390,1,8,0:0:0:0:
84,64,9528,1,0,0:0:0:0:
448,64,9803,1,8,0:0:0:0:
64,64,10216,1,8,0:0:0:0:
256,192,10491,1,0,0:0:0:0:
256,192,10629,1,0,0:0:0:0:
256,192,10904,1,12,0:0:0:0:
96,160,11317,1,8,0:0:0:0:
448,64,11592,1,8,0:0:0:0:
192,64,11730,1,8,0:0:0:0:
256,192,12005,5,4,0:0:0:0:
256,192,12418,5,8,0:0:0:0:
256,192,12968,1,8,0:0:0:0:
256,192,13519,1,8,0:0:0:0:
256,192,13794,1,0,0:0:0:0:
256,192,13932,1,8,0:0:0:0:
256,192,14207,1,4,0:0:0:0:
256,192,14620,1,8,0:0:0:0:
256,192,15170,1,8,0:0:0:0:
256,192,15583,1,0,0:0:0:0:
256,192,15721,1,8,0:0:0:0:
256,192,15996,1,8,0:0:0:0:
256,192,16271,1,8,0:0:0:0:
256,192,16409,1,4,0:0:0:0:
256,192,16822,1,8,0:0:0:0:
256,192,17097,1,0,0:0:0:0:
211,156,17372,1,8,0:0:0:0:
256,192,17510,1,0,0:0:0:0:
256,192,17922,1,8,0:0:0:0:
256,192,18198,1,0,0:0:0:0:
213,145,18473,1,8,0:0:0:0:
192,192,18611,1,8,0:0:0:0:
256,192,19023,1,8,0:0:0:0:
256,192,19299,1,0,0:0:0:0:
160,160,19574,1,0,0:0:0:0:
256,192,19711,1,8,0:0:0:0:
75,158,19987,1,0,0:0:0:0:
166,138,20262,1,8,0:0:0:0:
256,192,20537,1,8,0:0:0:0:
256,192,20812,1,4,0:0:0:0:
256,192,21225,1,8,0:0:0:0:
256,192,21776,1,8,0:0:0:0:
256,192,22326,1,8,0:0:0:0:
256,192,22601,1,0,0:0:0:0:
256,192,22739,1,8,0:0:0:0:
256,192,23014,1,4,0:0:0:0:
288,192,23427,1,8,0:0:0:0:
288,192,23978,1,8,0:0:0:0:
288,192,24390,1,0,0:0:0:0:
288,192,24528,1,8,0:0:0:0:
288,192,24803,1,8,0:0:0:0:
222,160,25078,1,8,0:0:0:0:
288,192,25216,1,4,0:0:0:0:
256,192,25629,1,8,0:0:0:0:
256,192,25904,1,0,0:0:0:0:
288,192,26179,1,8,0:0:0:0:
64,64,26317,1,0,0:0:0:0:
256,192,26730,1,8,0:0:0:0:
256,192,27005,1,0,0:0:0:0:
256,192,27280,1,8,0:0:0:0:
256,192,27418,1,8,0:0:0:0:
256,192,27831,1,8,0:0:0:0:
256,192,28106,1,0,0:0:0:0:
168,158,28381,1,8,0:0:0:0:
256,192,28656,1,8,0:0:0:0:
256,192,28932,1,0,0:0:0:0:
256,192,29207,1,8,0:0:0:0:
241,165,29345,1,8,0:0:0:0:
256,192,29620,1,8,0:0:0:0:
133,121,29757,1,0,0:0:0:0:
256,192,30308,1,0,0:0:0:0:
256,192,30583,1,0,0:0:0:0:
256,192,30858,1,8,0:0:0:0:
256,192,31409,1,0,0:0:0:0:
256,192,31959,1,8,0:0:0:0:
256,192,32234,1,0,0:0:0:0:
256,192,32510,1,8,0:0:0:0:
256,192,33060,1,0,0:0:0:0:
256,192,33611,1,8,0:0:0:0:
256,192,33886,1,8,0:0:0:0:
256,192,34161,1,0,0:0:0:0:
256,192,34711,1,8,0:0:0:0:
256,192,35262,1,0,0:0:0:0:
192,153,35537,1,0,0:0:0:0:
256,192,35812,1,8,0:0:0:0:
256,192,36363,1,4,0:0:0:0:
256,192,36638,1,8,0:0:0:0:
132,171,36913,1,8,0:0:0:0:
256,192,37189,1,0,0:0:0:0:
256,192,37464,1,8,0:0:0:0:
448,64,37739,1,8,0:0:0:0:
64,64,38014,1,0,0:0:0:0:
64,320,38565,1,4,0:0:0:0:
256,192,39115,1,0,0:0:0:0:
256,192,39390,1,8,0:0:0:0:
256,192,39666,1,0,0:0:0:0:
256,192,39941,1,8,0:0:0:0:
64,64,40216,1,0,0:0:0:0:
256,192,40491,1,8,0:0:0:0:
240,171,40629,1,8,0:0:0:0:
256,192,40767,1,0,0:0:0:0:
256,192,41042,1,8,0:0:0:0:
260,158,41317,1,0,0:0:0:0:
256,192,41455,1,8,0:0:0:0:
24,148,41730,1,0,0:0:0:0:
128,128,41867,1,8,0:0:0:0:
256,192,42143,1,8,0:0:0:0:
128,128,42418,1,8,0:0:0:0:
256,192,42968,1,4,0:0:0:0:
219,136,43244,1,8,0:0:0:0:
256,192,43656,1,8,0:0:0:0:
256,192,44069,1,8,0:0:0:0:
221,128,44345,1,0,0:0:0:0:
256,192,44482,1,8,0:0:0:0:
256,192,44895,1,8,0:0:0:0:
256,192,45170,1,0,0:0:0:0:
222,136,45445,1,8,0:0:0:0:
256,192,45858,1,8,0:0:0:0:
225,136,46133,1,0,0:0:0:0:
256,192,46271,1,8,0:0:0:0:
216,133,46546,1,8,0:0:0:0:
256,192,46822,1,0,0:0:0:0:
256,192,47097,1,0,0:0:0:0:
256,192,47372,1,12,0:0:0:0:
180,84,47922,1,8,0:0:0:0:
256,192,48198,1,0,0:0:0:0:
256,188,48473,1,8,0:0:0:0:
256,192,48748,1,8,0:0:0:0:
217,137,49023,1,0,0:0:0:0:
256,192,49299,1,0,0:0:0:0:
256,192,49574,1,12,0:0:0:0:
256,192,49987,1,12,0:0:0:0:
256,192,50400,1,12,0:0:0:0:
256,192,50675,1,12,0:0:0:0:
256,192,51638,1,4,0:0:0:0:
256,192,51913,1,8,0:0:0:0:
256,192,52189,1,0,0:0:0:0:
256,192,52464,1,0,0:0:0:0:
256,192,52601,1,8,0:0:0:0:
256,192,52739,1,8,0:0:0:0:
256,192,53014,1,0,0:0:0:0:
256,192,53289,1,8,0:0:0:0:
256,192,53565,1,8,0:0:0:0:
64,64,53840,1,0,0:0:0:0:
256,192,54253,1,8,0:0:0:0:
256,192,54528,1,0,0:0:0:0:
256,192,54803,1,8,0:0:0:0:
64,64,54941,1,0,0:0:0:0:
448,64,55078,1,8,0:0:0:0:
256,192,55354,1,8,0:0:0:0:
256,192,55629,1,0,0:0:0:0:
256,192,56042,1,12,0:0:0:0:
256,192,56317,1,0,0:0:0:0:
256,192,56592,1,8,0:0:0:0:
256,192,56867,1,8,0:0:0:0:
256,192,57005,1,8,0:0:0:0:
256,192,57143,1,0,0:0:0:0:
256,192,57418,1,8,0:0:0:0:
256,192,57693,1,0,0:0:0:0:
256,192,57968,1,8,0:0:0:0:
64,64,58106,1,0,0:0:0:0:
256,192,58244,1,8,0:0:0:0:
190,32,58932,1,0,0:0:0:0:
256,192,59207,1,8,0:0:0:0:
64,64,59345,1,0,0:0:0:0:
256,192,59757,1,8,0:0:0:0:
256,192,60033,1,8,0:0:0:0:
256,192,60308,1,8,0:0:0:0:
256,192,60445,1,4,0:0:0:0:
256,192,60858,1,8,0:0:0:0:
256,192,61133,1,0,0:0:0:0:
231,146,61409,1,8,0:0:0:0:
256,192,61546,1,0,0:0:0:0:
226,145,61822,1,0,0:0:0:0:
256,192,61959,1,8,0:0:0:0:
229,129,62234,1,0,0:0:0:0:
256,192,62372,1,0,0:0:0:0:
256,192,62647,1,12,0:0:0:0:
256,192,62922,1,0,0:0:0:0:
256,192,63198,1,12,0:0:0:0:
256,192,63473,1,0,0:0:0:0:
256,192,63748,1,12,0:0:0:0:
256,192,64436,1,8,0:0:0:0:
256,192,64711,1,8,0:0:0:0:
256,192,64849,1,4,0:0:0:0:
256,192,65262,1,8,0:0:0:0:
256,192,65537,1,8,0:0:0:0:
256,192,65812,1,8,0:0:0:0:
256,192,66088,1,4,0:0:0:0:
256,192,67189,1,12,0:0:0:0:
256,192,67739,1,0,0:0:0:0:
256,192,68014,1,0,0:0:0:0:
256,192,68289,1,0,0:0:0:0:
256,192,68565,1,0,0:0:0:0:
256,192,68840,1,8,0:0:0:0:
256,192,69115,1,8,0:0:0:0:
256,192,69253,1,4,0:0:0:0:
256,192,69666,1,8,0:0:0:0:
256,192,69941,1,0,0:0:0:0:
256,192,70216,1,8,0:0:0:0:
256,192,70354,1,0,0:0:0:0:
448,64,70629,1,8,0:0:0:0:
448,64,70904,1,0,0:0:0:0:
64,64,71042,1,8,0:0:0:0:
95,77,71179,1,0,0:0:0:0:
448,64,71455,1,8,0:0:0:0:
256,192,71867,1,8,0:0:0:0:
448,64,72143,1,0,0:0:0:0:
256,192,72418,1,8,0:0:0:0:
256,192,72556,1,0,0:0:0:0:
256,192,72968,1,8,0:0:0:0:
256,192,73244,1,0,0:0:0:0:
256,192,73656,1,4,0:0:0:0:
256,192,74069,1,8,0:0:0:0:
448,64,74345,1,0,0:0:0:0:
256,192,74620,1,8,0:0:0:0:
256,192,74757,1,0,0:0:0:0:
448,64,75033,1,8,0:0:0:0:
448,64,75308,1,0,0:0:0:0:
64,64,75445,1,8,0:0:0:0:
93,64,75583,1,0,0:0:0:0:
448,64,75858,1,8,0:0:0:0:
64,64,76271,1,8,0:0:0:0:
256,192,76546,1,0,0:0:0:0:
256,192,76684,1,0,0:0:0:0:
256,192,76959,1,12,0:0:0:0:
256,192,78060,5,4,0:0:0:0:
256,192,78748,1,0,0:0:0:0:
256,192,79023,1,0,0:0:0:0:
243,183,79299,1,0,0:0:0:0:
256,192,79574,1,0,0:0:0:0:
256,192,79849,1,8,0:0:0:0:
256,192,79987,1,0,0:0:0:0:
256,192,80262,1,4,0:0:0:0:
256,192,80950,1,0,0:0:0:0:
256,192,81225,1,0,0:0:0:0:
250,181,81500,1,0,0:0:0:0:
256,192,81776,1,0,0:0:0:0:
256,192,82051,1,8,0:0:0:0:
256,192,82326,1,8,0:0:0:0:
256,192,82464,1,4,0:0:0:0:
256,192,82877,1,8,0:0:0:0:
256,192,83152,1,0,0:0:0:0:
211,156,83427,1,8,0:0:0:0:
256,192,83565,1,0,0:0:0:0:
256,192,83978,1,8,0:0:0:0:
256,192,84253,1,0,0:0:0:0:
213,145,84528,1,8,0:0:0:0:
192,192,84666,1,8,0:0:0:0:
256,192,85078,1,8,0:0:0:0:
256,192,85354,1,0,0:0:0:0:
206,115,85767,1,8,0:0:0:0:
206,57,86042,1,8,0:0:0:0:
256,192,86317,1,0,0:0:0:0:
256,192,86592,1,0,0:0:0:0:
256,192,86867,1,12,0:0:0:0:
256,192,87556,1,8,0:0:0:0:
224,128,88106,1,0,0:0:0:0:
192,96,88381,1,0,0:0:0:0:
64,160,88656,1,8,0:0:0:0:
448,64,88932,1,8,0:0:0:0:
256,192,89069,1,4,0:0:0:0:
256,192,89757,1,8,0:0:0:0:
288,192,90308,1,0,0:0:0:0:
288,192,90583,1,8,0:0:0:0:
288,192,90858,1,0,0:0:0:0:
269,173,90996,1,0,0:0:0:0:
288,192,91271,1,12,0:0:0:0:
256,192,91684,1,8,0:0:0:0:
256,192,91959,1,0,0:0:0:0:
256,192,92234,1,8,0:0:0:0:
256,192,92372,1,0,0:0:0:0:
256,192,92785,1,8,0:0:0:0:
256,192,93060,1,0,0:0:0:0:
226,134,93335,1,8,0:0:0:0:
192,192,93473,1,8,0:0:0:0:
256,192,93886,1,8,0:0:0:0:
256,192,94161,1,0,0:0:0:0:
256,192,94711,1,8,0:0:0:0:
236,170,94849,1,0,0:0:0:0:
448,64,94987,1,8,0:0:0:0:
64,64,95262,1,0,0:0:0:0:
64,64,95537,1,8,0:0:0:0:
256,192,96088,1,12,0:0:0:0:
256,192,96363,1,0,0:0:0:0:
256,192,96638,1,8,0:0:0:0:
256,192,96913,1,0,0:0:0:0:
256,192,97189,1,0,0:0:0:0:
256,192,97464,1,8,0:0:0:0:
256,192,98014,1,8,0:0:0:0:
256,192,98289,1,8,0:0:0:0:
256,192,98565,1,0,0:0:0:0:
256,192,98840,1,8,0:0:0:0:
256,192,99115,1,0,0:0:0:0:
256,192,99666,1,8,0:0:0:0:
220,133,99941,1,0,0:0:0:0:
256,192,100216,1,8,0:0:0:0:
256,192,100767,1,8,0:0:0:0:
256,192,101042,1,8,0:0:0:0:
256,192,101317,1,0,0:0:0:0:
256,192,101592,1,8,0:0:0:0:
256,192,101867,1,8,0:0:0:0:
256,192,102418,1,0,0:0:0:0:
256,192,102693,1,8,0:0:0:0:
256,192,102968,1,0,0:0:0:0:
256,192,103244,1,0,0:0:0:0:
256,192,103519,1,8,0:0:0:0:
226,138,103794,1,8,0:0:0:0:
235,156,103932,1,8,0:0:0:0:
256,192,104069,1,0,0:0:0:0:
221,130,104345,1,8,0:0:0:0:
256,192,104620,1,4,0:0:0:0:
256,192,105170,1,0,0:0:0:0:
256,192,105445,1,8,0:0:0:0:
256,192,105721,1,0,0:0:0:0:
256,192,105996,1,8,0:0:0:0:
256,192,106271,1,0,0:0:0:0:
228,172,106409,1,0,0:0:0:0:
256,192,106546,1,8,0:0:0:0:
256,192,106822,1,12,0:0:0:0:
260,158,107372,1,12,0:0:0:0:
256,192,107922,1,8,0:0:0:0:
256,192,108198,1,8,0:0:0:0:
256,192,108473,1,0,0:0:0:0:
256,192,108748,1,8,0:0:0:0:
256,192,109023,1,4,0:0:0:0:
205,127,109299,1,8,0:0:0:0:
256,192,109711,1,8,0:0:0:0:
256,192,110124,1,8,0:0:0:0:
256,192,110400,1,0,0:0:0:0:
256,192,110537,1,8,0:0:0:0:
256,192,110950,1,8,0:0:0:0:
256,192,111225,1,4,0:0:0:0:
256,192,111500,1,8,0:0:0:0:
256,192,111913,1,8,0:0:0:0:
256,192,112326,1,8,0:0:0:0:
256,192,112601,1,8,0:0:0:0:
256,192,112877,1,0,0:0:0:0:
256,192,113152,1,0,0:0:0:0:
256,192,113427,1,12,0:0:0:0:
256,192,113978,1,8,0:0:0:0:
256,192,114253,1,0,0:0:0:0:
256,188,114528,1,8,0:0:0:0:
256,192,114803,1,8,0:0:0:0:
256,192,115078,1,0,0:0:0:0:
256,192,115354,1,0,0:0:0:0:
256,192,115629,1,12,0:0:0:0:
256,192,116042,1,12,0:0:0:0:
256,192,116455,1,12,0:0:0:0:
256,192,116730,1,4,0:0:0:0:
256,192,117693,1,4,0:0:0:0:
256,192,117968,1,8,0:0:0:0:
256,192,118244,1,0,0:0:0:0:
256,192,118519,1,0,0:0:0:0:
256,192,118656,1,8,0:0:0:0:
256,192,118794,1,0,0:0:0:0:
256,192,119069,1,0,0:0:0:0:
256,192,119345,1,8,0:0:0:0:
256,192,119620,1,0,0:0:0:0:
256,192,119895,1,8,0:0:0:0:
96,160,120308,1,8,0:0:0:0:
151,146,120583,1,0,0:0:0:0:
448,64,120858,1,8,0:0:0:0:
420,64,120996,1,0,0:0:0:0:
256,192,121133,1,8,0:0:0:0:
256,192,121409,1,8,0:0:0:0:
256,192,121684,1,0,0:0:0:0:
256,192,122097,1,12,0:0:0:0:
256,192,122372,1,0,0:0:0:0:
256,192,122647,1,8,0:0:0:0:
256,192,122922,1,8,0:0:0:0:
256,192,123060,1,8,0:0:0:0:
256,192,123198,1,0,0:0:0:0:
256,192,123473,1,0,0:0:0:0:
256,192,123748,1,8,0:0:0:0:
256,192,124023,1,0,0:0:0:0:
246,168,124161,1,0,0:0:0:0:
256,192,124299,1,8,0:0:0:0:
256,192,124987,1,0,0:0:0:0:
256,192,125262,1,8,0:0:0:0:
192,160,125400,1,0,0:0:0:0:
256,192,125812,1,8,0:0:0:0:
256,192,126088,1,8,0:0:0:0:
256,192,126363,1,8,0:0:0:0:
256,192,126500,1,4,0:0:0:0:
256,192,126913,1,8,0:0:0:0:
256,192,127189,1,0,0:0:0:0:
250,176,127464,1,8,0:0:0:0:
256,192,127601,1,0,0:0:0:0:
245,128,127877,1,8,0:0:0:0:
256,192,128014,1,8,0:0:0:0:
256,192,128289,1,0,0:0:0:0:
256,192,128427,1,8,0:0:0:0:
256,192,128702,1,4,0:0:0:0:
256,192,128978,1,8,0:0:0:0:
256,192,129253,1,4,0:0:0:0:
256,192,129528,1,8,0:0:0:0:
256,192,129803,1,4,0:0:0:0:
256,192,130491,1,8,0:0:0:0:
256,192,130767,1,8,0:0:0:0:
256,192,130904,1,4,0:0:0:0:
256,192,131317,1,8,0:0:0:0:
256,192,131592,1,8,0:0:0:0:
256,192,131867,1,8,0:0:0:0:
256,192,132143,1,4,0:0:0:0:
256,192,133244,1,12,0:0:0:0:
224,96,135445,5,4,0:0:0:0:
256,96,135583,1,4,0:0:0:0:
256,192,137647,1,4,0:0:0:0:
256,192,137785,1,4,0:0:0:0:
256,192,139299,1,8,0:0:0:0:
384,160,139849,1,4,0:0:0:0:
288,160,140262,1,0,0:0:0:0:
256,160,140400,1,8,0:0:0:0:
256,160,140812,1,8,0:0:0:0:
256,160,141088,1,0,0:0:0:0:
256,160,141225,1,8,0:0:0:0:
256,160,141638,1,8,0:0:0:0:
256,160,141913,1,0,0:0:0:0:
256,160,142051,1,8,0:0:0:0:
256,160,142464,1,8,0:0:0:0:
256,160,143152,1,8,0:0:0:0:
256,128,143427,1,8,0:0:0:0:
256,160,143702,1,8,0:0:0:0:
448,64,143840,1,8,0:0:0:0:
256,128,144115,1,4,0:0:0:0:
256,160,144528,1,8,0:0:0:0:
256,160,144803,1,0,0:0:0:0:
256,160,144941,1,8,0:0:0:0:
221,132,145216,1,0,0:0:0:0:
256,160,145629,1,8,0:0:0:0:
256,160,145904,1,8,0:0:0:0:
256,160,146042,1,8,0:0:0:0:
266,133,146317,1,0,0:0:0:0:
224,224,146730,1,8,0:0:0:0:
224,224,147005,1,0,0:0:0:0:
221,189,147143,1,0,0:0:0:0:
256,160,147280,1,8,0:0:0:0:
224,224,147556,1,0,0:0:0:0:
224,224,147831,1,8,0:0:0:0:
185,70,147968,1,8,0:0:0:0:
224,224,148106,1,0,0:0:0:0:
224,224,148519,1,4,0:0:0:0:
224,224,149207,1,0,0:0:0:0:
224,224,149482,1,8,0:0:0:0:
64,64,149620,1,0,0:0:0:0:
224,224,150033,1,8,0:0:0:0:
224,224,150308,1,0,0:0:0:0:
224,224,150583,1,8,0:0:0:0:
224,224,150721,1,8,0:0:0:0:
220,162,150996,1,0,0:0:0:0:
224,192,151133,1,8,0:0:0:0:
222,170,151271,1,0,0:0:0:0:
224,192,151546,1,0,0:0:0:0:
64,64,151684,1,0,0:0:0:0:
224,192,151822,1,8,0:0:0:0:
224,192,152510,1,8,0:0:0:0:
224,192,152785,1,8,0:0:0:0:
224,192,152922,1,4,0:0:0:0:
288,160,153335,1,8,0:0:0:0:
320,128,153611,1,0,0:0:0:0:
320,128,153748,1,8,0:0:0:0:
289,113,154023,1,0,0:0:0:0:
320,96,154436,1,8,0:0:0:0:
320,96,154711,1,0,0:0:0:0:
259,103,154849,1,0,0:0:0:0:
320,96,155124,1,8,0:0:0:0:
227,33,155400,1,0,0:0:0:0:
421,61,155537,1,8,0:0:0:0:
448,64,155812,1,0,0:0:0:0:
380,49,156088,1,8,0:0:0:0:
64,64,156225,1,0,0:0:0:0:
130,63,156500,1,0,0:0:0:0:
235,53,156638,1,8,0:0:0:0:
192,96,156776,1,0,0:0:0:0:
256,96,157051,1,0,0:0:0:0:
256,96,157326,1,12,0:0:0:0:
256,192,158014,1,0,0:0:0:0:
256,192,158289,1,8,0:0:0:0:
448,64,158427,1,0,0:0:0:0:
256,192,158840,1,8,0:0:0:0:
224,128,159115,1,0,0:0:0:0:
224,128,159390,1,8,0:0:0:0:
64,64,159528,1,0,0:0:0:0:
174,64,159803,1,0,0:0:0:0:
288,64,159941,1,8,0:0:0:0:
320,64,160216,1,0,0:0:0:0:
320,64,160491,1,8,0:0:0:0:
283,56,160629,1,8,0:0:0:0:
270,53,160904,1,0,0:0:0:0:
192,128,161042,1,8,0:0:0:0:
194,107,161179,1,0,0:0:0:0:
288,64,161592,1,8,0:0:0:0:
288,64,161867,1,4,0:0:0:0:
256,192,162418,1,0,0:0:0:0:
256,192,162693,1,8,0:0:0:0:
256,192,162968,1,0,0:0:0:0:
256,192,163244,1,8,0:0:0:0:
256,64,163381,1,0,0:0:0:0:
256,192,163794,1,8,0:0:0:0:
256,192,164069,1,0,0:0:0:0:
256,192,164345,1,8,0:0:0:0:
448,64,164895,1,8,0:0:0:0:
251,172,165033,1,8,0:0:0:0:
256,192,165170,1,0,0:0:0:0:
192,224,165445,1,8,0:0:0:0:
249,103,165996,1,8,0:0:0:0:
96,288,166271,1,4,0:0:0:0:
127,234,166546,1,8,0:0:0:0:
96,256,166684,1,0,0:0:0:0:
192,160,167097,1,8,0:0:0:0:
224,128,167372,1,0,0:0:0:0:
448,64,167922,1,8,0:0:0:0:
224,128,168198,1,0,0:0:0:0:
224,128,168473,1,12,0:0:0:0:
172,40,169299,1,8,0:0:0:0:
256,64,169574,1,8,0:0:0:0:
241,55,169711,1,8,0:0:0:0:
448,64,169849,1,8,0:0:0:0:
64,64,170124,1,0,0:0:0:0:
256,64,170675,1,12,0:0:0:0:
256,64,170950,1,0,0:0:0:0:
369,60,171225,1,8,0:0:0:0:
343,69,171363,1,0,0:0:0:0:
384,64,171500,1,0,0:0:0:0:
363,60,171776,1,8,0:0:0:0:
64,64,172051,1,0,0:0:0:0:
308,51,172326,1,8,0:0:0:0:
283,54,172464,1,8,0:0:0:0:
32,128,172601,1,0,0:0:0:0:
308,51,172877,1,8,0:0:0:0:
308,51,173152,1,0,0:0:0:0:
308,51,173427,1,8,0:0:0:0:
288,53,173565,1,8,0:0:0:0:
308,51,173702,1,8,0:0:0:0:
64,64,173978,1,0,0:0:0:0:
352,96,174941,1,12,0:0:0:0:
256,64,175354,1,8,0:0:0:0:
232,83,175629,1,0,0:0:0:0:
192,192,175904,1,8,0:0:0:0:
160,160,176042,1,0,0:0:0:0:
174,100,176317,1,0,0:0:0:0:
183,67,176455,1,8,0:0:0:0:
448,64,176592,1,0,0:0:0:0:
64,64,177143,1,4,0:0:0:0:
256,64,177556,1,8,0:0:0:0:
448,64,177831,1,0,0:0:0:0:
416,62,177968,1,0,0:0:0:0:
256,64,178106,1,8,0:0:0:0:
256,64,178381,1,0,0:0:0:0:
256,64,178656,1,8,0:0:0:0:
208,49,178932,1,8,0:0:0:0:
187,43,179069,1,8,0:0:0:0:
256,64,179207,1,0,0:0:0:0:
256,64,179482,1,12,0:0:0:0:
448,64,180033,1,8,0:0:0:0:
256,192,180308,1,0,0:0:0:0:
256,188,180583,1,8,0:0:0:0:
216,128,180858,1,8,0:0:0:0:
256,192,181133,1,8,0:0:0:0:
231,167,181271,1,0,0:0:0:0:
256,192,181409,1,8,0:0:0:0:
256,192,181684,1,4,0:0:0:0:
256,192,182097,1,4,0:0:0:0:
256,192,182510,1,4,0:0:0:0:
256,192,182785,1,12,0:0:0:0:
256,128,189941,5,8,0:0:0:0:
160,224,190491,1,4,0:0:0:0:
224,160,190767,1,0,0:0:0:0:
224,160,191042,1,0,0:0:0:0:
224,160,191317,1,0,0:0:0:0:
224,160,191592,1,8,0:0:0:0:
103,166,191730,1,8,0:0:0:0:
224,160,191867,1,8,0:0:0:0:
183,148,192005,1,8,0:0:0:0:
256,192,192556,1,4,0:0:0:0:
256,192,192831,1,8,0:0:0:0:
256,192,193106,1,0,0:0:0:0:
256,192,193381,1,0,0:0:0:0:
256,192,193519,1,8,0:0:0:0:
256,192,193656,1,8,0:0:0:0:
256,192,193932,1,0,0:0:0:0:
256,192,194207,1,8,0:0:0:0:
256,192,194482,1,8,0:0:0:0:
64,64,194757,1,0,0:0:0:0:
256,192,195170,1,8,0:0:0:0:
256,192,195445,1,0,0:0:0:0:
256,192,195721,1,8,0:0:0:0:
64,64,195858,1,0,0:0:0:0:
448,64,195996,1,8,0:0:0:0:
256,192,196271,1,8,0:0:0:0:
256,192,196546,1,0,0:0:0:0:
256,192,196959,1,12,0:0:0:0:
256,192,197234,1,0,0:0:0:0:
256,192,197510,1,8,0:0:0:0:
256,192,197785,1,8,0:0:0:0:
256,192,197922,1,8,0:0:0:0:
256,192,198060,1,0,0:0:0:0:
256,192,198335,1,8,0:0:0:0:
256,192,198611,1,0,0:0:0:0:
256,192,198886,1,8,0:0:0:0:
64,64,199023,1,0,0:0:0:0:
256,192,199161,1,8,0:0:0:0:
190,32,199849,1,0,0:0:0:0:
256,192,200124,1,8,0:0:0:0:
64,64,200262,1,0,0:0:0:0:
256,192,200675,1,8,0:0:0:0:
256,192,200950,1,8,0:0:0:0:
256,192,201225,1,8,0:0:0:0:
256,192,201363,1,4,0:0:0:0:
256,192,201776,1,8,0:0:0:0:
256,192,202051,1,0,0:0:0:0:
231,146,202326,1,8,0:0:0:0:
256,192,202464,1,0,0:0:0:0:
226,145,202739,1,0,0:0:0:0:
256,192,202877,1,8,0:0:0:0:
229,129,203152,1,0,0:0:0:0:
256,192,203289,1,0,0:0:0:0:
256,192,203565,1,12,0:0:0:0:
256,192,203840,1,0,0:0:0:0:
256,192,204115,1,12,0:0:0:0:
256,192,204390,1,0,0:0:0:0:
256,192,204666,1,12,0:0:0:0:
256,192,205354,1,8,0:0:0:0:
256,192,205629,1,8,0:0:0:0:
256,192,205767,1,4,0:0:0:0:
256,192,206179,1,8,0:0:0:0:
256,192,206455,1,8,0:0:0:0:
256,192,206730,1,8,0:0:0:0:
256,192,207005,1,0,0:0:0:0:
256,192,207556,5,0,0:0:0:0:
256,192,207831,1,8,0:0:0:0:
256,192,207968,1,4,0:0:0:0:
256,192,208244,1,8,0:0:0:0:
256,192,208519,1,0,0:0:0:0:
256,192,208794,1,0,0:0:0:0:
256,192,208932,1,8,0:0:0:0:
256,192,209069,1,0,0:0:0:0:
256,192,209345,1,0,0:0:0:0:
256,192,209620,1,8,0:0:0:0:
256,192,209895,1,0,0:0:0:0:
256,192,210170,1,8,0:0:0:0:
96,160,210583,1,8,0:0:0:0:
151,146,210858,1,0,0:0:0:0:
448,64,211133,1,8,0:0:0:0:
256,192,211409,1,8,0:0:0:0:
420,64,211684,1,0,0:0:0:0:
256,192,211822,1,8,0:0:0:0:
247,173,211959,1,0,0:0:0:0:
256,192,212372,1,12,0:0:0:0:
256,192,212647,1,0,0:0:0:0:
256,192,212922,1,8,0:0:0:0:
256,192,213198,1,8,0:0:0:0:
256,192,213335,1,8,0:0:0:0:
256,192,213473,1,0,0:0:0:0:
256,192,213748,1,8,0:0:0:0:
248,180,214023,1,0,0:0:0:0:
256,192,214161,1,8,0:0:0:0:
246,168,214299,1,0,0:0:0:0:
256,192,214574,1,8,0:0:0:0:
256,192,215262,1,0,0:0:0:0:
256,192,215537,1,8,0:0:0:0:
192,160,215675,1,0,0:0:0:0:
256,192,216088,1,8,0:0:0:0:
256,192,216363,1,8,0:0:0:0:
256,192,216638,1,8,0:0:0:0:
256,192,216776,1,4,0:0:0:0:
256,192,217189,1,8,0:0:0:0:
256,192,217464,1,0,0:0:0:0:
250,176,217739,1,8,0:0:0:0:
256,192,217877,1,0,0:0:0:0:
245,128,218152,1,8,0:0:0:0:
256,192,218289,1,8,0:0:0:0:
256,192,218565,1,0,0:0:0:0:
256,192,218702,1,8,0:0:0:0:
256,192,218978,1,4,0:0:0:0:
256,192,219253,1,8,0:0:0:0:
256,192,219528,1,4,0:0:0:0:
256,192,219803,1,8,0:0:0:0:
256,192,220078,1,4,0:0:0:0:
256,192,220767,1,8,0:0:0:0:
256,192,221042,1,8,0:0:0:0:
256,192,221179,1,4,0:0:0:0:
256,192,221592,1,8,0:0:0:0:
256,192,221867,1,8,0:0:0:0:
256,192,222143,1,8,0:0:0:0:
256,192,222418,1,0,0:0:0:0:
256,192,222556,1,0,0:0:0:0:
257,177,222693,1,0,0:0:0:0:
256,192,222968,1,8,0:0:0:0:
256,192,223519,1,12,0:0:0:0:
256,192,225170,1,8,0:0:0:0:
256,192,225583,1,4,0:0:0:0:
256,192,225996,1,8,0:0:0:0:
256,192,226271,1,0,0:0:0:0:
256,192,226546,1,8,0:0:0:0:
256,192,226684,1,0,0:0:0:0:
448,64,226959,1,8,0:0:0:0:
256,192,227234,1,0,0:0:0:0:
256,192,227372,1,8,0:0:0:0:
246,167,227510,1,0,0:0:0:0:
448,64,227785,1,8,0:0:0:0:
256,192,228198,1,8,0:0:0:0:
448,64,228473,1,0,0:0:0:0:
256,192,228748,1,8,0:0:0:0:
256,192,228886,1,0,0:0:0:0:
256,192,229574,1,0,0:0:0:0:
256,192,229849,1,8,0:0:0:0:
256,192,229987,1,4,0:0:0:0:
256,192,230400,1,8,0:0:0:0:
448,64,230675,1,0,0:0:0:0:
256,192,230950,1,8,0:0:0:0:
256,192,231088,1,0,0:0:0:0:
448,64,231363,1,8,0:0:0:0:
448,64,231638,1,0,0:0:0:0:
64,64,231776,1,8,0:0:0:0:
87,63,231913,1,0,0:0:0:0:
128,128,232189,1,8,0:0:0:0:
64,64,232601,1,8,0:0:0:0:
256,192,232877,1,0,0:0:0:0:
256,192,233014,1,0,0:0:0:0:
256,192,233289,1,12,0:0:0:0:
448,64,233978,1,8,0:0:0:0:
448,64,234115,1,8,0:0:0:0:
256,192,234390,1,4,0:0:0:0:
256,192,234803,1,8,0:0:0:0:
256,192,235078,1,0,0:0:0:0:
256,192,235354,1,8,0:0:0:0:
256,192,235491,1,0,0:0:0:0:
448,64,235767,1,8,0:0:0:0:
256,192,236042,1,0,0:0:0:0:
256,192,236179,1,8,0:0:0:0:
243,160,236317,1,0,0:0:0:0:
448,64,236592,1,8,0:0:0:0:
256,192,237005,1,8,0:0:0:0:
448,64,237280,1,0,0:0:0:0:
256,192,237556,1,8,0:0:0:0:
256,192,237693,1,0,0:0:0:0:
256,192,238381,1,0,0:0:0:0:
256,192,238656,1,8,0:0:0:0:
256,192,238794,1,4,0:0:0:0:
256,192,239207,1,8,0:0:0:0:
448,64,239482,1,0,0:0:0:0:
256,192,239757,1,8,0:0:0:0:
256,192,239895,1,0,0:0:0:0:
448,64,240170,1,8,0:0:0:0:
448,64,240445,1,0,0:0:0:0:
64,64,240583,1,8,0:0:0:0:
84,60,240721,1,0,0:0:0:0:
448,64,240996,1,8,0:0:0:0:
256,192,241409,5,8,0:0:0:0:
256,192,241684,1,0,0:0:0:0:
246,167,241822,1,0,0:0:0:0:
256,192,242097,1,8,0:0:0:0:
256,192,242510,1,8,0:0:0:0:
256,192,242785,1,8,0:0:0:0:
256,192,242922,1,8,0:0:0:0:
256,192,243198,1,4,0:0:0:0:
