osu file format v14

[General]
AudioFilename: audio.ogg
AudioLeadIn: 0
PreviewTime: 192108
Countdown: 0
SampleSet: Normal
StackLeniency: 0.7
Mode: 1
LetterboxInBreaks: 0
WidescreenStoryboard: 1

[Editor]
Bookmarks: 2235,12005,20812,29757,38565,51638,60446,69253,78060,86868,96088,104620,117693,126501,135446,144115,152923,161868,170675,179482,192556,201363,207968,216776,225583,234390
DistanceSpacing: 0.5
BeatDivisor: 2
GridSize: 32
TimelineZoom: 1.4

[Metadata]
Title:Toaru Shoukoku no Ohimesama ga...
TitleUnicode:とある小国のお姫様が...
Artist:nao
ArtistUnicode:nao
Creator:gaston_2199
Version:Kantan
Source:姫様LOVEライフ!
Tags:innocent prelude. とある小国のお姫様が、会ったこともない兄の家にやってきて住みついた事情。 Toaru Shoukoku no Ohimesama ga, Atta koto mo nai Ani no Ie ni yattekite Sumitsuita Jijou. demetori 寺前甲 maya 山下慎一狼 princess sugar himesama love life eroge visual novel op opening video game japanese metal rock jrock j-rock paz08 [r] Ron KyeX SenSenko
BeatmapID:3508271
BeatmapSetID:1716803

[Difficulty]
HPDrainRate:7
CircleSize:2
OverallDifficulty:3
ApproachRate:10
SliderMultiplier:1.4
SliderTickRate:1

[Events]
//Background and Video events
0,0,"BG5.jpg",0,0
//Break Periods
2,183748,190041
//Storyboard Layer 0 (Background)
//Storyboard Layer 1 (Fail)
//Storyboard Layer 2 (Pass)
//Storyboard Layer 3 (Foreground)
//Storyboard Layer 4 (Overlay)
//Storyboard Sound Samples

[TimingPoints]
1134,275.229357798165,4,1,0,80,1,8
51638,-100,4,1,0,90,0,1
69253,-100,4,1,0,80,0,0
117693,-100,4,1,0,90,0,1
135445,-100,4,1,0,80,0,0
144115,-100,4,1,0,90,0,1
161867,-100,4,1,0,80,0,0
170675,-100,4,1,0,90,0,1
183748,-100,4,1,0,80,0,0
192556,-100,4,1,0,90,0,1
207005,-100,4,1,0,80,0,0
207968,-100,4,1,0,90,0,1
225583,-100,4,1,0,80,0,0

[HitObjects]
288,320,2234,5,8,0:0:0:0:
192,352,3198,1,4,0:0:0:0:
288,320,3886,1,8,0:0:0:0:
192,352,4436,1,0,0:0:0:0:
288,320,4711,1,8,0:0:0:0:
192,352,4987,1,0,0:0:0:0:
288,320,5400,1,8,0:0:0:0:
288,320,6088,1,8,0:0:0:0:
192,352,6500,1,0,0:0:0:0:
192,352,7601,1,4,0:0:0:0:
288,320,8289,1,8,0:0:0:0:
192,352,8840,1,0,0:0:0:0:
288,320,9115,1,8,0:0:0:0:
192,352,9390,1,0,0:0:0:0:
288,320,9803,1,8,0:0:0:0:
192,352,10491,1,0,0:0:0:0:
288,320,10904,1,8,0:0:0:0:
288,320,11592,1,8,0:0:0:0:
192,352,12005,1,4,0:0:0:0:
288,320,13794,1,8,0:0:0:0:
192,352,14207,1,4,0:0:0:0:
192,352,15721,1,0,0:0:0:0:
288,320,15996,1,8,0:0:0:0:
192,352,16409,1,4,0:0:0:0:
192,352,17097,1,0,0:0:0:0:
288,320,17510,1,8,0:0:0:0:
288,320,17922,1,8,0:0:0:0:
192,352,18198,1,0,0:0:0:0:
288,320,18611,1,8,0:0:0:0:
192,352,19299,1,0,0:0:0:0:
288,320,19849,1,8,0:0:0:0:
288,320,20262,1,8,0:0:0:0:
192,352,20812,1,4,0:0:0:0:
288,320,22601,1,8,0:0:0:0:
192,352,23014,1,4,0:0:0:0:
192,352,24528,1,0,0:0:0:0:
288,320,24803,1,8,0:0:0:0:
192,352,25216,1,4,0:0:0:0:
192,352,25904,1,0,0:0:0:0:
288,320,26317,1,8,0:0:0:0:
288,320,26730,1,8,0:0:0:0:
192,352,27005,1,0,0:0:0:0:
288,320,27418,1,8,0:0:0:0:
192,352,28106,1,0,0:0:0:0:
288,320,28656,1,8,0:0:0:0:
192,352,28932,1,0,0:0:0:0:
288,320,29207,1,8,0:0:0:0:
192,352,29757,1,0,0:0:0:0:
288,320,30308,1,8,0:0:0:0:
192,352,30858,1,0,0:0:0:0:
288,320,31959,1,8,0:0:0:0:
288,320,32510,1,8,0:0:0:0:
192,352,33060,1,0,0:0:0:0:
192,352,34161,1,0,0:0:0:0:
192,352,34711,1,0,0:0:0:0:
288,320,35262,1,8,0:0:0:0:
192,352,36363,1,0,0:0:0:0:
288,320,37464,1,8,0:0:0:0:
288,320,37739,1,8,0:0:0:0:
192,352,38014,1,0,0:0:0:0:
192,352,38565,1,4,0:0:0:0:
288,320,39115,1,8,0:0:0:0:
192,352,39666,1,0,0:0:0:0:
192,352,40216,1,0,0:0:0:0:
288,320,40491,1,8,0:0:0:0:
192,352,40767,1,0,0:0:0:0:
192,352,41317,1,0,0:0:0:0:
288,320,41867,1,8,0:0:0:0:
288,320,42418,1,8,0:0:0:0:
288,320,42693,1,8,0:0:0:0:
192,352,42968,1,4,0:0:0:0:
288,320,44069,1,8,0:0:0:0:
288,320,44482,1,8,0:0:0:0:
288,320,44895,1,8,0:0:0:0:
192,352,45170,1,0,0:0:0:0:
288,320,46271,1,8,0:0:0:0:
288,320,46546,1,8,0:0:0:0:
288,320,46822,1,0,0:0:0:0:
288,320,47372,1,12,0:0:0:0:
288,320,47922,1,8,0:0:0:0:
192,352,48198,1,0,0:0:0:0:
192,352,48473,1,8,0:0:0:0:
288,320,49023,1,8,0:0:0:0:
288,320,49299,1,0,0:0:0:0:
288,320,49574,1,12,0:0:0:0:
288,320,50400,1,12,0:0:0:0:
192,352,50675,1,12,0:0:0:0:
192,352,51638,1,4,0:0:0:0:
288,320,52189,1,8,0:0:0:0:
192,352,52739,1,0,0:0:0:0:
192,352,53014,1,0,0:0:0:0:
288,320,53289,1,8,0:0:0:0:
192,352,53840,1,0,0:0:0:0:
288,320,54528,1,8,0:0:0:0:
192,352,54803,1,0,0:0:0:0:
288,320,55078,1,8,0:0:0:0:
192,352,56042,1,4,0:0:0:0:
288,320,56592,1,8,0:0:0:0:
192,352,57143,1,0,0:0:0:0:
288,320,57418,1,8,0:0:0:0:
192,352,57693,1,0,0:0:0:0:
192,352,57968,1,0,0:0:0:0:
288,320,58244,1,8,0:0:0:0:
288,320,58932,1,8,0:0:0:0:
192,352,59345,1,0,0:0:0:0:
192,352,60445,1,4,0:0:0:0:
288,320,61133,1,8,0:0:0:0:
192,352,61546,1,0,0:0:0:0:
288,320,62234,1,0,0:0:0:0:
288,320,62647,1,12,0:0:0:0:
192,352,63198,1,4,0:0:0:0:
288,320,63748,1,12,0:0:0:0:
192,352,64849,1,4,0:0:0:0:
288,320,65537,1,8,0:0:0:0:
288,320,65812,1,8,0:0:0:0:
192,352,66088,1,4,0:0:0:0:
288,320,67189,1,12,0:0:0:0:
288,320,68840,1,8,0:0:0:0:
192,352,69253,1,4,0:0:0:0:
288,320,69941,1,8,0:0:0:0:
192,352,70491,1,0,0:0:0:0:
288,320,70767,1,8,0:0:0:0:
192,352,71042,1,0,0:0:0:0:
288,320,71455,1,8,0:0:0:0:
288,320,72143,1,8,0:0:0:0:
192,352,72556,1,0,0:0:0:0:
192,352,73656,1,4,0:0:0:0:
288,320,74345,1,8,0:0:0:0:
192,352,74895,1,0,0:0:0:0:
288,320,75170,1,8,0:0:0:0:
192,352,75445,1,0,0:0:0:0:
288,320,75858,1,8,0:0:0:0:
288,320,76546,1,8,0:0:0:0:
192,352,76959,1,4,0:0:0:0:
192,352,78060,1,4,0:0:0:0:
192,352,79299,1,0,0:0:0:0:
288,320,79849,1,8,0:0:0:0:
192,352,80262,1,4,0:0:0:0:
192,352,81500,1,0,0:0:0:0:
288,320,82051,1,8,0:0:0:0:
192,352,82464,1,4,0:0:0:0:
192,352,83152,1,0,0:0:0:0:
288,320,83565,1,8,0:0:0:0:
288,320,83978,1,8,0:0:0:0:
192,352,84253,1,0,0:0:0:0:
288,320,84666,1,8,0:0:0:0:
192,352,85354,1,0,0:0:0:0:
288,320,85767,1,8,0:0:0:0:
288,320,86317,1,8,0:0:0:0:
288,320,86592,1,8,0:0:0:0:
192,352,86867,1,4,0:0:0:0:
288,320,87556,1,8,0:0:0:0:
288,320,88656,1,8,0:0:0:0:
192,352,89069,1,4,0:0:0:0:
288,320,89757,1,8,0:0:0:0:
288,320,90308,1,8,0:0:0:0:
192,352,90858,1,0,0:0:0:0:
288,320,91271,1,12,0:0:0:0:
192,352,91959,1,0,0:0:0:0:
288,320,92372,1,8,0:0:0:0:
288,320,92785,1,8,0:0:0:0:
192,352,93060,1,0,0:0:0:0:
288,320,93473,1,8,0:0:0:0:
192,352,94161,1,0,0:0:0:0:
288,320,94711,1,8,0:0:0:0:
288,320,94987,1,8,0:0:0:0:
192,352,95262,1,0,0:0:0:0:
288,320,96088,1,12,0:0:0:0:
192,352,96913,1,0,0:0:0:0:
288,320,97464,1,8,0:0:0:0:
288,320,98014,1,8,0:0:0:0:
192,352,98289,1,0,0:0:0:0:
288,320,98565,1,8,0:0:0:0:
192,352,99115,1,0,0:0:0:0:
288,320,99666,1,8,0:0:0:0:
288,320,100767,1,8,0:0:0:0:
192,352,101317,1,0,0:0:0:0:
192,352,101592,1,0,0:0:0:0:
288,320,101867,1,8,0:0:0:0:
192,352,102418,1,0,0:0:0:0:
288,320,102968,1,8,0:0:0:0:
288,320,103244,1,8,0:0:0:0:
192,352,103519,1,0,0:0:0:0:
192,352,104620,1,4,0:0:0:0:
288,320,105170,1,8,0:0:0:0:
192,352,105721,1,0,0:0:0:0:
288,320,105996,1,8,0:0:0:0:
192,352,106271,1,0,0:0:0:0:
288,320,106822,1,8,0:0:0:0:
288,320,107372,1,8,0:0:0:0:
288,320,107922,1,8,0:0:0:0:
288,320,108198,1,8,0:0:0:0:
192,352,108473,1,0,0:0:0:0:
288,320,109023,1,12,0:0:0:0:
288,320,110124,1,8,0:0:0:0:
288,320,110537,1,8,0:0:0:0:
288,320,110950,1,8,0:0:0:0:
192,352,111225,1,4,0:0:0:0:
288,320,112326,1,8,0:0:0:0:
288,320,112601,1,8,0:0:0:0:
192,352,112877,1,0,0:0:0:0:
288,320,113427,1,8,0:0:0:0:
288,320,113978,1,8,0:0:0:0:
192,352,114253,1,0,0:0:0:0:
288,320,114528,1,8,0:0:0:0:
288,320,115078,1,8,0:0:0:0:
192,352,115354,1,0,0:0:0:0:
288,320,115629,1,12,0:0:0:0:
288,320,116455,1,12,0:0:0:0:
192,352,116730,1,4,0:0:0:0:
192,352,117693,1,4,0:0:0:0:
288,320,118244,1,8,0:0:0:0:
192,352,118794,1,0,0:0:0:0:
288,320,119069,1,8,0:0:0:0:
192,352,119345,1,0,0:0:0:0:
288,320,119895,1,8,0:0:0:0:
288,320,120583,1,0,0:0:0:0:
288,320,121133,1,8,0:0:0:0:
192,352,122097,1,4,0:0:0:0:
288,320,122647,1,8,0:0:0:0:
192,352,123198,1,0,0:0:0:0:
192,352,123473,1,0,0:0:0:0:
288,320,123748,1,8,0:0:0:0:
288,320,124023,1,8,0:0:0:0:
192,352,124299,1,0,0:0:0:0:
288,320,124987,1,8,0:0:0:0:
192,352,125400,1,0,0:0:0:0:
192,352,126500,1,4,0:0:0:0:
288,320,127189,1,8,0:0:0:0:
192,352,127601,1,0,0:0:0:0:
192,352,128289,1,0,0:0:0:0:
288,320,128702,1,12,0:0:0:0:
288,320,129253,1,12,0:0:0:0:
192,352,129803,1,4,0:0:0:0:
192,352,130904,1,4,0:0:0:0:
288,320,131592,1,8,0:0:0:0:
288,320,131867,1,8,0:0:0:0:
192,352,132143,1,4,0:0:0:0:
288,320,133244,1,12,0:0:0:0:
192,352,135445,1,4,0:0:0:0:
192,352,137647,1,4,0:0:0:0:
192,352,139849,1,4,0:0:0:0:
288,320,140400,1,8,0:0:0:0:
192,352,141225,1,8,0:0:0:0:
192,352,142051,1,8,0:0:0:0:
288,320,142877,1,8,0:0:0:0:
288,320,143152,1,8,0:0:0:0:
288,320,143427,1,8,0:0:0:0:
288,320,143702,1,8,0:0:0:0:
192,352,144115,1,4,0:0:0:0:
288,320,144803,1,8,0:0:0:0:
192,352,145216,1,0,0:0:0:0:
288,320,145629,1,8,0:0:0:0:
288,320,145904,1,8,0:0:0:0:
192,352,146317,1,0,0:0:0:0:
288,320,147005,1,8,0:0:0:0:
192,352,147556,1,0,0:0:0:0:
192,352,147831,1,0,0:0:0:0:
288,320,148106,1,8,0:0:0:0:
192,352,148519,1,4,0:0:0:0:
192,352,149207,1,0,0:0:0:0:
288,320,149620,1,8,0:0:0:0:
192,352,150721,1,0,0:0:0:0:
192,352,151271,1,0,0:0:0:0:
288,320,151822,1,8,0:0:0:0:
192,352,152922,1,4,0:0:0:0:
192,352,153611,1,0,0:0:0:0:
288,320,154023,1,8,0:0:0:0:
192,352,154436,1,0,0:0:0:0:
192,352,154711,1,0,0:0:0:0:
288,320,155124,1,8,0:0:0:0:
288,320,155812,1,8,0:0:0:0:
192,352,156225,1,0,0:0:0:0:
288,320,156776,1,8,0:0:0:0:
192,352,157326,1,4,0:0:0:0:
192,352,158014,1,0,0:0:0:0:
288,320,158427,1,8,0:0:0:0:
192,352,159528,1,0,0:0:0:0:
192,352,160216,1,8,0:0:0:0:
288,320,160629,1,0,0:0:0:0:
288,320,161179,1,0,0:0:0:0:
192,352,161867,1,4,0:0:0:0:
288,320,162693,1,8,0:0:0:0:
192,352,162968,1,0,0:0:0:0:
288,320,163519,1,8,0:0:0:0:
192,352,164069,1,0,0:0:0:0:
288,320,164895,1,8,0:0:0:0:
192,352,165170,1,0,0:0:0:0:
192,352,166271,1,0,0:0:0:0:
192,352,166822,1,0,0:0:0:0:
288,320,167372,1,8,0:0:0:0:
192,352,167922,1,0,0:0:0:0:
288,320,168198,1,8,0:0:0:0:
192,352,168473,1,0,0:0:0:0:
288,320,169574,1,8,0:0:0:0:
288,320,169849,1,8,0:0:0:0:
192,352,170124,1,0,0:0:0:0:
288,320,170675,1,12,0:0:0:0:
192,352,171225,1,0,0:0:0:0:
288,320,171776,1,8,0:0:0:0:
192,352,172051,1,8,0:0:0:0:
288,320,172326,1,0,0:0:0:0:
288,320,172877,1,8,0:0:0:0:
288,320,173152,1,0,0:0:0:0:
288,320,173427,1,8,0:0:0:0:
192,352,173978,1,0,0:0:0:0:
288,320,174941,1,12,0:0:0:0:
288,320,176042,1,8,0:0:0:0:
288,320,176592,1,8,0:0:0:0:
192,352,177143,1,0,0:0:0:0:
288,320,177831,1,8,0:0:0:0:
192,352,178381,1,0,0:0:0:0:
192,352,178656,1,0,0:0:0:0:
288,320,178932,1,8,0:0:0:0:
192,352,179482,1,4,0:0:0:0:
288,320,180033,1,8,0:0:0:0:
192,352,180308,1,0,0:0:0:0:
288,320,180583,1,8,0:0:0:0:
288,320,181133,1,8,0:0:0:0:
192,352,181409,1,0,0:0:0:0:
288,320,181684,1,12,0:0:0:0:
288,320,182510,1,12,0:0:0:0:
192,352,182785,1,4,0:0:0:0:
192,352,190491,5,0,0:0:0:0:
192,352,191042,1,0,0:0:0:0:
288,320,191592,1,8,0:0:0:0:
192,352,192556,1,4,0:0:0:0:
288,320,193106,1,8,0:0:0:0:
192,352,193656,1,0,0:0:0:0:
192,352,193932,1,0,0:0:0:0:
288,320,194207,1,8,0:0:0:0:
192,352,194757,1,0,0:0:0:0:
288,320,195445,1,8,0:0:0:0:
192,352,195721,1,0,0:0:0:0:
288,320,195996,1,8,0:0:0:0:
192,352,196959,1,4,0:0:0:0:
288,320,197510,1,8,0:0:0:0:
192,352,198060,1,0,0:0:0:0:
288,320,198335,1,8,0:0:0:0:
192,352,198611,1,0,0:0:0:0:
192,352,198886,1,0,0:0:0:0:
288,320,199161,1,8,0:0:0:0:
288,320,199849,1,8,0:0:0:0:
192,352,200262,1,0,0:0:0:0:
192,352,201363,1,4,0:0:0:0:
288,320,202051,1,8,0:0:0:0:
192,352,202464,1,0,0:0:0:0:
192,352,203152,1,0,0:0:0:0:
288,320,203565,1,12,0:0:0:0:
192,352,204115,1,4,0:0:0:0:
288,320,204666,1,12,0:0:0:0:
192,352,205767,1,4,0:0:0:0:
288,320,206455,1,8,0:0:0:0:
288,320,206730,1,8,0:0:0:0:
192,352,207005,1,0,0:0:0:0:
192,352,207968,1,4,0:0:0:0:
288,320,208519,1,8,0:0:0:0:
192,352,209069,1,0,0:0:0:0:
288,320,209345,1,8,0:0:0:0:
192,352,209620,1,0,0:0:0:0:
288,320,210170,1,8,0:0:0:0:
192,352,210858,1,0,0:0:0:0:
288,320,211409,1,8,0:0:0:0:
192,352,212372,1,4,0:0:0:0:
288,320,212922,1,8,0:0:0:0:
192,352,213473,1,0,0:0:0:0:
288,320,214161,1,8,0:0:0:0:
192,352,214436,1,0,0:0:0:0:
288,320,214711,1,8,0:0:0:0:
288,320,215262,1,8,0:0:0:0:
192,352,215675,1,0,0:0:0:0:
192,352,216776,1,4,0:0:0:0:
288,320,217464,1,8,0:0:0:0:
192,352,217877,1,0,0:0:0:0:
192,352,218565,1,0,0:0:0:0:
288,320,218978,1,12,0:0:0:0:
288,320,219528,1,12,0:0:0:0:
192,352,220078,1,4,0:0:0:0:
192,352,221179,1,4,0:0:0:0:
192,352,221867,1,8,0:0:0:0:
192,352,222143,1,8,0:0:0:0:
288,320,222418,1,0,0:0:0:0:
192,352,222693,1,0,0:0:0:0:
288,320,222968,1,8,0:0:0:0:
192,352,223519,1,4,0:0:0:0:
192,352,225583,5,4,0:0:0:0:
288,320,226271,1,8,0:0:0:0:
192,352,226822,1,0,0:0:0:0:
288,320,227097,1,8,0:0:0:0:
192,352,227372,1,0,0:0:0:0:
288,320,227785,1,8,0:0:0:0:
288,320,228473,1,8,0:0:0:0:
192,352,228886,1,0,0:0:0:0:
192,352,229987,1,4,0:0:0:0:
288,320,230675,1,8,0:0:0:0:
192,352,231225,1,0,0:0:0:0:
288,320,231500,1,8,0:0:0:0:
192,352,231776,1,0,0:0:0:0:
288,320,232189,1,8,0:0:0:0:
192,352,232877,1,0,0:0:0:0:
288,320,233289,1,8,0:0:0:0:
288,320,233978,1,8,0:0:0:0:
192,352,234390,1,4,0:0:0:0:
192,352,235078,1,8,0:0:0:0:
192,352,235629,1,0,0:0:0:0:
288,320,235904,1,8,0:0:0:0:
192,352,236179,1,0,0:0:0:0:
288,320,236592,1,8,0:0:0:0:
288,320,237280,1,8,0:0:0:0:
192,352,237693,1,0,0:0:0:0:
192,352,238794,1,4,0:0:0:0:
288,320,239482,1,8,0:0:0:0:
192,352,240033,1,0,0:0:0:0:
288,320,240308,1,8,0:0:0:0:
192,352,240583,1,0,0:0:0:0:
288,320,240996,1,8,0:0:0:0:
192,352,241684,1,0,0:0:0:0:
288,320,242097,1,8,0:0:0:0:
288,320,242785,1,8,0:0:0:0:
192,352,243198,1,4,0:0:0:0:
