osu file format v14

[General]
AudioFilename: audio.ogg
AudioLeadIn: 0
PreviewTime: 192108
Countdown: 0
SampleSet: Normal
StackLeniency: 0.7
Mode: 1
LetterboxInBreaks: 0
WidescreenStoryboard: 1

[Editor]
Bookmarks: 2235,12005,20812,29757,38565,51638,60446,69253,78060,86868,96088,104620,117693,126501,135446,144115,152923,170675,179482,192556,201363,207968,216776,225583,234390
DistanceSpacing: 0.5
BeatDivisor: 4
GridSize: 32
TimelineZoom: 4.032038

[Metadata]
Title:Toaru Shoukoku no Ohimesama ga...
TitleUnicode:とある小国のお姫様が...
Artist:nao
ArtistUnicode:nao
Creator:gaston_2199
Version:08's Inner Oni
Source:姫様LOVEライフ!
Tags:innocent prelude. とある小国のお姫様が、会ったこともない兄の家にやってきて住みついた事情。 Toaru Shoukoku no Ohimesama ga, Atta koto mo nai Ani no Ie ni yattekite Sumitsuita Jijou. demetori 寺前甲 maya 山下慎一狼 princess sugar himesama love life eroge visual novel op opening video game japanese metal rock jrock j-rock paz08 [r] Ron KyeX SenSenko
BeatmapID:3508270
BeatmapSetID:1716803

[Difficulty]
HPDrainRate:6
CircleSize:2
OverallDifficulty:6.5
ApproachRate:10
SliderMultiplier:1.4
SliderTickRate:1

[Events]
//Background and Video events
0,0,"BG2.jpg",0,40
//Break Periods
2,183748,189353
//Storyboard Layer 0 (Background)
//Storyboard Layer 1 (Fail)
//Storyboard Layer 2 (Pass)
//Storyboard Layer 3 (Foreground)
//Storyboard Layer 4 (Overlay)
//Storyboard Sound Samples

[TimingPoints]
1134,275.229357798165,4,1,0,70,1,8
1134,-125.00001,4,1,0,70,0,0
2359,-121.09417,4,1,0,73,0,0
2497,-117.2832,4,1,0,76,0,0
2634,-113.6185,4,1,0,79,0,0
2703,-111.81635,4,1,0,80,0,0
2772,-110.04279,4,1,0,81,0,0
2910,-106.57962,4,1,0,84,0,0
3047,-103.249374,4,1,0,87,0,0
3185,-99.999985,4,1,0,90,0,0
11029,-100.01381,4,1,0,89,0,0
11166,-100.10944,4,1,0,88,0,0
11304,-100.37173,4,1,0,87,0,0
11442,-100.8873,4,1,0,86,0,0
11579,-101.742004,4,1,0,84,0,0
11648,-102.33395,4,1,0,84,0,0
11717,-103.05343,4,1,0,83,0,0
11786,-103.91688,4,1,0,83,0,0
11855,-104.94276,4,1,0,82,0,0
11992,-107.54648,4,1,0,81,0,0
12130,-111.111115,4,1,0,80,0,0
12405,-125,4,1,0,70,0,0
15433,-124.82753,4,1,0,72,0,0
15570,-124.423965,4,1,0,73,0,0
15708,-123.64072,4,1,0,74,0,0
15845,-122.38077,4,1,0,76,0,0
15983,-120.53572,4,1,0,77,0,0
16121,-118.04987,4,1,0,78,0,0
16258,-114.92015,4,1,0,79,0,0
16396,-111.111115,4,1,0,80,0,0
18736,-111.11097,4,1,0,80,0,0
18873,-111.10875,4,1,0,80,0,0
19010,-111.09923,4,1,0,80,0,0
19148,-111.07339,4,1,0,80,0,0
19217,-111.05058,4,1,0,80,0,0
19286,-111.018776,4,1,0,80,0,0
19423,-110.92037,4,1,0,80,0,0
19561,-110.75751,4,1,0,80,0,0
19699,-110.5083,4,1,0,80,0,0
19836,-110.15059,4,1,0,80,0,0
19905,-109.92037,4,1,0,80,0,0
19974,-109.65188,4,1,0,80,0,0
20043,-109.34144,4,1,0,80,0,0
20111,-108.99089,4,1,0,80,0,0
20249,-108.128716,4,1,0,80,0,0
20524,-105.71125,4,1,0,80,0,0
20799,-102.20688,4,1,0,80,0,0
20937,-100,4,1,0,80,0,0
21225,-125,4,1,0,70,0,0
24377,-124.880844,4,1,0,71,0,0
24446,-124.67019,4,1,0,72,0,0
24515,-124.322784,4,1,0,73,0,0
24653,-123.14588,4,1,0,74,0,0
24790,-121.263374,4,1,0,76,0,0
24928,-118.60391,4,1,0,77,0,0
25066,-115.18917,4,1,0,79,0,0
25203,-111.111115,4,1,0,80,0,0
27817,-111.1075,4,1,0,80,0,0
27955,-111.081924,4,1,0,80,0,0
28024,-111.053986,4,1,0,80,0,0
28093,-111.0123,4,1,0,80,0,0
28230,-110.878006,4,1,0,80,0,0
28368,-110.65574,4,1,0,80,0,0
28506,-110.32543,4,1,0,80,0,0
28643,-109.8712,4,1,0,80,0,0
28712,-109.589035,4,1,0,80,0,0
28781,-109.26829,4,1,0,80,0,0
28850,-108.90696,4,1,0,80,0,0
28918,-108.50941,4,1,0,80,0,0
29056,-107.569725,4,1,0,80,0,0
29194,-106.443184,4,1,0,80,0,0
29263,-105.80732,4,1,0,80,0,0
29332,-105.12214,4,1,0,80,0,0
29400,-104.39826,4,1,0,80,0,0
29469,-103.61426,4,1,0,80,0,0
29607,-101.897354,4,1,0,80,0,0
29744,-100,4,1,0,80,0,0
30020,-125,4,1,0,70,0,0
36900,-124.98285,4,1,0,71,0,0
37038,-124.92884,4,1,0,72,0,0
37176,-124.804985,4,1,0,73,0,0
37313,-124.57654,4,1,0,74,0,0
37382,-124.4091,4,1,0,74,0,0
37451,-124.199486,4,1,0,74,0,0
37588,-123.63648,4,1,0,75,0,0
37726,-122.83528,4,1,0,76,0,0
37864,-121.75613,4,1,0,76,0,0
37933,-121.09974,4,1,0,77,0,0
38001,-120.370766,4,1,0,77,0,0
38070,-119.54383,4,1,0,77,0,0
38139,-118.62556,4,1,0,78,0,0
38277,-116.504265,4,1,0,79,0,0
38414,-114.012184,4,1,0,79,0,0
38552,-111.111115,4,1,0,80,0,0
43231,-117.64706,4,1,0,80,0,0
43506,-117.62692,4,1,0,80,0,0
43644,-117.57887,4,1,0,80,0,0
43919,-117.33246,4,1,0,80,0,0
44056,-117.10566,4,1,0,80,0,0
44332,-116.368324,4,1,0,80,0,0
44469,-115.83742,4,1,0,80,0,0
44607,-115.17647,4,1,0,80,0,0
44744,-114.38518,4,1,0,80,0,0
44882,-113.443634,4,1,0,80,0,0
45020,-112.35056,4,1,0,80,0,0
45157,-111.111115,4,1,0,80,0,0
45433,-111.10806,4,1,0,80,0,0
45708,-111.06274,4,1,0,80,0,0
45845,-110.99359,4,1,0,80,0,0
45983,-110.86721,4,1,0,80,0,0
46121,-110.65948,4,1,0,80,0,0
46189,-110.51868,4,1,0,80,0,0
46258,-110.344826,4,1,0,80,0,0
46396,-109.88728,4,1,0,80,0,0
46533,-109.26003,4,1,0,80,0,0
46671,-108.41898,4,1,0,80,0,0
46740,-107.90876,4,1,0,80,0,0
46809,-107.33311,4,1,0,80,0,0
46946,-105.98065,4,1,0,80,0,0
47084,-104.31351,4,1,0,80,0,0
47221,-102.33408,4,1,0,80,0,0
47359,-100,4,1,0,80,0,0
47634,-99.94491,4,1,0,81,0,0
47772,-99.84789,4,1,0,81,0,0
47841,-99.77633,4,1,0,81,0,0
47910,-99.68777,4,1,0,81,0,0
48047,-99.45729,4,1,0,82,0,0
48185,-99.14556,4,1,0,82,0,0
48322,-98.751,4,1,0,82,0,0
48391,-98.51859,4,1,0,82,0,0
48460,-98.26294,4,1,0,83,0,0
48598,-97.68025,4,1,0,83,0,0
48735,-97.00567,4,1,0,83,0,0
48804,-96.62918,4,1,0,83,0,0
48873,-96.22798,4,1,0,83,0,0
48942,-95.80208,4,1,0,84,0,0
49010,-95.35824,4,1,0,84,0,0
49148,-94.38456,4,1,0,84,0,0
49286,-93.314835,4,1,0,84,0,0
49423,-92.16071,4,1,0,85,0,0
49561,-90.90909,4,1,0,85,0,0
51638,-100,4,1,0,90,0,1
62359,-98.38294,4,1,0,90,0,1
62497,-96.79203,4,1,0,90,0,1
62634,-90.9090909090909,4,1,0,90,0,1
62785,-96.803474,4,1,0,90,0,1
63047,-98.38294,4,1,0,90,0,1
63185,-90.9090909090909,4,1,0,90,0,1
63460,-95.34626,4,1,0,90,0,1
63598,-93.093185,4,1,0,90,0,1
63735,-86.9565217391304,4,1,0,90,0,1
63873,-90.91723,4,1,0,90,0,1
64010,-90.973526,4,1,0,90,0,1
64148,-91.12772,4,1,0,90,0,1
64286,-91.42999,4,1,0,90,0,1
64355,-91.65303,4,1,0,90,0,1
64423,-91.92869,4,1,0,90,0,1
64561,-92.6881,4,1,0,90,0,1
64699,-93.77004,4,1,0,90,0,1
64836,-86.9565217391304,4,1,0,90,0,1
64987,-95.2380952380952,4,1,0,90,0,1
66088,-86.9565217391304,4,1,0,90,0,1
66638,-100,4,1,0,90,0,1
67189,-86.9565217391304,4,1,0,90,0,1
67451,-95.239525,4,1,0,90,0,1
67726,-95.26097,4,1,0,90,0,1
68001,-95.354004,4,1,0,90,0,1
68139,-95.4535,4,1,0,90,0,1
68277,-95.60672,4,1,0,90,0,1
68552,-96.14243,4,1,0,90,0,1
68689,-96.565865,4,1,0,90,0,1
68758,-96.82948,4,1,0,90,0,1
68827,-97.13171,4,1,0,90,0,1
68965,-97.86853,4,1,0,90,0,1
69102,-98.80546,4,1,0,90,0,1
69253,-100,4,1,0,90,0,0
78185,-125,4,1,0,70,0,0
81763,-124.63721,4,1,0,73,0,0
81900,-123.788284,4,1,0,74,0,0
81969,-123.08282,4,1,0,75,0,0
82038,-122.155334,4,1,0,76,0,0
82176,-119.550606,4,1,0,77,0,0
82313,-115.89155,4,1,0,79,0,0
82451,-111.111115,4,1,0,80,0,0
84928,-111.11092,4,1,0,80,0,0
85066,-111.10806,4,1,0,80,0,0
85203,-111.09584,4,1,0,80,0,0
85272,-111.08278,4,1,0,80,0,0
85341,-111.06274,4,1,0,80,0,0
85478,-110.99359,4,1,0,80,0,0
85616,-110.86721,4,1,0,80,0,0
85754,-110.65948,4,1,0,80,0,0
85891,-110.344826,4,1,0,80,0,0
86029,-109.88728,4,1,0,80,0,0
86098,-109.59507,4,1,0,80,0,0
86166,-109.26003,4,1,0,80,0,0
86304,-108.41898,4,1,0,80,0,0
86442,-107.33311,4,1,0,80,0,0
86510,-106.69787,4,1,0,80,0,0
86579,-105.98065,4,1,0,80,0,0
86717,-104.31351,4,1,0,80,0,0
86855,-102.31841,4,1,0,80,0,0
86992,-100,4,1,0,80,0,0
87143,-125,4,1,0,70,0,0
90295,-124.23376,4,1,0,72,0,0
90433,-123.28495,4,1,0,73,0,0
90501,-122.685005,4,1,0,74,0,0
90570,-121.99033,4,1,0,74,0,0
90708,-120.35373,4,1,0,76,0,0
90845,-118.426094,4,1,0,77,0,0
90983,-116.21046,4,1,0,78,0,0
91052,-115.01004,4,1,0,78,0,0
91121,-113.753716,4,1,0,79,0,0
91258,-111.111115,4,1,0,80,0,0
93735,-111.10798,4,1,0,80,0,0
93873,-111.08578,4,1,0,80,0,0
94010,-111.02597,4,1,0,80,0,0
94079,-110.975685,4,1,0,80,0,0
94148,-110.908745,4,1,0,80,0,0
94286,-110.715706,4,1,0,80,0,0
94423,-110.43109,4,1,0,80,0,0
94561,-110.03347,4,1,0,80,0,0
94699,-109.50831,4,1,0,80,0,0
94767,-109.19805,4,1,0,80,0,0
94836,-108.84623,4,1,0,80,0,0
94905,-108.4556,4,1,0,80,0,0
94974,-108.024734,4,1,0,80,0,0
95111,-107.04523,4,1,0,80,0,0
95249,-105.88537,4,1,0,80,0,0
95387,-104.54647,4,1,0,80,0,0
95524,-103.03807,4,1,0,80,0,0
95662,-101.33926,4,1,0,80,0,0
95799,-99.47891,4,1,0,80,0,0
95868,-98.478584,4,1,0,80,0,0
95937,-97.43738,4,1,0,80,0,0
96019,-96.1538461538461,4,1,0,80,0,0
96075,-95.2381,4,1,0,80,0,0
103644,-97.096115,4,1,0,80,0,0
103712,-98.02494,4,1,0,80,0,0
103781,-98.976524,4,1,0,80,0,0
103919,-100.90748,4,1,0,80,0,0
104056,-102.8617,4,1,0,80,0,0
104194,-104.868454,4,1,0,80,0,0
104332,-106.91435,4,1,0,80,0,0
104469,-108.98491,4,1,0,80,0,0
104607,-111.111115,4,1,0,80,0,0
109286,-105.263157894737,4,1,0,80,0,0
111763,-105.24704,4,1,0,80,0,0
111900,-105.20896,4,1,0,80,0,0
112038,-105.13431,4,1,0,80,0,0
112176,-105.01124,4,1,0,80,0,0
112244,-104.92917,4,1,0,80,0,0
112313,-104.82953,4,1,0,80,0,0
112451,-104.57517,4,1,0,80,0,0
112588,-104.24106,4,1,0,80,0,0
112726,-103.812096,4,1,0,80,0,0
112795,-103.559845,4,1,0,80,0,0
112864,-103.28094,4,1,0,80,0,0
113001,-102.6442,4,1,0,80,0,0
113139,-101.88538,4,1,0,80,0,0
113277,-101.002846,4,1,0,80,0,0
113414,-100,4,1,0,80,0,0
113689,-99.99655,4,1,0,81,0,0
113827,-99.98572,4,1,0,81,0,0
113896,-99.97547,4,1,0,81,0,0
113965,-99.96083,4,1,0,81,0,0
114102,-99.914825,4,1,0,82,0,0
114240,-99.83862,4,1,0,82,0,0
114377,-99.7242,4,1,0,82,0,0
114446,-99.64888,4,1,0,82,0,0
114515,-99.56,4,1,0,83,0,0
114653,-99.33631,4,1,0,83,0,0
114790,-99.04478,4,1,0,83,0,0
114859,-98.86836,4,1,0,83,0,0
114928,-98.67035,4,1,0,83,0,0
114997,-98.44938,4,1,0,84,0,0
115066,-98.20413,4,1,0,84,0,0
115203,-97.640205,4,1,0,84,0,0
115341,-96.96059,4,1,0,84,0,0
115478,-96.16631,4,1,0,85,0,0
115616,-95.2381,4,1,0,85,0,0
117693,-100,4,1,0,90,0,1
128415,-98.38294,4,1,0,90,0,1
128553,-96.79203,4,1,0,90,0,1
128690,-90.9090909090909,4,1,0,90,0,1
128840,-96.803474,4,1,0,90,0,1
129103,-98.38294,4,1,0,90,0,1
129241,-90.9090909090909,4,1,0,90,0,1
129516,-90.9090909090909,4,1,0,90,0,1
129654,-93.093185,4,1,0,90,0,1
129791,-86.9565217391304,4,1,0,90,0,1
129929,-90.91723,4,1,0,90,0,1
130066,-90.973526,4,1,0,90,0,1
130204,-91.12772,4,1,0,90,0,1
130342,-91.42999,4,1,0,90,0,1
130411,-91.65303,4,1,0,90,0,1
130479,-91.92869,4,1,0,90,0,1
130617,-92.6881,4,1,0,90,0,1
130755,-93.77004,4,1,0,90,0,1
130892,-86.9565217391304,4,1,0,90,0,1
131042,-95.2380952380952,4,1,0,90,0,1
132143,-86.9565217391304,4,1,0,90,0,1
132680,-102.8617,4,1,0,85,0,1
133231,-111.111115,4,1,0,80,0,1
134332,-117.647058823529,4,1,0,80,0,1
135445,-117.647058823529,4,1,0,80,0,0
139974,-117.64704,4,1,0,80,0,0
140249,-117.64524,4,1,0,81,0,0
140387,-117.64128,4,1,0,81,0,0
140662,-117.61788,4,1,0,82,0,0
140799,-117.59317,4,1,0,82,0,0
140937,-117.555016,4,1,0,83,0,0
141075,-117.49951,4,1,0,83,0,0
141212,-117.42277,4,1,0,83,0,0
141488,-117.18202,4,1,0,84,0,0
141625,-117.00844,4,1,0,84,0,0
141763,-116.788994,4,1,0,85,0,0
141900,-116.52031,4,1,0,85,0,0
142038,-116.19149,4,1,0,85,0,0
142313,-115.333664,4,1,0,86,0,0
142451,-114.78704,4,1,0,86,0,0
142588,-114.15815,4,1,0,86,0,0
142726,-113.430954,4,1,0,87,0,0
142864,-112.603195,4,1,0,87,0,0
143001,-111.6761,4,1,0,87,0,0
143070,-111.16776,4,1,0,88,0,0
143139,-110.6309,4,1,0,88,0,0
143277,-109.46955,4,1,0,88,0,0
143345,-108.85349,4,1,0,88,0,0
143414,-108.19838,4,1,0,88,0,0
143552,-106.79658,4,1,0,89,0,0
143621,-106.04963,4,1,0,89,0,0
143689,-105.283455,4,1,0,89,0,0
143758,-104.47559,4,1,0,89,0,0
143827,-103.63727,4,1,0,89,0,0
143965,-101.87036,4,1,0,90,0,0
144115,-100,4,1,0,90,0,1
161442,-104.31087,4,1,0,88,0,1
161510,-105.4012,4,1,0,88,0,1
161579,-106.51921,4,1,0,87,0,1
161717,-108.79094,4,1,0,86,0,1
161867,-111.111115,4,1,0,85,0,0
169010,-111.07525,4,1,0,86,0,0
169148,-110.98971,4,1,0,86,0,0
169286,-110.82324,4,1,0,86,0,0
169423,-110.55208,4,1,0,87,0,0
169492,-110.367676,4,1,0,87,0,0
169561,-110.147224,4,1,0,87,0,0
169699,-109.58671,4,1,0,88,0,0
169836,-108.8552,4,1,0,88,0,0
169974,-107.92366,4,1,0,88,0,0
170111,-106.79093,4,1,0,89,0,0
170180,-106.13845,4,1,0,89,0,0
170249,-105.42975,4,1,0,89,0,0
170318,-104.66418,4,1,0,89,0,0
170387,-103.84147,4,1,0,89,0,0
170524,-102.03898,4,1,0,90,0,0
170675,-100,4,1,0,90,0,1
177405,-99.99969,4,1,0,90,0,1
177543,-99.99652,4,1,0,90,0,1
177680,-99.98572,4,1,0,90,0,1
177749,-99.97547,4,1,0,90,0,1
177818,-99.96083,4,1,0,90,0,1
177955,-99.914825,4,1,0,90,0,1
178093,-99.83862,4,1,0,90,0,1
178231,-99.72319,4,1,0,90,0,1
178299,-99.64888,4,1,0,90,0,1
178368,-99.56,4,1,0,90,0,1
178506,-99.33631,4,1,0,90,0,1
178644,-99.042366,4,1,0,90,0,1
178781,-98.67035,4,1,0,90,0,1
178850,-98.44938,4,1,0,90,0,1
178919,-98.20413,4,1,0,90,0,1
178988,-97.93332,4,1,0,90,0,1
179056,-97.640205,4,1,0,90,0,1
179125,-97.31497,4,1,0,90,0,1
179194,-96.96059,4,1,0,90,0,1
179332,-96.160065,4,1,0,90,0,1
179469,-95.2381,4,1,0,90,0,1
179744,-95.237656,4,1,0,90,0,1
179882,-95.235886,4,1,0,90,0,1
179951,-95.23398,4,1,0,90,0,1
180020,-95.23107,4,1,0,90,0,1
180157,-95.22103,4,1,0,90,0,1
180295,-95.20264,4,1,0,90,0,1
180433,-95.172325,4,1,0,90,0,1
180501,-95.15174,4,1,0,90,0,1
180570,-95.12626,4,1,0,90,0,1
180708,-95.05885,4,1,0,90,0,1
180845,-94.96569,4,1,0,90,0,1
180914,-94.907005,4,1,0,90,0,1
180983,-94.83937,4,1,0,90,0,1
181052,-94.761955,4,1,0,90,0,1
181121,-94.673874,4,1,0,90,0,1
181258,-94.46385,4,1,0,90,0,1
181396,-94.19878,4,1,0,90,0,1
181533,-93.874886,4,1,0,90,0,1
181671,-93.479515,4,1,0,90,0,1
181809,-93.00681,4,1,0,90,0,1
181877,-92.74302,4,1,0,90,0,1
181946,-92.45324,4,1,0,90,0,1
182084,-91.80315,4,1,0,90,0,1
182221,-91.05891,4,1,0,90,0,1
182290,-90.64472,4,1,0,90,0,1
182359,-90.20321,4,1,0,90,0,1
182497,-89.23552,4,1,0,90,0,1
182634,-88.1596,4,1,0,90,0,1
182772,-86.95652,4,1,0,90,0,1
183748,-125,4,1,0,70,0,0
189790,-124.89252,4,1,0,70,0,0
189859,-124.757225,4,1,0,70,0,0
189928,-124.568,4,1,0,70,0,0
190478,-121.216576,4,1,0,70,0,0
190754,-118.41728,4,1,0,70,0,0
191029,-115.013756,4,1,0,70,0,0
191304,-111.111115,4,1,0,70,0,0
191579,-90.9090909090909,4,1,0,80,0,0
192556,-100,4,1,0,90,0,1
203277,-98.38294,4,1,0,90,0,1
203415,-96.79203,4,1,0,90,0,1
203552,-90.9090909090909,4,1,0,90,0,1
203702,-96.803474,4,1,0,90,0,1
203965,-98.38294,4,1,0,90,0,1
204103,-90.9090909090909,4,1,0,90,0,1
204378,-95.34626,4,1,0,90,0,1
204516,-93.093185,4,1,0,90,0,1
204653,-86.9565217391304,4,1,0,90,0,1
204791,-90.91723,4,1,0,90,0,1
204928,-90.91873,4,1,0,90,0,1
205066,-90.92946,4,1,0,90,0,1
205204,-90.95868,4,1,0,90,0,1
205273,-90.98314,4,1,0,90,0,1
205341,-91.01519,4,1,0,90,0,1
205479,-91.10917,4,1,0,90,0,1
205617,-91.2499,4,1,0,90,0,1
205754,-91.44553,4,1,0,90,0,1
205822,-91.56639,4,1,0,90,0,1
205891,-91.706856,4,1,0,90,0,1
205960,-91.866615,4,1,0,90,0,1
206029,-92.047066,4,1,0,90,0,1
206166,-92.47234,4,1,0,90,0,1
206304,-93.000984,4,1,0,90,0,1
206373,-93.3071,4,1,0,90,0,1
206442,-93.64345,4,1,0,90,0,1
206579,-94.40827,4,1,0,90,0,1
206648,-94.846375,4,1,0,90,0,1
206717,-95.322845,4,1,0,90,0,1
206855,-96.400635,4,1,0,90,0,1
207005,-97.65301,4,1,0,90,0,0
207061,-98.360054,4,1,0,90,0,0
207130,-99.12274,4,1,0,90,0,0
207199,-99.94481,4,1,0,90,0,0
207267,-100.817055,4,1,0,90,0,0
207336,-101.769554,4,1,0,90,0,0
207405,-102.79486,4,1,0,90,0,0
207474,-103.89835,4,1,0,90,0,0
207543,-105.08598,4,1,0,90,0,0
207680,-107.719986,4,1,0,90,0,0
207831,-111.111115,4,1,0,90,0,0
207968,-100,4,1,0,90,0,1
218690,-98.38294,4,1,0,90,0,1
218828,-96.79203,4,1,0,90,0,1
218965,-90.9090909090909,4,1,0,90,0,1
219115,-96.803474,4,1,0,90,0,1
219378,-98.38294,4,1,0,90,0,1
219516,-90.9090909090909,4,1,0,90,0,1
219791,-95.34626,4,1,0,90,0,1
219929,-93.093185,4,1,0,90,0,1
220066,-86.9565217391304,4,1,0,90,0,1
220204,-90.91723,4,1,0,90,0,1
220341,-90.973526,4,1,0,90,0,1
220479,-91.12772,4,1,0,90,0,1
220617,-91.42999,4,1,0,90,0,1
220686,-91.65303,4,1,0,90,0,1
220754,-91.92869,4,1,0,90,0,1
220892,-92.6881,4,1,0,90,0,1
221030,-93.77004,4,1,0,90,0,1
221166,-86.9565217391304,4,1,0,90,0,1
221305,-95.24089,4,1,0,90,0,1
221442,-95.24418,4,1,0,89,0,1
221579,-95.26714,4,1,0,89,0,1
221717,-95.33019,4,1,0,88,0,1
221786,-95.38308,4,1,0,88,0,1
221855,-95.45363,4,1,0,88,0,1
221992,-95.656364,4,1,0,87,0,1
222061,-95.79536,4,1,0,87,0,1
222130,-95.96271,4,1,0,86,0,1
222267,-96.390434,4,1,0,86,0,1
222405,-96.96983,4,1,0,85,0,1
222474,-97.323586,4,1,0,85,0,1
222543,-97.72478,4,1,0,84,0,1
222611,-98.170265,4,1,0,84,0,1
222680,-98.677185,4,1,0,84,0,1
222749,-99.24375,4,1,0,83,0,1
222818,-99.87469,4,1,0,83,0,1
222887,-100.575165,4,1,0,83,0,1
222955,-101.338974,4,1,0,83,0,1
223093,-103.13837,4,1,0,82,0,1
223231,-105.32058,4,1,0,81,0,1
223368,-107.935776,4,1,0,81,0,1
223506,-111.111115,4,1,0,80,0,1
225020,-108.7876,4,1,0,90,0,1
225088,-107.66062,4,1,0,90,0,1
225157,-106.528984,4,1,0,90,0,1
225295,-104.30129,4,1,0,90,0,1
225433,-102.120186,4,1,0,90,0,1
225583,-100,4,1,0,90,0,0

[HitObjects]
256,192,2234,5,8,0:0:0:0:
256,192,2372,1,0,0:0:0:0:
256,192,2510,1,8,0:0:0:0:
256,192,2647,1,0,0:0:0:0:
256,192,2716,1,0,0:0:0:0:
256,192,2785,1,8,0:0:0:0:
256,192,2922,1,0,0:0:0:0:
256,192,3060,1,0,0:0:0:0:
256,192,3198,1,12,0:0:0:0:
256,192,3473,1,0,0:0:0:0:
256,192,3611,1,8,0:0:0:0:
256,192,3748,1,0,0:0:0:0:
256,192,3817,1,0,0:0:0:0:
256,192,3886,1,8,0:0:0:0:
256,192,4023,1,0,0:0:0:0:
256,192,4161,1,8,0:0:0:0:
256,192,4299,1,8,0:0:0:0:
256,192,4574,1,0,0:0:0:0:
256,192,4711,1,8,0:0:0:0:
256,192,4849,1,8,0:0:0:0:
256,192,4987,1,0,0:0:0:0:
256,192,5056,1,8,0:0:0:0:
256,192,5124,1,0,0:0:0:0:
256,192,5193,1,0,0:0:0:0:
256,192,5262,1,8,0:0:0:0:
256,192,5400,1,8,0:0:0:0:
256,192,5675,1,0,0:0:0:0:
256,192,5812,1,8,0:0:0:0:
256,192,5950,1,0,0:0:0:0:
256,192,6019,1,0,0:0:0:0:
256,192,6088,1,8,0:0:0:0:
256,192,6225,1,0,0:0:0:0:
256,192,6363,1,8,0:0:0:0:
256,192,6500,1,0,0:0:0:0:
256,192,6776,1,0,0:0:0:0:
256,192,6913,1,8,0:0:0:0:
256,192,7051,1,8,0:0:0:0:
256,192,7189,1,0,0:0:0:0:
256,192,7257,1,0,0:0:0:0:
256,192,7326,1,8,0:0:0:0:
256,192,7395,1,0,0:0:0:0:
256,192,7464,1,8,0:0:0:0:
256,192,7601,1,4,0:0:0:0:
256,192,7877,1,0,0:0:0:0:
256,192,8014,1,8,0:0:0:0:
256,192,8152,1,0,0:0:0:0:
256,192,8221,1,0,0:0:0:0:
256,192,8289,1,8,0:0:0:0:
256,192,8427,1,0,0:0:0:0:
256,192,8565,1,8,0:0:0:0:
256,192,8702,1,8,0:0:0:0:
256,192,8978,1,0,0:0:0:0:
256,192,9115,1,8,0:0:0:0:
256,192,9253,1,0,0:0:0:0:
256,192,9390,1,8,0:0:0:0:
256,192,9459,1,8,0:0:0:0:
256,192,9528,1,0,0:0:0:0:
256,192,9597,1,0,0:0:0:0:
256,192,9666,1,8,0:0:0:0:
256,192,9803,1,4,0:0:0:0:
256,192,10078,1,0,0:0:0:0:
256,192,10216,1,8,0:0:0:0:
256,192,10354,1,0,0:0:0:0:
256,192,10422,1,0,0:0:0:0:
256,192,10491,1,8,0:0:0:0:
256,192,10629,1,0,0:0:0:0:
256,192,10767,1,8,0:0:0:0:
256,192,10904,1,12,0:0:0:0:
256,192,11179,1,0,0:0:0:0:
256,192,11317,1,8,0:0:0:0:
256,192,11455,1,0,0:0:0:0:
256,192,11592,1,8,0:0:0:0:
256,192,11661,1,8,0:0:0:0:
256,192,11730,1,0,0:0:0:0:
256,192,11799,1,0,0:0:0:0:
256,192,11867,1,8,0:0:0:0:
256,192,12005,1,4,0:0:0:0:
256,192,12418,1,8,0:0:0:0:
256,192,12968,1,8,0:0:0:0:
256,192,13519,1,8,0:0:0:0:
256,192,13794,1,0,0:0:0:0:
256,192,13932,1,8,0:0:0:0:
256,192,14207,1,4,0:0:0:0:
256,192,14620,1,8,0:0:0:0:
256,192,15170,1,8,0:0:0:0:
256,192,15583,1,0,0:0:0:0:
256,192,15721,1,8,0:0:0:0:
256,192,15858,1,0,0:0:0:0:
256,192,15996,1,8,0:0:0:0:
256,192,16133,1,8,0:0:0:0:
256,192,16271,1,8,0:0:0:0:
256,192,16409,1,4,0:0:0:0:
256,192,16684,1,0,0:0:0:0:
256,192,16822,1,8,0:0:0:0:
256,192,17097,1,0,0:0:0:0:
256,192,17234,1,0,0:0:0:0:
256,192,17303,1,0,0:0:0:0:
256,192,17372,1,8,0:0:0:0:
256,192,17510,1,0,0:0:0:0:
256,192,17785,1,0,0:0:0:0:
256,192,17922,1,8,0:0:0:0:
256,192,18060,1,0,0:0:0:0:
256,192,18129,1,0,0:0:0:0:
256,192,18198,1,8,0:0:0:0:
256,192,18335,1,0,0:0:0:0:
256,192,18473,1,0,0:0:0:0:
256,192,18611,1,12,0:0:0:0:
256,192,18886,1,0,0:0:0:0:
256,192,19023,1,8,0:0:0:0:
256,192,19161,1,0,0:0:0:0:
256,192,19230,1,0,0:0:0:0:
256,192,19299,1,0,0:0:0:0:
256,192,19436,1,0,0:0:0:0:
256,192,19574,1,8,0:0:0:0:
256,192,19711,1,0,0:0:0:0:
256,192,19849,1,8,0:0:0:0:
256,192,19918,1,8,0:0:0:0:
256,192,19987,1,0,0:0:0:0:
256,192,20056,1,0,0:0:0:0:
256,192,20124,1,0,0:0:0:0:
256,192,20262,1,12,0:0:0:0:
256,192,20537,1,12,0:0:0:0:
256,192,20812,1,4,0:0:0:0:
256,192,21225,1,8,0:0:0:0:
256,192,21776,1,8,0:0:0:0:
256,192,22326,1,8,0:0:0:0:
256,192,22601,1,0,0:0:0:0:
256,192,22739,1,8,0:0:0:0:
256,192,23014,1,4,0:0:0:0:
256,192,23427,1,8,0:0:0:0:
256,192,23978,1,8,0:0:0:0:
256,192,24390,1,0,0:0:0:0:
256,192,24459,1,0,0:0:0:0:
256,192,24528,1,8,0:0:0:0:
256,192,24666,1,0,0:0:0:0:
256,192,24803,1,8,0:0:0:0:
256,192,24941,1,8,0:0:0:0:
256,192,25078,1,8,0:0:0:0:
256,192,25216,1,4,0:0:0:0:
256,192,25491,1,0,0:0:0:0:
256,192,25629,1,8,0:0:0:0:
256,192,25904,1,0,0:0:0:0:
256,192,26042,1,0,0:0:0:0:
256,192,26111,1,0,0:0:0:0:
256,192,26179,1,8,0:0:0:0:
256,192,26317,1,0,0:0:0:0:
256,192,26592,1,0,0:0:0:0:
256,192,26730,1,8,0:0:0:0:
256,192,26867,1,0,0:0:0:0:
256,192,26936,1,0,0:0:0:0:
256,192,27005,1,0,0:0:0:0:
256,192,27143,1,0,0:0:0:0:
256,192,27280,1,8,0:0:0:0:
256,192,27418,1,4,0:0:0:0:
256,192,27693,1,0,0:0:0:0:
256,192,27831,1,8,0:0:0:0:
256,192,27968,1,0,0:0:0:0:
256,192,28037,1,0,0:0:0:0:
256,192,28106,1,8,0:0:0:0:
256,192,28244,1,0,0:0:0:0:
256,192,28381,1,8,0:0:0:0:
256,192,28519,1,0,0:0:0:0:
256,192,28656,1,8,0:0:0:0:
256,192,28725,1,8,0:0:0:0:
256,192,28794,1,0,0:0:0:0:
256,192,28863,1,0,0:0:0:0:
256,192,28932,1,8,0:0:0:0:
256,192,29069,1,0,0:0:0:0:
256,192,29207,1,8,0:0:0:0:
256,192,29276,1,0,0:0:0:0:
256,192,29345,1,8,0:0:0:0:
256,192,29413,1,8,0:0:0:0:
256,192,29482,1,0,0:0:0:0:
256,192,29620,1,8,0:0:0:0:
256,192,29757,1,4,0:0:0:0:
256,192,30033,1,0,0:0:0:0:
256,192,30308,1,8,0:0:0:0:
256,192,30583,1,0,0:0:0:0:
256,192,30858,1,8,0:0:0:0:
256,192,31133,1,8,0:0:0:0:
256,192,31409,1,0,0:0:0:0:
256,192,31684,1,8,0:0:0:0:
256,192,31822,1,0,0:0:0:0:
256,192,31959,1,8,0:0:0:0:
256,192,32234,1,8,0:0:0:0:
256,192,32510,1,0,0:0:0:0:
256,192,32785,1,0,0:0:0:0:
256,192,33060,1,8,0:0:0:0:
256,192,33335,1,0,0:0:0:0:
256,192,33611,1,0,0:0:0:0:
256,192,33748,1,8,0:0:0:0:
256,192,33886,1,0,0:0:0:0:
256,192,34023,1,0,0:0:0:0:
256,192,34092,1,0,0:0:0:0:
256,192,34161,1,8,0:0:0:0:
256,192,34436,1,8,0:0:0:0:
256,192,34711,1,8,0:0:0:0:
256,192,34987,1,0,0:0:0:0:
256,192,35262,1,8,0:0:0:0:
256,192,35537,1,0,0:0:0:0:
256,192,35812,1,8,0:0:0:0:
256,192,36088,1,0,0:0:0:0:
256,192,36225,1,8,0:0:0:0:
256,192,36363,1,0,0:0:0:0:
256,192,36500,1,0,0:0:0:0:
256,192,36638,1,8,0:0:0:0:
256,192,36913,1,0,0:0:0:0:
256,192,37051,1,8,0:0:0:0:
256,192,37189,1,8,0:0:0:0:
256,192,37326,1,0,0:0:0:0:
256,192,37395,1,0,0:0:0:0:
256,192,37464,1,8,0:0:0:0:
256,192,37601,1,0,0:0:0:0:
256,192,37739,1,8,0:0:0:0:
256,192,37877,1,0,0:0:0:0:
256,192,37945,1,8,0:0:0:0:
256,192,38014,1,8,0:0:0:0:
256,192,38083,1,8,0:0:0:0:
256,192,38152,1,0,0:0:0:0:
256,192,38289,1,8,0:0:0:0:
256,192,38427,1,8,0:0:0:0:
256,192,38565,1,4,0:0:0:0:
256,192,38840,1,8,0:0:0:0:
256,192,38978,1,0,0:0:0:0:
256,192,39046,1,0,0:0:0:0:
256,192,39115,1,8,0:0:0:0:
256,192,39253,1,0,0:0:0:0:
256,192,39390,1,8,0:0:0:0:
256,192,39528,1,0,0:0:0:0:
256,192,39666,1,8,0:0:0:0:
256,192,39734,1,8,0:0:0:0:
256,192,39803,1,0,0:0:0:0:
256,192,39941,1,8,0:0:0:0:
256,192,40078,1,0,0:0:0:0:
256,192,40147,1,0,0:0:0:0:
256,192,40216,1,0,0:0:0:0:
256,192,40354,1,0,0:0:0:0:
256,192,40491,1,8,0:0:0:0:
256,192,40560,1,8,0:0:0:0:
256,192,40629,1,0,0:0:0:0:
256,192,40767,1,12,0:0:0:0:
256,192,41042,1,8,0:0:0:0:
256,192,41179,1,0,0:0:0:0:
256,192,41248,1,0,0:0:0:0:
256,192,41317,1,0,0:0:0:0:
256,192,41455,1,8,0:0:0:0:
256,192,41592,1,0,0:0:0:0:
256,192,41730,1,0,0:0:0:0:
256,192,41867,1,8,0:0:0:0:
256,192,42005,1,0,0:0:0:0:
256,192,42074,1,0,0:0:0:0:
256,192,42143,1,8,0:0:0:0:
256,192,42280,1,0,0:0:0:0:
256,192,42418,1,8,0:0:0:0:
256,192,42487,1,8,0:0:0:0:
256,192,42556,1,0,0:0:0:0:
256,192,42693,1,0,0:0:0:0:
256,192,42831,1,8,0:0:0:0:
256,192,42968,1,4,0:0:0:0:
256,192,43244,1,8,0:0:0:0:
256,192,43519,1,0,0:0:0:0:
256,192,43656,1,8,0:0:0:0:
256,192,43932,1,0,0:0:0:0:
256,192,44069,1,8,0:0:0:0:
256,192,44345,1,0,0:0:0:0:
256,192,44482,1,8,0:0:0:0:
256,192,44620,1,0,0:0:0:0:
256,192,44757,1,0,0:0:0:0:
256,192,44895,1,8,0:0:0:0:
256,192,45033,1,8,0:0:0:0:
256,192,45170,1,4,0:0:0:0:
256,192,45445,1,8,0:0:0:0:
256,192,45721,1,0,0:0:0:0:
256,192,45858,1,8,0:0:0:0:
256,192,45996,1,8,0:0:0:0:
256,192,46133,1,0,0:0:0:0:
256,192,46202,1,0,0:0:0:0:
256,192,46271,1,8,0:0:0:0:
256,192,46409,1,0,0:0:0:0:
256,192,46546,1,8,0:0:0:0:
256,192,46684,1,0,0:0:0:0:
256,192,46753,1,0,0:0:0:0:
256,192,46822,1,8,0:0:0:0:
256,192,46959,1,0,0:0:0:0:
256,192,47097,1,0,0:0:0:0:
256,192,47234,1,0,0:0:0:0:
256,192,47372,1,12,0:0:0:0:
256,192,47647,1,8,0:0:0:0:
256,192,47785,1,0,0:0:0:0:
256,192,47854,1,0,0:0:0:0:
256,192,47922,1,8,0:0:0:0:
256,192,48060,1,0,0:0:0:0:
256,192,48198,1,8,0:0:0:0:
256,192,48335,1,0,0:0:0:0:
256,192,48404,1,0,0:0:0:0:
256,192,48473,1,8,0:0:0:0:
256,192,48611,1,0,0:0:0:0:
256,192,48748,1,8,0:0:0:0:
256,192,48817,1,8,0:0:0:0:
256,192,48886,1,0,0:0:0:0:
256,192,48955,1,0,0:0:0:0:
256,192,49023,1,8,0:0:0:0:
256,192,49161,1,0,0:0:0:0:
256,192,49299,1,8,0:0:0:0:
256,192,49436,1,0,0:0:0:0:
256,192,49574,1,12,0:0:0:0:
256,192,49849,1,0,0:0:0:0:
256,192,49987,1,12,0:0:0:0:
256,192,50262,1,8,0:0:0:0:
256,192,50400,1,4,0:0:0:0:
256,192,50675,1,12,0:0:0:0:
256,192,51638,1,4,0:0:0:0:
256,192,51913,1,0,0:0:0:0:
256,192,52051,1,8,0:0:0:0:
256,192,52189,1,8,0:0:0:0:
256,192,52257,1,8,0:0:0:0:
256,192,52326,1,0,0:0:0:0:
256,192,52464,1,0,0:0:0:0:
256,192,52601,1,8,0:0:0:0:
256,192,52670,1,8,0:0:0:0:
256,192,52739,1,0,0:0:0:0:
256,192,52808,1,0,0:0:0:0:
256,192,52877,1,0,0:0:0:0:
256,192,53014,1,0,0:0:0:0:
256,192,53152,1,8,0:0:0:0:
256,192,53221,1,0,0:0:0:0:
256,192,53289,1,8,0:0:0:0:
256,192,53358,1,8,0:0:0:0:
256,192,53427,1,0,0:0:0:0:
256,192,53496,1,8,0:0:0:0:
256,192,53565,1,0,0:0:0:0:
256,192,53702,1,8,0:0:0:0:
256,192,53840,1,0,0:0:0:0:
256,192,54115,1,0,0:0:0:0:
256,192,54253,1,8,0:0:0:0:
256,192,54390,1,0,0:0:0:0:
256,192,54459,1,0,0:0:0:0:
256,192,54528,1,0,0:0:0:0:
256,192,54666,1,0,0:0:0:0:
256,192,54803,1,8,0:0:0:0:
256,192,54941,1,0,0:0:0:0:
256,192,55010,1,0,0:0:0:0:
256,192,55078,1,8,0:0:0:0:
256,192,55216,1,0,0:0:0:0:
256,192,55354,1,8,0:0:0:0:
256,192,55491,1,0,0:0:0:0:
256,192,55560,1,0,0:0:0:0:
256,192,55629,1,8,0:0:0:0:
256,192,55698,1,0,0:0:0:0:
256,192,55767,1,0,0:0:0:0:
256,192,55904,1,0,0:0:0:0:
256,192,56042,1,12,0:0:0:0:
256,192,56317,1,0,0:0:0:0:
256,192,56455,1,8,0:0:0:0:
256,192,56592,1,0,0:0:0:0:
256,192,56661,1,8,0:0:0:0:
256,192,56730,1,0,0:0:0:0:
256,192,56867,1,0,0:0:0:0:
256,192,57005,1,8,0:0:0:0:
256,192,57074,1,0,0:0:0:0:
256,192,57143,1,0,0:0:0:0:
256,192,57211,1,0,0:0:0:0:
256,192,57280,1,8,0:0:0:0:
256,192,57418,1,0,0:0:0:0:
256,192,57556,1,8,0:0:0:0:
256,192,57624,1,8,0:0:0:0:
256,192,57693,1,0,0:0:0:0:
256,192,57762,1,0,0:0:0:0:
256,192,57831,1,8,0:0:0:0:
256,192,57968,1,0,0:0:0:0:
256,192,58037,1,0,0:0:0:0:
256,192,58106,1,8,0:0:0:0:
256,192,58244,1,0,0:0:0:0:
256,192,58519,1,0,0:0:0:0:
256,192,58656,1,8,0:0:0:0:
256,192,58794,1,0,0:0:0:0:
256,192,58863,1,0,0:0:0:0:
256,192,58932,1,8,0:0:0:0:
256,192,59069,1,0,0:0:0:0:
256,192,59207,1,8,0:0:0:0:
256,192,59276,1,0,0:0:0:0:
256,192,59345,1,8,0:0:0:0:
256,192,59413,1,8,0:0:0:0:
256,192,59482,1,0,0:0:0:0:
256,192,59551,1,0,0:0:0:0:
256,192,59620,1,0,0:0:0:0:
256,192,59757,1,8,0:0:0:0:
256,192,59895,1,0,0:0:0:0:
256,192,59964,1,0,0:0:0:0:
256,192,60033,1,8,0:0:0:0:
256,192,60170,1,8,0:0:0:0:
256,192,60308,1,8,0:0:0:0:
256,192,60445,1,4,0:0:0:0:
256,192,60721,1,0,0:0:0:0:
256,192,60858,1,8,0:0:0:0:
256,192,60927,1,0,0:0:0:0:
256,192,60996,1,0,0:0:0:0:
256,192,61065,1,0,0:0:0:0:
256,192,61133,1,8,0:0:0:0:
256,192,61271,1,0,0:0:0:0:
256,192,61409,1,8,0:0:0:0:
256,192,61546,1,8,0:0:0:0:
256,192,61615,1,0,0:0:0:0:
256,192,61684,1,0,0:0:0:0:
256,192,61822,1,0,0:0:0:0:
256,192,61959,1,8,0:0:0:0:
256,192,62028,1,8,0:0:0:0:
256,192,62097,1,0,0:0:0:0:
256,192,62166,1,0,0:0:0:0:
256,192,62234,1,8,0:0:0:0:
256,192,62372,1,0,0:0:0:0:
256,192,62510,1,0,0:0:0:0:
256,192,62647,1,12,0:0:0:0:
256,192,62922,1,8,0:0:0:0:
256,192,63060,1,8,0:0:0:0:
256,192,63198,1,4,0:0:0:0:
256,192,63473,1,0,0:0:0:0:
256,192,63611,1,0,0:0:0:0:
256,192,63748,1,12,0:0:0:0:
256,192,64023,1,0,0:0:0:0:
256,192,64161,1,8,0:0:0:0:
256,192,64299,1,0,0:0:0:0:
256,192,64367,1,0,0:0:0:0:
256,192,64436,1,8,0:0:0:0:
256,192,64574,1,0,0:0:0:0:
256,192,64711,1,8,0:0:0:0:
256,192,64849,1,4,0:0:0:0:
256,192,65124,1,0,0:0:0:0:
256,192,65262,1,8,0:0:0:0:
256,192,65400,1,0,0:0:0:0:
256,192,65468,1,0,0:0:0:0:
256,192,65537,1,8,0:0:0:0:
256,192,65675,1,0,0:0:0:0:
256,192,65744,1,0,0:0:0:0:
256,192,65812,1,8,0:0:0:0:
256,192,65950,1,0,0:0:0:0:
256,192,66088,1,12,0:0:0:0:
256,192,66638,1,8,0:0:0:0:
256,192,67189,1,4,0:0:0:0:
256,192,67464,1,0,0:0:0:0:
256,192,67739,1,8,0:0:0:0:
256,192,68014,1,0,0:0:0:0:
256,192,68152,1,0,0:0:0:0:
256,192,68289,1,8,0:0:0:0:
256,192,68565,1,0,0:0:0:0:
256,192,68702,1,8,0:0:0:0:
256,192,68771,1,8,0:0:0:0:
256,192,68840,1,8,0:0:0:0:
256,192,68978,1,0,0:0:0:0:
256,192,69115,1,0,0:0:0:0:
256,192,69253,1,12,0:0:0:0:
256,192,69528,1,0,0:0:0:0:
256,192,69666,1,8,0:0:0:0:
256,192,69803,1,0,0:0:0:0:
256,192,69872,1,0,0:0:0:0:
256,192,69941,1,8,0:0:0:0:
256,192,70078,1,0,0:0:0:0:
256,192,70216,1,8,0:0:0:0:
256,192,70354,1,8,0:0:0:0:
256,192,70629,1,0,0:0:0:0:
256,192,70767,1,8,0:0:0:0:
256,192,70904,1,8,0:0:0:0:
256,192,71042,1,0,0:0:0:0:
256,192,71111,1,8,0:0:0:0:
256,192,71179,1,0,0:0:0:0:
256,192,71248,1,0,0:0:0:0:
256,192,71317,1,8,0:0:0:0:
256,192,71455,1,8,0:0:0:0:
256,192,71730,1,0,0:0:0:0:
256,192,71867,1,8,0:0:0:0:
256,192,72005,1,0,0:0:0:0:
256,192,72074,1,0,0:0:0:0:
256,192,72143,1,8,0:0:0:0:
256,192,72280,1,0,0:0:0:0:
256,192,72418,1,8,0:0:0:0:
256,192,72556,1,0,0:0:0:0:
256,192,72831,1,0,0:0:0:0:
256,192,72968,1,8,0:0:0:0:
256,192,73106,1,8,0:0:0:0:
256,192,73244,1,0,0:0:0:0:
256,192,73312,1,0,0:0:0:0:
256,192,73381,1,8,0:0:0:0:
256,192,73450,1,0,0:0:0:0:
256,192,73519,1,8,0:0:0:0:
256,192,73656,1,4,0:0:0:0:
256,192,73932,1,0,0:0:0:0:
256,192,74069,1,8,0:0:0:0:
256,192,74207,1,0,0:0:0:0:
256,192,74276,1,0,0:0:0:0:
256,192,74345,1,8,0:0:0:0:
256,192,74482,1,0,0:0:0:0:
256,192,74620,1,8,0:0:0:0:
256,192,74757,1,8,0:0:0:0:
256,192,75033,1,0,0:0:0:0:
256,192,75170,1,8,0:0:0:0:
256,192,75308,1,0,0:0:0:0:
256,192,75445,1,8,0:0:0:0:
256,192,75514,1,8,0:0:0:0:
256,192,75583,1,0,0:0:0:0:
256,192,75652,1,0,0:0:0:0:
256,192,75721,1,8,0:0:0:0:
256,192,75858,1,4,0:0:0:0:
256,192,76133,1,0,0:0:0:0:
256,192,76271,1,8,0:0:0:0:
256,192,76409,1,0,0:0:0:0:
256,192,76478,1,0,0:0:0:0:
256,192,76546,1,8,0:0:0:0:
256,192,76615,1,8,0:0:0:0:
256,192,76684,1,0,0:0:0:0:
256,192,76822,1,0,0:0:0:0:
256,192,76959,1,12,0:0:0:0:
256,192,77234,8,0,77922,0:0:0:0:
256,192,78060,5,4,0:0:0:0:
256,192,78473,1,0,0:0:0:0:
256,192,78748,1,0,0:0:0:0:
256,192,79023,1,0,0:0:0:0:
256,192,79299,1,0,0:0:0:0:
256,192,79574,1,0,0:0:0:0:
256,192,79849,1,8,0:0:0:0:
256,192,79987,1,0,0:0:0:0:
256,192,80262,1,12,0:0:0:0:
256,192,80675,1,0,0:0:0:0:
256,192,80950,1,0,0:0:0:0:
256,192,81225,1,0,0:0:0:0:
256,192,81500,1,0,0:0:0:0:
256,192,81776,1,0,0:0:0:0:
256,192,81913,1,0,0:0:0:0:
256,192,81982,1,0,0:0:0:0:
256,192,82051,1,8,0:0:0:0:
256,192,82189,1,8,0:0:0:0:
256,192,82326,1,8,0:0:0:0:
256,192,82464,1,4,0:0:0:0:
256,192,82739,1,0,0:0:0:0:
256,192,82877,1,8,0:0:0:0:
256,192,83152,1,0,0:0:0:0:
256,192,83289,1,0,0:0:0:0:
256,192,83358,1,0,0:0:0:0:
256,192,83427,1,8,0:0:0:0:
256,192,83565,1,0,0:0:0:0:
256,192,83840,1,0,0:0:0:0:
256,192,83978,1,8,0:0:0:0:
256,192,84115,1,0,0:0:0:0:
256,192,84184,1,0,0:0:0:0:
256,192,84253,1,8,0:0:0:0:
256,192,84390,1,0,0:0:0:0:
256,192,84528,1,0,0:0:0:0:
256,192,84666,1,12,0:0:0:0:
256,192,84941,1,0,0:0:0:0:
256,192,85078,1,8,0:0:0:0:
256,192,85216,1,0,0:0:0:0:
256,192,85285,1,0,0:0:0:0:
256,192,85354,1,8,0:0:0:0:
256,192,85491,1,0,0:0:0:0:
256,192,85629,1,8,0:0:0:0:
256,192,85767,1,12,0:0:0:0:
256,192,85904,1,0,0:0:0:0:
256,192,86042,1,8,0:0:0:0:
256,192,86111,1,8,0:0:0:0:
256,192,86179,1,0,0:0:0:0:
256,192,86317,1,8,0:0:0:0:
256,192,86455,1,0,0:0:0:0:
256,192,86523,1,0,0:0:0:0:
256,192,86592,1,8,0:0:0:0:
256,192,86730,1,8,0:0:0:0:
256,192,86867,1,4,0:0:0:0:
256,192,87143,1,0,0:0:0:0:
256,192,87280,1,0,0:0:0:0:
256,192,87556,1,8,0:0:0:0:
256,192,87693,1,0,0:0:0:0:
256,192,87831,1,8,0:0:0:0:
256,192,88106,1,8,0:0:0:0:
256,192,88244,1,0,0:0:0:0:
256,192,88381,1,8,0:0:0:0:
256,192,88519,1,0,0:0:0:0:
256,192,88588,1,0,0:0:0:0:
256,192,88656,1,8,0:0:0:0:
256,192,88794,1,8,0:0:0:0:
256,192,88932,1,8,0:0:0:0:
256,192,89069,1,4,0:0:0:0:
256,192,89345,1,0,0:0:0:0:
256,192,89482,1,0,0:0:0:0:
256,192,89757,1,8,0:0:0:0:
256,192,89895,1,0,0:0:0:0:
256,192,90033,1,8,0:0:0:0:
256,192,90308,1,8,0:0:0:0:
256,192,90445,1,0,0:0:0:0:
256,192,90514,1,0,0:0:0:0:
256,192,90583,1,8,0:0:0:0:
256,192,90721,1,8,0:0:0:0:
256,192,90858,1,0,0:0:0:0:
256,192,90996,1,8,0:0:0:0:
256,192,91065,1,8,0:0:0:0:
256,192,91133,1,0,0:0:0:0:
256,192,91271,1,12,0:0:0:0:
256,192,91546,1,0,0:0:0:0:
256,192,91684,1,8,0:0:0:0:
256,192,91959,1,0,0:0:0:0:
256,192,92097,1,0,0:0:0:0:
256,192,92166,1,0,0:0:0:0:
256,192,92234,1,8,0:0:0:0:
256,192,92372,1,0,0:0:0:0:
256,192,92647,1,0,0:0:0:0:
256,192,92785,1,8,0:0:0:0:
256,192,92922,1,0,0:0:0:0:
256,192,92991,1,0,0:0:0:0:
256,192,93060,1,8,0:0:0:0:
256,192,93198,1,0,0:0:0:0:
256,192,93335,1,0,0:0:0:0:
256,192,93473,1,12,0:0:0:0:
256,192,93748,1,0,0:0:0:0:
256,192,93886,1,8,0:0:0:0:
256,192,94023,1,0,0:0:0:0:
256,192,94092,1,0,0:0:0:0:
256,192,94161,1,8,0:0:0:0:
256,192,94299,1,0,0:0:0:0:
256,192,94436,1,8,0:0:0:0:
256,192,94574,1,0,0:0:0:0:
256,192,94711,1,8,0:0:0:0:
256,192,94780,1,8,0:0:0:0:
256,192,94849,1,0,0:0:0:0:
256,192,94918,1,0,0:0:0:0:
256,192,94987,1,8,0:0:0:0:
256,192,95124,1,0,0:0:0:0:
256,192,95262,1,8,0:0:0:0:
256,192,95400,1,8,0:0:0:0:
256,192,95537,1,0,0:0:0:0:
256,192,95675,1,8,0:0:0:0:
256,192,95812,1,0,0:0:0:0:
256,192,95881,1,0,0:0:0:0:
256,192,95950,1,0,0:0:0:0:
256,192,96019,1,0,0:0:0:0:
256,192,96088,1,12,0:0:0:0:
256,192,96363,1,8,0:0:0:0:
256,192,96500,1,0,0:0:0:0:
256,192,96569,1,0,0:0:0:0:
256,192,96638,1,8,0:0:0:0:
256,192,96776,1,0,0:0:0:0:
256,192,96913,1,8,0:0:0:0:
256,192,96982,1,8,0:0:0:0:
256,192,97051,1,0,0:0:0:0:
256,192,97120,1,0,0:0:0:0:
256,192,97189,1,8,0:0:0:0:
256,192,97326,1,0,0:0:0:0:
256,192,97464,1,8,0:0:0:0:
256,192,97601,1,0,0:0:0:0:
256,192,97670,1,0,0:0:0:0:
256,192,97739,1,8,0:0:0:0:
256,192,97877,1,0,0:0:0:0:
256,192,98014,1,8,0:0:0:0:
256,192,98083,1,0,0:0:0:0:
256,192,98152,1,0,0:0:0:0:
256,192,98221,1,0,0:0:0:0:
256,192,98289,1,8,0:0:0:0:
256,192,98427,1,0,0:0:0:0:
256,192,98565,1,8,0:0:0:0:
256,192,98633,1,8,0:0:0:0:
256,192,98702,1,0,0:0:0:0:
256,192,98771,1,0,0:0:0:0:
256,192,98840,1,8,0:0:0:0:
256,192,98978,1,0,0:0:0:0:
256,192,99115,1,8,0:0:0:0:
256,192,99253,1,0,0:0:0:0:
256,192,99322,1,0,0:0:0:0:
256,192,99390,1,8,0:0:0:0:
256,192,99528,1,0,0:0:0:0:
256,192,99666,1,8,0:0:0:0:
256,192,99734,1,0,0:0:0:0:
256,192,99803,1,0,0:0:0:0:
256,192,99872,1,0,0:0:0:0:
256,192,99941,1,8,0:0:0:0:
256,192,100078,1,0,0:0:0:0:
256,192,100216,1,12,0:0:0:0:
256,192,100491,1,8,0:0:0:0:
256,192,100629,1,0,0:0:0:0:
256,192,100698,1,0,0:0:0:0:
256,192,100767,1,8,0:0:0:0:
256,192,100904,1,0,0:0:0:0:
256,192,101042,1,8,0:0:0:0:
256,192,101111,1,0,0:0:0:0:
256,192,101179,1,0,0:0:0:0:
256,192,101248,1,0,0:0:0:0:
256,192,101317,1,8,0:0:0:0:
256,192,101455,1,0,0:0:0:0:
256,192,101592,1,8,0:0:0:0:
256,192,101730,1,0,0:0:0:0:
256,192,101867,1,8,0:0:0:0:
256,192,101936,1,8,0:0:0:0:
256,192,102005,1,0,0:0:0:0:
256,192,102074,1,0,0:0:0:0:
256,192,102143,1,8,0:0:0:0:
256,192,102280,1,0,0:0:0:0:
256,192,102349,1,0,0:0:0:0:
256,192,102418,1,8,0:0:0:0:
256,192,102556,1,0,0:0:0:0:
256,192,102693,1,8,0:0:0:0:
256,192,102831,1,0,0:0:0:0:
256,192,102900,1,0,0:0:0:0:
256,192,102968,1,8,0:0:0:0:
256,192,103106,1,0,0:0:0:0:
256,192,103244,1,8,0:0:0:0:
256,192,103312,1,8,0:0:0:0:
256,192,103381,1,0,0:0:0:0:
256,192,103450,1,0,0:0:0:0:
256,192,103519,1,8,0:0:0:0:
256,192,103656,1,0,0:0:0:0:
256,192,103725,1,0,0:0:0:0:
256,192,103794,1,8,0:0:0:0:
256,192,103932,1,8,0:0:0:0:
256,192,104069,1,0,0:0:0:0:
256,192,104207,1,0,0:0:0:0:
256,192,104345,1,8,0:0:0:0:
256,192,104482,1,8,0:0:0:0:
256,192,104620,1,4,0:0:0:0:
256,192,104895,1,8,0:0:0:0:
256,192,105033,1,0,0:0:0:0:
256,192,105101,1,0,0:0:0:0:
256,192,105170,1,8,0:0:0:0:
256,192,105308,1,0,0:0:0:0:
256,192,105445,1,8,0:0:0:0:
256,192,105583,1,0,0:0:0:0:
256,192,105721,1,8,0:0:0:0:
256,192,105789,1,8,0:0:0:0:
256,192,105858,1,0,0:0:0:0:
256,192,105996,1,8,0:0:0:0:
256,192,106133,1,0,0:0:0:0:
256,192,106202,1,0,0:0:0:0:
256,192,106271,1,8,0:0:0:0:
256,192,106409,1,0,0:0:0:0:
256,192,106546,1,8,0:0:0:0:
256,192,106615,1,8,0:0:0:0:
256,192,106684,1,8,0:0:0:0:
256,192,106822,1,4,0:0:0:0:
256,192,107234,1,0,0:0:0:0:
256,192,107372,1,12,0:0:0:0:
256,192,107785,1,0,0:0:0:0:
256,192,107922,1,8,0:0:0:0:
256,192,108060,1,0,0:0:0:0:
256,192,108129,1,0,0:0:0:0:
256,192,108198,1,8,0:0:0:0:
256,192,108335,1,0,0:0:0:0:
256,192,108473,1,8,0:0:0:0:
256,192,108542,1,8,0:0:0:0:
256,192,108611,1,0,0:0:0:0:
256,192,108679,1,0,0:0:0:0:
256,192,108748,1,0,0:0:0:0:
256,192,108886,1,0,0:0:0:0:
256,192,109023,1,12,0:0:0:0:
256,192,109299,1,8,0:0:0:0:
256,192,109574,1,0,0:0:0:0:
256,192,109711,1,8,0:0:0:0:
256,192,109987,1,0,0:0:0:0:
256,192,110124,1,8,0:0:0:0:
256,192,110400,1,0,0:0:0:0:
256,192,110537,1,8,0:0:0:0:
256,192,110675,1,0,0:0:0:0:
256,192,110812,1,0,0:0:0:0:
256,192,110950,1,8,0:0:0:0:
256,192,111088,1,8,0:0:0:0:
256,192,111225,1,4,0:0:0:0:
256,192,111500,1,8,0:0:0:0:
256,192,111776,1,0,0:0:0:0:
256,192,111913,1,8,0:0:0:0:
256,192,112051,1,8,0:0:0:0:
256,192,112189,1,0,0:0:0:0:
256,192,112257,1,0,0:0:0:0:
256,192,112326,1,8,0:0:0:0:
256,192,112464,1,0,0:0:0:0:
256,192,112601,1,8,0:0:0:0:
256,192,112739,1,0,0:0:0:0:
256,192,112808,1,0,0:0:0:0:
256,192,112877,1,8,0:0:0:0:
256,192,113014,1,0,0:0:0:0:
256,192,113152,1,0,0:0:0:0:
256,192,113289,1,0,0:0:0:0:
256,192,113427,1,12,0:0:0:0:
256,192,113702,1,8,0:0:0:0:
256,192,113840,1,0,0:0:0:0:
256,192,113909,1,0,0:0:0:0:
256,192,113978,1,8,0:0:0:0:
256,192,114115,1,0,0:0:0:0:
256,192,114253,1,8,0:0:0:0:
256,192,114390,1,0,0:0:0:0:
256,192,114459,1,0,0:0:0:0:
256,192,114528,1,8,0:0:0:0:
256,192,114666,1,0,0:0:0:0:
256,192,114803,1,8,0:0:0:0:
256,192,114872,1,8,0:0:0:0:
256,192,114941,1,0,0:0:0:0:
256,192,115010,1,0,0:0:0:0:
256,192,115078,1,8,0:0:0:0:
256,192,115216,1,0,0:0:0:0:
256,192,115354,1,8,0:0:0:0:
256,192,115491,1,0,0:0:0:0:
256,192,115629,1,12,0:0:0:0:
256,192,115904,1,0,0:0:0:0:
256,192,116042,1,12,0:0:0:0:
256,192,116317,1,8,0:0:0:0:
256,192,116455,1,4,0:0:0:0:
256,192,116730,1,12,0:0:0:0:
256,192,117693,1,4,0:0:0:0:
256,192,117968,1,0,0:0:0:0:
256,192,118106,1,8,0:0:0:0:
256,192,118244,1,0,0:0:0:0:
256,192,118312,1,0,0:0:0:0:
256,192,118381,1,8,0:0:0:0:
256,192,118519,1,0,0:0:0:0:
256,192,118656,1,8,0:0:0:0:
256,192,118725,1,8,0:0:0:0:
256,192,118794,1,0,0:0:0:0:
256,192,118863,1,0,0:0:0:0:
256,192,118932,1,8,0:0:0:0:
256,192,119069,1,0,0:0:0:0:
256,192,119207,1,8,0:0:0:0:
256,192,119276,1,0,0:0:0:0:
256,192,119345,1,0,0:0:0:0:
256,192,119413,1,0,0:0:0:0:
256,192,119482,1,8,0:0:0:0:
256,192,119551,1,8,0:0:0:0:
256,192,119620,1,0,0:0:0:0:
256,192,119757,1,8,0:0:0:0:
256,192,119895,1,0,0:0:0:0:
256,192,120170,1,0,0:0:0:0:
256,192,120308,1,8,0:0:0:0:
256,192,120445,1,0,0:0:0:0:
256,192,120514,1,0,0:0:0:0:
256,192,120583,1,0,0:0:0:0:
256,192,120721,1,0,0:0:0:0:
256,192,120858,1,8,0:0:0:0:
256,192,120996,1,0,0:0:0:0:
256,192,121065,1,0,0:0:0:0:
256,192,121133,1,8,0:0:0:0:
256,192,121271,1,0,0:0:0:0:
256,192,121409,1,8,0:0:0:0:
256,192,121546,1,0,0:0:0:0:
256,192,121615,1,0,0:0:0:0:
256,192,121684,1,8,0:0:0:0:
256,192,121753,1,8,0:0:0:0:
256,192,121822,1,0,0:0:0:0:
256,192,121959,1,0,0:0:0:0:
256,192,122097,1,12,0:0:0:0:
256,192,122372,1,0,0:0:0:0:
256,192,122510,1,8,0:0:0:0:
256,192,122647,1,8,0:0:0:0:
256,192,122716,1,8,0:0:0:0:
256,192,122785,1,0,0:0:0:0:
256,192,122922,1,0,0:0:0:0:
256,192,123060,1,8,0:0:0:0:
256,192,123129,1,8,0:0:0:0:
256,192,123198,1,0,0:0:0:0:
256,192,123267,1,0,0:0:0:0:
256,192,123335,1,8,0:0:0:0:
256,192,123473,1,0,0:0:0:0:
256,192,123611,1,8,0:0:0:0:
256,192,123679,1,0,0:0:0:0:
256,192,123748,1,8,0:0:0:0:
256,192,123817,1,8,0:0:0:0:
256,192,123886,1,0,0:0:0:0:
256,192,124023,1,0,0:0:0:0:
256,192,124092,1,0,0:0:0:0:
256,192,124161,1,8,0:0:0:0:
256,192,124299,1,0,0:0:0:0:
256,192,124574,1,0,0:0:0:0:
256,192,124711,1,8,0:0:0:0:
256,192,124849,1,0,0:0:0:0:
256,192,124918,1,0,0:0:0:0:
256,192,124987,1,8,0:0:0:0:
256,192,125124,1,0,0:0:0:0:
256,192,125262,1,8,0:0:0:0:
256,192,125400,1,8,0:0:0:0:
256,192,125468,1,8,0:0:0:0:
256,192,125537,1,0,0:0:0:0:
256,192,125606,1,8,0:0:0:0:
256,192,125675,1,0,0:0:0:0:
256,192,125744,1,0,0:0:0:0:
256,192,125812,1,8,0:0:0:0:
256,192,125950,1,0,0:0:0:0:
256,192,126019,1,0,0:0:0:0:
256,192,126088,1,8,0:0:0:0:
256,192,126225,1,8,0:0:0:0:
256,192,126363,1,8,0:0:0:0:
256,192,126500,1,4,0:0:0:0:
256,192,126776,1,0,0:0:0:0:
256,192,126913,1,8,0:0:0:0:
256,192,126982,1,8,0:0:0:0:
256,192,127051,1,0,0:0:0:0:
256,192,127120,1,0,0:0:0:0:
256,192,127189,1,8,0:0:0:0:
256,192,127326,1,0,0:0:0:0:
256,192,127464,1,8,0:0:0:0:
256,192,127601,1,8,0:0:0:0:
256,192,127670,1,0,0:0:0:0:
256,192,127739,1,0,0:0:0:0:
256,192,127877,1,0,0:0:0:0:
256,192,128014,1,8,0:0:0:0:
256,192,128083,1,0,0:0:0:0:
256,192,128152,1,8,0:0:0:0:
256,192,128221,1,8,0:0:0:0:
256,192,128289,1,0,0:0:0:0:
256,192,128427,1,0,0:0:0:0:
256,192,128565,1,8,0:0:0:0:
256,192,128702,1,4,0:0:0:0:
256,192,128978,1,8,0:0:0:0:
256,192,129115,1,8,0:0:0:0:
256,192,129253,1,4,0:0:0:0:
256,192,129528,1,0,0:0:0:0:
256,192,129666,1,0,0:0:0:0:
256,192,129803,1,12,0:0:0:0:
256,192,130078,1,0,0:0:0:0:
256,192,130216,1,8,0:0:0:0:
256,192,130354,1,0,0:0:0:0:
256,192,130422,1,0,0:0:0:0:
256,192,130491,1,8,0:0:0:0:
256,192,130629,1,0,0:0:0:0:
256,192,130767,1,0,0:0:0:0:
256,192,130904,1,12,0:0:0:0:
256,192,131179,1,0,0:0:0:0:
256,192,131317,1,8,0:0:0:0:
256,192,131455,1,0,0:0:0:0:
256,192,131523,1,0,0:0:0:0:
256,192,131592,1,8,0:0:0:0:
256,192,131730,1,0,0:0:0:0:
256,192,131799,1,0,0:0:0:0:
256,192,131867,1,8,0:0:0:0:
256,192,132005,1,0,0:0:0:0:
256,192,132143,1,12,0:0:0:0:
256,192,132693,1,8,0:0:0:0:
256,192,133244,1,4,0:0:0:0:
256,192,133381,8,0,135308,0:0:0:0:
256,192,135445,5,4,0:0:0:0:
256,192,135583,1,4,0:0:0:0:
256,192,137647,1,4,0:0:0:0:
256,192,137785,1,4,0:0:0:0:
272,192,139299,1,12,0:0:0:0:
256,192,139849,1,4,0:0:0:0:
256,192,139987,1,0,0:0:0:0:
256,192,140262,1,0,0:0:0:0:
256,192,140400,1,8,0:0:0:0:
256,192,140675,1,0,0:0:0:0:
256,192,140812,1,8,0:0:0:0:
256,192,141088,1,0,0:0:0:0:
256,192,141225,1,8,0:0:0:0:
256,192,141500,1,0,0:0:0:0:
256,192,141638,1,8,0:0:0:0:
256,192,141776,1,8,0:0:0:0:
256,192,141913,1,0,0:0:0:0:
256,192,142051,1,8,0:0:0:0:
256,192,142326,1,0,0:0:0:0:
256,192,142464,1,8,0:0:0:0:
256,192,142601,1,8,0:0:0:0:
256,192,142739,1,0,0:0:0:0:
256,192,142877,1,8,0:0:0:0:
256,192,143014,1,0,0:0:0:0:
256,192,143083,1,0,0:0:0:0:
256,192,143152,1,8,0:0:0:0:
256,192,143289,1,0,0:0:0:0:
256,192,143358,1,0,0:0:0:0:
256,192,143427,1,8,0:0:0:0:
256,192,143565,1,0,0:0:0:0:
256,192,143633,1,0,0:0:0:0:
256,192,143702,1,8,0:0:0:0:
256,192,143771,1,8,0:0:0:0:
256,192,143840,1,0,0:0:0:0:
256,192,143978,1,8,0:0:0:0:
256,192,144115,1,4,0:0:0:0:
256,192,144390,1,0,0:0:0:0:
256,192,144459,1,0,0:0:0:0:
256,192,144528,1,8,0:0:0:0:
256,192,144666,1,0,0:0:0:0:
256,192,144803,1,8,0:0:0:0:
256,192,144872,1,8,0:0:0:0:
256,192,144941,1,0,0:0:0:0:
256,192,145010,1,0,0:0:0:0:
256,192,145078,1,8,0:0:0:0:
256,192,145216,1,8,0:0:0:0:
256,192,145354,1,0,0:0:0:0:
256,192,145491,1,8,0:0:0:0:
256,192,145560,1,0,0:0:0:0:
256,192,145629,1,8,0:0:0:0:
256,192,145698,1,8,0:0:0:0:
256,192,145767,1,0,0:0:0:0:
256,192,145835,1,0,0:0:0:0:
256,192,145904,1,8,0:0:0:0:
256,192,146042,1,0,0:0:0:0:
256,192,146179,1,8,0:0:0:0:
256,192,146317,1,0,0:0:0:0:
256,192,146386,1,0,0:0:0:0:
256,192,146455,1,8,0:0:0:0:
256,192,146592,1,0,0:0:0:0:
256,192,146730,1,8,0:0:0:0:
256,192,146867,1,0,0:0:0:0:
256,192,146936,1,0,0:0:0:0:
256,192,147005,1,0,0:0:0:0:
256,192,147143,1,0,0:0:0:0:
256,192,147280,1,8,0:0:0:0:
256,192,147418,1,0,0:0:0:0:
256,192,147487,1,0,0:0:0:0:
256,192,147556,1,8,0:0:0:0:
256,192,147693,1,0,0:0:0:0:
256,192,147831,1,8,0:0:0:0:
256,192,147968,1,0,0:0:0:0:
256,192,148037,1,8,0:0:0:0:
256,192,148106,1,0,0:0:0:0:
256,192,148175,1,0,0:0:0:0:
256,192,148244,1,8,0:0:0:0:
256,192,148381,1,0,0:0:0:0:
256,192,148519,1,12,0:0:0:0:
256,192,148794,1,0,0:0:0:0:
256,192,148932,1,8,0:0:0:0:
256,192,149069,1,0,0:0:0:0:
256,192,149138,1,0,0:0:0:0:
256,192,149207,1,8,0:0:0:0:
256,192,149345,1,0,0:0:0:0:
256,192,149482,1,8,0:0:0:0:
256,192,149551,1,0,0:0:0:0:
256,192,149620,1,8,0:0:0:0:
256,192,149689,1,8,0:0:0:0:
256,192,149757,1,0,0:0:0:0:
256,192,149895,1,0,0:0:0:0:
256,192,150033,1,8,0:0:0:0:
256,192,150170,1,0,0:0:0:0:
256,192,150308,1,8,0:0:0:0:
256,192,150445,1,0,0:0:0:0:
256,192,150514,1,0,0:0:0:0:
256,192,150583,1,8,0:0:0:0:
256,192,150721,1,0,0:0:0:0:
256,192,150996,1,0,0:0:0:0:
256,192,151133,1,8,0:0:0:0:
256,192,151271,1,0,0:0:0:0:
256,192,151340,1,0,0:0:0:0:
256,192,151409,1,0,0:0:0:0:
256,192,151546,1,0,0:0:0:0:
256,192,151684,1,8,0:0:0:0:
256,192,151822,1,8,0:0:0:0:
256,192,151890,1,8,0:0:0:0:
256,192,151959,1,0,0:0:0:0:
256,192,152028,1,0,0:0:0:0:
256,192,152097,1,8,0:0:0:0:
256,192,152166,1,0,0:0:0:0:
256,192,152234,1,8,0:0:0:0:
256,192,152372,1,0,0:0:0:0:
256,192,152441,1,0,0:0:0:0:
256,192,152510,1,8,0:0:0:0:
256,192,152647,1,8,0:0:0:0:
256,192,152785,1,8,0:0:0:0:
256,192,152922,1,4,0:0:0:0:
256,192,153198,1,0,0:0:0:0:
256,192,153267,1,0,0:0:0:0:
256,192,153335,1,8,0:0:0:0:
256,192,153404,1,8,0:0:0:0:
256,192,153473,1,0,0:0:0:0:
256,192,153611,1,8,0:0:0:0:
256,192,153748,1,0,0:0:0:0:
256,192,153886,1,8,0:0:0:0:
256,192,154023,1,0,0:0:0:0:
256,192,154092,1,8,0:0:0:0:
256,192,154161,1,0,0:0:0:0:
256,192,154230,1,0,0:0:0:0:
256,192,154299,1,8,0:0:0:0:
256,192,154367,1,0,0:0:0:0:
256,192,154436,1,8,0:0:0:0:
256,192,154574,1,0,0:0:0:0:
256,192,154643,1,0,0:0:0:0:
256,192,154711,1,8,0:0:0:0:
256,192,154849,1,0,0:0:0:0:
256,192,154987,1,8,0:0:0:0:
256,192,155124,1,8,0:0:0:0:
256,192,155193,1,8,0:0:0:0:
256,192,155262,1,0,0:0:0:0:
256,192,155331,1,0,0:0:0:0:
256,192,155400,1,0,0:0:0:0:
256,192,155468,1,0,0:0:0:0:
256,192,155537,1,8,0:0:0:0:
256,192,155675,1,8,0:0:0:0:
256,192,155812,1,0,0:0:0:0:
256,192,155950,1,0,0:0:0:0:
256,192,156088,1,8,0:0:0:0:
256,192,156225,1,4,0:0:0:0:
256,192,156500,1,8,0:0:0:0:
256,192,156569,1,0,0:0:0:0:
256,192,156638,1,8,0:0:0:0:
256,192,156776,1,8,0:0:0:0:
256,192,156913,1,0,0:0:0:0:
256,192,157051,1,8,0:0:0:0:
256,192,157120,1,8,0:0:0:0:
256,192,157189,1,0,0:0:0:0:
256,192,157326,1,12,0:0:0:0:
256,192,157601,1,0,0:0:0:0:
256,192,157739,1,8,0:0:0:0:
256,192,157877,1,0,0:0:0:0:
256,192,157945,1,0,0:0:0:0:
256,192,158014,1,0,0:0:0:0:
256,192,158152,1,0,0:0:0:0:
256,192,158289,1,8,0:0:0:0:
256,192,158427,1,8,0:0:0:0:
256,192,158496,1,8,0:0:0:0:
256,192,158565,1,0,0:0:0:0:
256,192,158633,1,0,0:0:0:0:
256,192,158702,1,0,0:0:0:0:
256,192,158840,1,8,0:0:0:0:
256,192,158978,1,0,0:0:0:0:
256,192,159115,1,8,0:0:0:0:
256,192,159184,1,8,0:0:0:0:
256,192,159253,1,0,0:0:0:0:
256,192,159322,1,0,0:0:0:0:
256,192,159390,1,8,0:0:0:0:
256,192,159528,1,4,0:0:0:0:
256,192,159803,1,0,0:0:0:0:
256,192,159941,1,8,0:0:0:0:
256,192,160010,1,0,0:0:0:0:
256,192,160078,1,8,0:0:0:0:
256,192,160147,1,8,0:0:0:0:
256,192,160216,1,0,0:0:0:0:
256,192,160354,1,8,0:0:0:0:
256,192,160491,1,0,0:0:0:0:
256,192,160629,1,12,0:0:0:0:
256,192,160904,1,0,0:0:0:0:
256,192,161042,1,8,0:0:0:0:
256,192,161179,1,4,0:0:0:0:
256,192,161455,1,0,0:0:0:0:
256,192,161523,1,0,0:0:0:0:
256,192,161592,1,8,0:0:0:0:
256,192,161730,1,8,0:0:0:0:
256,192,161867,1,4,0:0:0:0:
256,192,162143,1,8,0:0:0:0:
256,192,162280,1,0,0:0:0:0:
256,192,162349,1,0,0:0:0:0:
256,192,162418,1,0,0:0:0:0:
256,192,162556,1,0,0:0:0:0:
256,192,162693,1,8,0:0:0:0:
256,192,162968,1,0,0:0:0:0:
256,192,163106,1,0,0:0:0:0:
256,192,163175,1,0,0:0:0:0:
256,192,163244,1,8,0:0:0:0:
256,192,163381,1,8,0:0:0:0:
256,192,163519,1,0,0:0:0:0:
256,192,163656,1,8,0:0:0:0:
256,192,163725,1,0,0:0:0:0:
256,192,163794,1,8,0:0:0:0:
256,192,163932,1,0,0:0:0:0:
256,192,164069,1,8,0:0:0:0:
256,192,164345,1,8,0:0:0:0:
256,192,164482,1,0,0:0:0:0:
256,192,164551,1,0,0:0:0:0:
256,192,164620,1,0,0:0:0:0:
256,192,164757,1,0,0:0:0:0:
256,192,164895,1,8,0:0:0:0:
256,192,165033,1,0,0:0:0:0:
256,192,165101,1,0,0:0:0:0:
256,192,165170,1,8,0:0:0:0:
256,192,165308,1,0,0:0:0:0:
256,192,165445,1,8,0:0:0:0:
256,192,165583,1,0,0:0:0:0:
256,192,165858,1,0,0:0:0:0:
256,192,165996,1,8,0:0:0:0:
256,192,166133,1,8,0:0:0:0:
256,192,166271,1,4,0:0:0:0:
256,192,166546,1,8,0:0:0:0:
256,192,166684,1,0,0:0:0:0:
256,192,166959,1,0,0:0:0:0:
256,192,167097,1,8,0:0:0:0:
256,192,167234,1,0,0:0:0:0:
256,192,167303,1,0,0:0:0:0:
256,192,167372,1,8,0:0:0:0:
256,192,167647,1,8,0:0:0:0:
256,192,167785,1,0,0:0:0:0:
256,192,167854,1,0,0:0:0:0:
256,192,167922,1,0,0:0:0:0:
256,192,168060,1,0,0:0:0:0:
256,192,168198,1,8,0:0:0:0:
256,192,168335,1,8,0:0:0:0:
256,192,168473,1,4,0:0:0:0:
256,192,168748,1,8,0:0:0:0:
256,192,169023,1,0,0:0:0:0:
256,192,169161,1,0,0:0:0:0:
256,192,169299,1,8,0:0:0:0:
256,192,169436,1,0,0:0:0:0:
256,192,169505,1,0,0:0:0:0:
256,192,169574,1,8,0:0:0:0:
256,192,169711,1,0,0:0:0:0:
256,192,169849,1,8,0:0:0:0:
256,192,169987,1,8,0:0:0:0:
256,192,170124,1,0,0:0:0:0:
256,192,170193,1,8,0:0:0:0:
256,192,170262,1,0,0:0:0:0:
256,192,170331,1,0,0:0:0:0:
256,192,170400,1,8,0:0:0:0:
256,192,170537,1,0,0:0:0:0:
256,192,170675,1,12,0:0:0:0:
256,192,170812,1,0,0:0:0:0:
256,192,170950,1,8,0:0:0:0:
256,192,171019,1,8,0:0:0:0:
256,192,171088,1,0,0:0:0:0:
256,192,171156,1,0,0:0:0:0:
256,192,171225,1,8,0:0:0:0:
256,192,171363,1,0,0:0:0:0:
256,192,171500,1,8,0:0:0:0:
256,192,171569,1,8,0:0:0:0:
256,192,171638,1,0,0:0:0:0:
256,192,171707,1,0,0:0:0:0:
256,192,171776,1,8,0:0:0:0:
256,192,171845,1,0,0:0:0:0:
256,192,171913,1,8,0:0:0:0:
256,192,171982,1,8,0:0:0:0:
256,192,172051,1,0,0:0:0:0:
256,192,172189,1,0,0:0:0:0:
256,192,172257,1,0,0:0:0:0:
256,192,172326,1,8,0:0:0:0:
256,192,172464,1,0,0:0:0:0:
256,192,172601,1,8,0:0:0:0:
256,192,172670,1,0,0:0:0:0:
256,192,172739,1,0,0:0:0:0:
256,192,172808,1,0,0:0:0:0:
256,192,172877,1,8,0:0:0:0:
256,192,172945,1,8,0:0:0:0:
256,192,173014,1,8,0:0:0:0:
256,192,173083,1,8,0:0:0:0:
256,192,173152,1,0,0:0:0:0:
256,192,173289,1,0,0:0:0:0:
256,192,173358,1,0,0:0:0:0:
256,192,173427,1,8,0:0:0:0:
256,192,173565,1,0,0:0:0:0:
256,192,173702,1,8,0:0:0:0:
256,192,173771,1,8,0:0:0:0:
256,192,173840,1,0,0:0:0:0:
256,192,173909,1,0,0:0:0:0:
256,192,173978,1,8,0:0:0:0:
256,192,174081,1,8,0:0:0:0:
256,192,174184,1,0,0:0:0:0:
256,192,174287,1,0,0:0:0:0:
256,192,174390,1,8,0:0:0:0:
256,192,174494,1,8,0:0:0:0:
256,192,174597,1,0,0:0:0:0:
256,192,174700,1,8,0:0:0:0:
256,192,174803,1,0,0:0:0:0:
256,192,174941,1,12,0:0:0:0:
256,192,175216,1,0,0:0:0:0:
256,192,175354,1,8,0:0:0:0:
256,192,175491,1,0,0:0:0:0:
256,192,175560,1,0,0:0:0:0:
256,192,175629,1,8,0:0:0:0:
256,192,175767,1,0,0:0:0:0:
256,192,175904,1,8,0:0:0:0:
256,192,176042,1,8,0:0:0:0:
256,192,176111,1,8,0:0:0:0:
256,192,176179,1,0,0:0:0:0:
256,192,176317,1,0,0:0:0:0:
256,192,176455,1,8,0:0:0:0:
256,192,176592,1,0,0:0:0:0:
256,192,176661,1,0,0:0:0:0:
256,192,176730,1,8,0:0:0:0:
256,192,176867,1,0,0:0:0:0:
256,192,177005,1,8,0:0:0:0:
256,192,177143,1,4,0:0:0:0:
256,192,177418,1,0,0:0:0:0:
256,192,177556,1,8,0:0:0:0:
256,192,177693,1,0,0:0:0:0:
256,192,177762,1,0,0:0:0:0:
256,192,177831,1,8,0:0:0:0:
256,192,177968,1,0,0:0:0:0:
256,192,178106,1,8,0:0:0:0:
256,192,178244,1,0,0:0:0:0:
256,192,178312,1,0,0:0:0:0:
256,192,178381,1,8,0:0:0:0:
256,192,178519,1,0,0:0:0:0:
256,192,178656,1,8,0:0:0:0:
256,192,178794,1,0,0:0:0:0:
256,192,178863,1,0,0:0:0:0:
256,192,178932,1,8,0:0:0:0:
256,192,179000,1,8,0:0:0:0:
256,192,179069,1,0,0:0:0:0:
256,192,179138,1,0,0:0:0:0:
256,192,179207,1,8,0:0:0:0:
256,192,179345,1,0,0:0:0:0:
256,192,179482,1,12,0:0:0:0:
256,192,179757,1,8,0:0:0:0:
256,192,179895,1,0,0:0:0:0:
256,192,179964,1,0,0:0:0:0:
256,192,180033,1,8,0:0:0:0:
256,192,180170,1,0,0:0:0:0:
256,192,180308,1,8,0:0:0:0:
256,192,180445,1,0,0:0:0:0:
256,192,180514,1,0,0:0:0:0:
256,192,180583,1,8,0:0:0:0:
256,192,180721,1,0,0:0:0:0:
256,192,180858,1,8,0:0:0:0:
256,192,180927,1,8,0:0:0:0:
256,192,180996,1,0,0:0:0:0:
256,192,181065,1,0,0:0:0:0:
256,192,181133,1,8,0:0:0:0:
256,192,181271,1,0,0:0:0:0:
256,192,181409,1,8,0:0:0:0:
256,192,181546,1,0,0:0:0:0:
256,192,181684,1,12,0:0:0:0:
256,192,181822,1,0,0:0:0:0:
256,192,181890,1,0,0:0:0:0:
256,192,181959,1,0,0:0:0:0:
256,192,182097,1,12,0:0:0:0:
256,192,182234,1,0,0:0:0:0:
256,192,182303,1,0,0:0:0:0:
256,192,182372,1,0,0:0:0:0:
256,192,182510,1,12,0:0:0:0:
256,192,182647,1,0,0:0:0:0:
256,192,182785,1,12,0:0:0:0:
256,192,189803,5,0,0:0:0:0:
256,192,189872,1,0,0:0:0:0:
256,192,189941,1,8,0:0:0:0:
256,192,190491,1,4,0:0:0:0:
256,192,190767,1,0,0:0:0:0:
256,192,191042,1,0,0:0:0:0:
256,192,191317,1,0,0:0:0:0:
256,192,191592,1,12,0:0:0:0:
256,192,191730,1,12,0:0:0:0:
256,192,191867,1,12,0:0:0:0:
256,192,192005,1,12,0:0:0:0:
256,192,192556,1,4,0:0:0:0:
256,192,192831,1,0,0:0:0:0:
256,192,192968,1,8,0:0:0:0:
256,192,193106,1,8,0:0:0:0:
256,192,193175,1,8,0:0:0:0:
256,192,193244,1,0,0:0:0:0:
256,192,193381,1,0,0:0:0:0:
256,192,193519,1,8,0:0:0:0:
256,192,193588,1,8,0:0:0:0:
256,192,193656,1,0,0:0:0:0:
256,192,193725,1,0,0:0:0:0:
256,192,193794,1,0,0:0:0:0:
256,192,193932,1,0,0:0:0:0:
256,192,194069,1,8,0:0:0:0:
256,192,194138,1,0,0:0:0:0:
256,192,194207,1,8,0:0:0:0:
256,192,194276,1,8,0:0:0:0:
256,192,194345,1,0,0:0:0:0:
256,192,194413,1,8,0:0:0:0:
256,192,194482,1,0,0:0:0:0:
256,192,194620,1,8,0:0:0:0:
256,192,194757,1,0,0:0:0:0:
256,192,195033,1,0,0:0:0:0:
256,192,195170,1,8,0:0:0:0:
256,192,195308,1,0,0:0:0:0:
256,192,195377,1,0,0:0:0:0:
256,192,195445,1,0,0:0:0:0:
256,192,195583,1,0,0:0:0:0:
256,192,195721,1,8,0:0:0:0:
256,192,195858,1,0,0:0:0:0:
256,192,195927,1,0,0:0:0:0:
256,192,195996,1,8,0:0:0:0:
256,192,196133,1,0,0:0:0:0:
256,192,196271,1,8,0:0:0:0:
256,192,196409,1,0,0:0:0:0:
256,192,196478,1,0,0:0:0:0:
256,192,196546,1,8,0:0:0:0:
256,192,196615,1,0,0:0:0:0:
256,192,196684,1,0,0:0:0:0:
256,192,196822,1,0,0:0:0:0:
256,192,196959,1,12,0:0:0:0:
256,192,197234,1,0,0:0:0:0:
256,192,197372,1,8,0:0:0:0:
256,192,197510,1,0,0:0:0:0:
256,192,197578,1,8,0:0:0:0:
256,192,197647,1,0,0:0:0:0:
256,192,197785,1,0,0:0:0:0:
256,192,197922,1,8,0:0:0:0:
256,192,197991,1,0,0:0:0:0:
256,192,198060,1,0,0:0:0:0:
256,192,198129,1,0,0:0:0:0:
256,192,198198,1,8,0:0:0:0:
256,192,198335,1,0,0:0:0:0:
256,192,198473,1,8,0:0:0:0:
256,192,198542,1,8,0:0:0:0:
256,192,198611,1,0,0:0:0:0:
256,192,198679,1,0,0:0:0:0:
256,192,198748,1,8,0:0:0:0:
256,192,198886,1,0,0:0:0:0:
256,192,198955,1,0,0:0:0:0:
256,192,199023,1,8,0:0:0:0:
256,192,199161,1,0,0:0:0:0:
256,192,199436,1,0,0:0:0:0:
256,192,199574,1,8,0:0:0:0:
256,192,199711,1,0,0:0:0:0:
256,192,199780,1,0,0:0:0:0:
256,192,199849,1,8,0:0:0:0:
256,192,199987,1,0,0:0:0:0:
256,192,200124,1,8,0:0:0:0:
256,192,200193,1,0,0:0:0:0:
256,192,200262,1,8,0:0:0:0:
256,192,200331,1,8,0:0:0:0:
256,192,200400,1,0,0:0:0:0:
256,192,200468,1,0,0:0:0:0:
256,192,200537,1,0,0:0:0:0:
256,192,200675,1,8,0:0:0:0:
256,192,200812,1,0,0:0:0:0:
256,192,200881,1,0,0:0:0:0:
256,192,200950,1,8,0:0:0:0:
256,192,201088,1,8,0:0:0:0:
256,192,201225,1,8,0:0:0:0:
256,192,201363,1,4,0:0:0:0:
256,192,201638,1,0,0:0:0:0:
256,192,201776,1,8,0:0:0:0:
256,192,201845,1,0,0:0:0:0:
256,192,201913,1,0,0:0:0:0:
256,192,201982,1,0,0:0:0:0:
256,192,202051,1,8,0:0:0:0:
256,192,202189,1,0,0:0:0:0:
256,192,202326,1,8,0:0:0:0:
256,192,202464,1,8,0:0:0:0:
256,192,202533,1,0,0:0:0:0:
256,192,202601,1,0,0:0:0:0:
256,192,202739,1,0,0:0:0:0:
256,192,202877,1,8,0:0:0:0:
256,192,202945,1,8,0:0:0:0:
256,192,203014,1,0,0:0:0:0:
256,192,203083,1,0,0:0:0:0:
256,192,203152,1,8,0:0:0:0:
256,192,203289,1,0,0:0:0:0:
256,192,203427,1,0,0:0:0:0:
256,192,203565,1,12,0:0:0:0:
256,192,203840,1,8,0:0:0:0:
256,192,203978,1,8,0:0:0:0:
256,192,204115,1,4,0:0:0:0:
256,192,204390,1,0,0:0:0:0:
256,192,204528,1,0,0:0:0:0:
256,192,204666,1,12,0:0:0:0:
256,192,204941,1,0,0:0:0:0:
256,192,205078,1,8,0:0:0:0:
256,192,205216,1,0,0:0:0:0:
256,192,205285,1,0,0:0:0:0:
256,192,205354,1,8,0:0:0:0:
256,192,205491,1,0,0:0:0:0:
256,192,205629,1,8,0:0:0:0:
256,192,205767,1,0,0:0:0:0:
256,192,205835,1,0,0:0:0:0:
256,192,205904,1,8,0:0:0:0:
256,192,205973,1,8,0:0:0:0:
256,192,206042,1,0,0:0:0:0:
256,192,206179,1,8,0:0:0:0:
256,192,206317,1,0,0:0:0:0:
256,192,206386,1,0,0:0:0:0:
256,192,206455,1,8,0:0:0:0:
256,192,206592,1,0,0:0:0:0:
256,192,206661,1,0,0:0:0:0:
256,192,206730,1,8,0:0:0:0:
256,192,206867,1,0,0:0:0:0:
256,192,207005,1,8,0:0:0:0:
256,192,207074,1,8,0:0:0:0:
256,192,207143,1,0,0:0:0:0:
256,192,207211,1,0,0:0:0:0:
256,192,207280,1,8,0:0:0:0:
256,192,207349,1,0,0:0:0:0:
256,192,207418,1,8,0:0:0:0:
256,192,207487,1,8,0:0:0:0:
256,192,207556,1,0,0:0:0:0:
256,192,207693,1,8,0:0:0:0:
256,192,207831,1,8,0:0:0:0:
256,192,207968,1,4,0:0:0:0:
256,192,208244,1,0,0:0:0:0:
256,192,208381,1,8,0:0:0:0:
256,192,208519,1,0,0:0:0:0:
256,192,208588,1,0,0:0:0:0:
256,192,208656,1,8,0:0:0:0:
256,192,208794,1,0,0:0:0:0:
256,192,208932,1,8,0:0:0:0:
256,192,209000,1,8,0:0:0:0:
256,192,209069,1,0,0:0:0:0:
256,192,209138,1,0,0:0:0:0:
256,192,209207,1,8,0:0:0:0:
256,192,209345,1,0,0:0:0:0:
256,192,209482,1,8,0:0:0:0:
256,192,209551,1,0,0:0:0:0:
256,192,209620,1,0,0:0:0:0:
256,192,209689,1,0,0:0:0:0:
256,192,209757,1,8,0:0:0:0:
256,192,209826,1,8,0:0:0:0:
256,192,209895,1,0,0:0:0:0:
256,192,210033,1,8,0:0:0:0:
256,192,210170,1,0,0:0:0:0:
256,192,210445,1,0,0:0:0:0:
256,192,210583,1,8,0:0:0:0:
256,192,210721,1,0,0:0:0:0:
256,192,210789,1,0,0:0:0:0:
256,192,210858,1,0,0:0:0:0:
256,192,210996,1,0,0:0:0:0:
256,192,211133,1,8,0:0:0:0:
256,192,211271,1,0,0:0:0:0:
256,192,211340,1,0,0:0:0:0:
256,192,211409,1,8,0:0:0:0:
256,192,211546,1,0,0:0:0:0:
256,192,211684,1,8,0:0:0:0:
256,192,211822,1,0,0:0:0:0:
256,192,211890,1,0,0:0:0:0:
256,192,211959,1,8,0:0:0:0:
256,192,212028,1,8,0:0:0:0:
256,192,212097,1,0,0:0:0:0:
256,192,212234,1,0,0:0:0:0:
256,192,212372,1,12,0:0:0:0:
256,192,212647,1,0,0:0:0:0:
256,192,212785,1,8,0:0:0:0:
256,192,212854,1,0,0:0:0:0:
256,192,212922,1,8,0:0:0:0:
256,192,212991,1,8,0:0:0:0:
256,192,213060,1,0,0:0:0:0:
256,192,213198,1,0,0:0:0:0:
256,192,213335,1,8,0:0:0:0:
256,192,213473,1,8,0:0:0:0:
256,192,213542,1,8,0:0:0:0:
256,192,213611,1,0,0:0:0:0:
256,192,213748,1,0,0:0:0:0:
256,192,213886,1,8,0:0:0:0:
256,192,214023,1,0,0:0:0:0:
256,192,214092,1,8,0:0:0:0:
256,192,214161,1,8,0:0:0:0:
256,192,214230,1,8,0:0:0:0:
256,192,214299,1,0,0:0:0:0:
256,192,214436,1,0,0:0:0:0:
256,192,214574,1,8,0:0:0:0:
256,192,214849,1,0,0:0:0:0:
256,192,214987,1,8,0:0:0:0:
256,192,215124,1,0,0:0:0:0:
256,192,215193,1,0,0:0:0:0:
256,192,215262,1,8,0:0:0:0:
256,192,215400,1,0,0:0:0:0:
256,192,215537,1,8,0:0:0:0:
256,192,215675,1,8,0:0:0:0:
256,192,215744,1,8,0:0:0:0:
256,192,215812,1,0,0:0:0:0:
256,192,215881,1,8,0:0:0:0:
256,192,215950,1,0,0:0:0:0:
256,192,216019,1,0,0:0:0:0:
256,192,216088,1,8,0:0:0:0:
256,192,216225,1,0,0:0:0:0:
256,192,216294,1,0,0:0:0:0:
256,192,216363,1,8,0:0:0:0:
256,192,216432,1,8,0:0:0:0:
256,192,216500,1,0,0:0:0:0:
256,192,216638,1,8,0:0:0:0:
256,192,216776,1,4,0:0:0:0:
256,192,217051,1,0,0:0:0:0:
256,192,217189,1,8,0:0:0:0:
256,192,217257,1,8,0:0:0:0:
256,192,217326,1,0,0:0:0:0:
256,192,217395,1,0,0:0:0:0:
256,192,217464,1,8,0:0:0:0:
256,192,217601,1,0,0:0:0:0:
256,192,217739,1,8,0:0:0:0:
256,192,217877,1,8,0:0:0:0:
256,192,217945,1,0,0:0:0:0:
256,192,218014,1,0,0:0:0:0:
256,192,218152,1,0,0:0:0:0:
256,192,218289,1,8,0:0:0:0:
256,192,218358,1,0,0:0:0:0:
256,192,218427,1,8,0:0:0:0:
256,192,218496,1,8,0:0:0:0:
256,192,218565,1,0,0:0:0:0:
256,192,218702,1,0,0:0:0:0:
256,192,218840,1,8,0:0:0:0:
256,192,218978,1,4,0:0:0:0:
256,192,219253,1,8,0:0:0:0:
256,192,219390,1,8,0:0:0:0:
256,192,219528,1,4,0:0:0:0:
256,192,219803,1,0,0:0:0:0:
256,192,219941,1,0,0:0:0:0:
256,192,220078,1,12,0:0:0:0:
256,192,220354,1,0,0:0:0:0:
256,192,220491,1,8,0:0:0:0:
256,192,220629,1,0,0:0:0:0:
256,192,220698,1,0,0:0:0:0:
256,192,220767,1,8,0:0:0:0:
256,192,220835,1,8,0:0:0:0:
256,192,220904,1,0,0:0:0:0:
256,192,221042,1,8,0:0:0:0:
256,192,221179,1,4,0:0:0:0:
256,192,221455,1,0,0:0:0:0:
256,192,221592,1,8,0:0:0:0:
256,192,221730,1,0,0:0:0:0:
256,192,221799,1,0,0:0:0:0:
256,192,221867,1,8,0:0:0:0:
256,192,222005,1,0,0:0:0:0:
256,192,222074,1,0,0:0:0:0:
256,192,222143,1,8,0:0:0:0:
256,192,222280,1,0,0:0:0:0:
256,192,222418,1,8,0:0:0:0:
256,192,222487,1,8,0:0:0:0:
256,192,222556,1,0,0:0:0:0:
256,192,222624,1,8,0:0:0:0:
256,192,222693,1,0,0:0:0:0:
256,192,222762,1,0,0:0:0:0:
256,192,222831,1,0,0:0:0:0:
256,192,222900,1,0,0:0:0:0:
256,192,222968,1,8,0:0:0:0:
256,192,223106,1,8,0:0:0:0:
256,192,223244,1,0,0:0:0:0:
256,192,223381,1,0,0:0:0:0:
256,192,223519,1,12,0:0:0:0:
256,192,223656,8,0,224895,0:0:0:0:
256,192,225033,5,0,0:0:0:0:
256,192,225101,1,0,0:0:0:0:
256,192,225170,1,8,0:0:0:0:
256,192,225308,1,8,0:0:0:0:
256,192,225445,1,8,0:0:0:0:
256,192,225583,1,4,0:0:0:0:
256,192,225858,1,0,0:0:0:0:
256,192,225996,1,8,0:0:0:0:
256,192,226133,1,0,0:0:0:0:
256,192,226202,1,0,0:0:0:0:
256,192,226271,1,8,0:0:0:0:
256,192,226409,1,0,0:0:0:0:
256,192,226546,1,8,0:0:0:0:
256,192,226684,1,8,0:0:0:0:
256,192,226959,1,0,0:0:0:0:
256,192,227097,1,8,0:0:0:0:
256,192,227234,1,8,0:0:0:0:
256,192,227372,1,0,0:0:0:0:
256,192,227441,1,8,0:0:0:0:
256,192,227510,1,0,0:0:0:0:
256,192,227578,1,0,0:0:0:0:
256,192,227647,1,8,0:0:0:0:
256,192,227785,1,8,0:0:0:0:
256,192,228060,1,0,0:0:0:0:
256,192,228198,1,8,0:0:0:0:
256,192,228335,1,0,0:0:0:0:
256,192,228404,1,0,0:0:0:0:
256,192,228473,1,8,0:0:0:0:
256,192,228611,1,0,0:0:0:0:
256,192,228748,1,8,0:0:0:0:
256,192,228886,1,0,0:0:0:0:
256,192,229161,1,0,0:0:0:0:
256,192,229299,1,8,0:0:0:0:
256,192,229436,1,8,0:0:0:0:
256,192,229574,1,0,0:0:0:0:
256,192,229643,1,0,0:0:0:0:
256,192,229711,1,8,0:0:0:0:
256,192,229780,1,0,0:0:0:0:
256,192,229849,1,8,0:0:0:0:
256,192,229987,1,4,0:0:0:0:
256,192,230262,1,0,0:0:0:0:
256,192,230400,1,8,0:0:0:0:
256,192,230537,1,0,0:0:0:0:
256,192,230606,1,0,0:0:0:0:
256,192,230675,1,8,0:0:0:0:
256,192,230812,1,0,0:0:0:0:
256,192,230950,1,8,0:0:0:0:
256,192,231088,1,8,0:0:0:0:
256,192,231363,1,0,0:0:0:0:
256,192,231500,1,8,0:0:0:0:
256,192,231638,1,0,0:0:0:0:
256,192,231776,1,8,0:0:0:0:
256,192,231845,1,8,0:0:0:0:
256,192,231913,1,0,0:0:0:0:
256,192,231982,1,0,0:0:0:0:
256,192,232051,1,8,0:0:0:0:
256,192,232189,1,4,0:0:0:0:
256,192,232464,1,0,0:0:0:0:
256,192,232601,1,8,0:0:0:0:
256,192,232739,1,0,0:0:0:0:
256,192,232808,1,0,0:0:0:0:
256,192,232877,1,8,0:0:0:0:
256,192,233014,1,0,0:0:0:0:
256,192,233152,1,8,0:0:0:0:
256,192,233289,1,12,0:0:0:0:
256,192,233565,1,0,0:0:0:0:
256,192,233702,1,8,0:0:0:0:
256,192,233840,1,0,0:0:0:0:
256,192,233978,1,8,0:0:0:0:
256,192,234046,1,8,0:0:0:0:
256,192,234115,1,0,0:0:0:0:
256,192,234184,1,0,0:0:0:0:
256,192,234253,1,8,0:0:0:0:
256,192,234390,1,4,0:0:0:0:
256,192,234666,1,0,0:0:0:0:
256,192,234803,1,8,0:0:0:0:
256,192,234941,1,0,0:0:0:0:
256,192,235010,1,0,0:0:0:0:
256,192,235078,1,8,0:0:0:0:
256,192,235216,1,0,0:0:0:0:
256,192,235354,1,8,0:0:0:0:
256,192,235491,1,8,0:0:0:0:
256,192,235560,1,8,0:0:0:0:
256,192,235629,1,0,0:0:0:0:
256,192,235767,1,0,0:0:0:0:
256,192,235835,1,0,0:0:0:0:
256,192,235904,1,8,0:0:0:0:
256,192,236042,1,8,0:0:0:0:
256,192,236179,1,0,0:0:0:0:
256,192,236248,1,8,0:0:0:0:
256,192,236317,1,0,0:0:0:0:
256,192,236386,1,0,0:0:0:0:
256,192,236455,1,8,0:0:0:0:
256,192,236592,1,8,0:0:0:0:
256,192,236867,1,0,0:0:0:0:
256,192,237005,1,8,0:0:0:0:
256,192,237143,1,0,0:0:0:0:
256,192,237211,1,0,0:0:0:0:
256,192,237280,1,8,0:0:0:0:
256,192,237418,1,0,0:0:0:0:
256,192,237556,1,8,0:0:0:0:
256,192,237693,1,8,0:0:0:0:
256,192,237762,1,0,0:0:0:0:
256,192,237831,1,0,0:0:0:0:
256,192,237968,1,0,0:0:0:0:
256,192,238037,1,0,0:0:0:0:
256,192,238106,1,8,0:0:0:0:
256,192,238244,1,8,0:0:0:0:
256,192,238381,1,0,0:0:0:0:
256,192,238450,1,0,0:0:0:0:
256,192,238519,1,8,0:0:0:0:
256,192,238588,1,0,0:0:0:0:
256,192,238656,1,8,0:0:0:0:
256,192,238794,1,4,0:0:0:0:
256,192,239069,1,0,0:0:0:0:
256,192,239207,1,8,0:0:0:0:
256,192,239345,1,0,0:0:0:0:
256,192,239413,1,0,0:0:0:0:
256,192,239482,1,8,0:0:0:0:
256,192,239620,1,0,0:0:0:0:
256,192,239757,1,8,0:0:0:0:
256,192,239895,1,8,0:0:0:0:
256,192,239964,1,0,0:0:0:0:
256,192,240033,1,8,0:0:0:0:
256,192,240170,1,0,0:0:0:0:
256,192,240308,1,8,0:0:0:0:
256,192,240445,1,0,0:0:0:0:
256,192,240583,1,8,0:0:0:0:
256,192,240652,1,8,0:0:0:0:
256,192,240721,1,0,0:0:0:0:
256,192,240789,1,0,0:0:0:0:
256,192,240858,1,8,0:0:0:0:
256,192,240996,1,4,0:0:0:0:
256,192,241271,1,0,0:0:0:0:
256,192,241409,1,8,0:0:0:0:
256,192,241546,1,0,0:0:0:0:
256,192,241615,1,0,0:0:0:0:
256,192,241684,1,8,0:0:0:0:
256,192,241822,1,0,0:0:0:0:
256,192,241959,1,8,0:0:0:0:
256,192,242097,1,12,0:0:0:0:
256,192,242372,1,0,0:0:0:0:
256,192,242510,1,8,0:0:0:0:
256,192,242647,1,0,0:0:0:0:
256,192,242785,1,8,0:0:0:0:
256,192,242854,1,8,0:0:0:0:
256,192,242922,1,0,0:0:0:0:
256,192,242991,1,0,0:0:0:0:
256,192,243060,1,8,0:0:0:0:
256,192,243198,1,4,0:0:0:0:
