osu file format v14

[General]
AudioFilename: audio.mp3
AudioLeadIn: 0
PreviewTime: 116765
Countdown: 1
SampleSet: None
StackLeniency: 0.7
Mode: 0
LetterboxInBreaks: 0
WidescreenStoryboard: 1

[Editor]
Bookmarks: 65022,95848,143600,196719,243371,247224
DistanceSpacing: 1
BeatDivisor: 4
GridSize: 32
TimelineZoom: 2.1

[Metadata]
Title:Toaru Shoukoku no Ohimesama ga...
TitleUnicode:とある小国のお姫様が、会ったこともない兄の家にやってきて住みついた事情。
Artist:nao
ArtistUnicode:nao
Creator:fstapled
Version:Hard
Source:姫様LOVEライフ!
Tags:Lithium とある小国のお姫様が、会ったこともない兄の家にやってきて住みついた事情。 demetori 寺前甲 maya 山下慎一狼 princess sugar eroge himesama love lifeとある小国のお姫様が、会ったこともない兄の家にやってきて住みついた事情。 demetori 寺前甲 maya 山下慎一狼 princess sugar eroge himesama love lifeとある小国のお姫様が、会ったこともない兄の家にやってきて住みついた事情。 demetori 寺前甲 maya 山下慎一狼 princess sugar eroge himesama love life
BeatmapID:2024771
BeatmapSetID:954570

[Difficulty]
HPDrainRate:4
CircleSize:2
OverallDifficulty:5.3
ApproachRate:8
SliderMultiplier:1.06
SliderTickRate:1

[Events]
//Background and Video events
0,0,"bg5.jpg",0,0
//Break Periods
2,135268,138584
2,183433,189226
//Storyboard Layer 0 (Background)
//Storyboard Layer 1 (Fail)
//Storyboard Layer 2 (Pass)
//Storyboard Layer 3 (Foreground)
//Storyboard Sound Samples

[TimingPoints]
1720,275.229357798165,4,3,1,70,1,0
1720,-142.857142857143,4,3,1,70,0,0
2683,-100,4,3,1,70,0,0
13623,-100,4,3,1,5,0,0
13692,-100,4,3,1,70,0,0
15137,-100,4,3,1,5,0,0
15206,-100,4,3,1,70,0,0
24701,-90.9090909090909,4,3,1,70,0,0
29449,-90.9090909090909,4,3,1,5,0,0
29518,-90.9090909090909,4,3,1,70,0,0
38050,-83.3333333333333,4,3,1,70,0,0
39082,-83.3333333333333,4,3,1,5,0,0
39151,-83.3333333333333,4,3,1,70,0,0
40458,-83.3333333333333,4,3,1,5,0,0
40527,-83.3333333333333,4,3,1,70,0,0
48990,-83.3333333333333,4,3,1,5,0,0
49059,-83.3333333333333,4,3,1,70,0,0
51123,-76.9230769230769,4,3,1,70,0,1
65573,-100,4,3,1,70,0,0
66605,-100,4,3,1,5,0,0
66674,-100,4,3,1,70,0,0
77545,-111.111111111111,4,3,1,70,0,0
81949,-100,4,3,1,70,0,0
89449,-100,4,3,1,5,0,0
89518,-100,4,3,1,70,0,0
90756,-90.9090909090909,4,3,1,70,0,0
95573,-83.3333333333333,4,3,1,70,0,0
99908,-83.3333333333333,4,3,1,5,0,0
99976,-83.3333333333333,4,3,1,70,0,0
104311,-83.3333333333333,4,3,1,5,0,0
104380,-83.3333333333333,4,3,1,70,0,0
117178,275.229357798165,4,3,1,70,1,0
117178,-83.3333333333333,4,3,1,70,0,1
131628,-100,4,3,1,70,0,0
132247,-100,4,3,1,5,0,0
132660,-100,4,3,1,5,0,0
132729,-142.857142857143,4,3,1,70,0,0
133004,-142.857142857143,4,3,1,5,0,0
134931,-142.857142857143,4,3,1,70,0,0
138853,-142.857142857143,4,3,1,5,0,0
139334,-142.857142857143,4,3,1,70,0,0
141398,-100,4,3,1,70,0,0
143600,-71.4285714285714,4,3,1,70,0,1
160871,-71.4285714285714,4,3,1,5,0,1
160940,-71.4285714285714,4,3,1,70,0,1
161628,-71.4285714285714,4,3,37,70,0,1
161903,-71.4285714285714,4,3,1,70,0,1
162178,-71.4285714285714,4,3,37,70,0,1
162316,-71.4285714285714,4,3,1,70,0,1
163830,-71.4285714285714,4,3,37,70,0,1
164105,-71.4285714285714,4,3,1,70,0,1
164931,-71.4285714285714,4,3,37,70,0,1
165206,-71.4285714285714,4,3,1,70,0,1
165481,-71.4285714285714,4,3,1,70,0,1
165619,-71.4285714285714,4,3,1,70,0,1
168164,-71.4285714285714,4,3,1,5,0,1
168233,-71.4285714285714,4,3,1,70,0,1
175045,-71.4285714285714,4,3,1,5,0,1
175114,-71.4285714285714,4,3,1,70,0,1
182270,-200,4,3,1,70,0,0
189908,-200,4,3,1,5,0,0
189976,-200,4,3,1,70,0,0
192041,-83.3333333333333,4,3,1,70,0,1
223004,-83.3333333333333,4,3,1,70,0,0
225068,-100,4,3,1,70,0,0
242752,-100,4,3,1,5,0,0

[HitObjects]
83,91,1720,6,0,L|132:82,1,37.0999988677979,0|0,0:0|0:0,0:0:0:0:
194,114,1995,2,0,L|243:105,1,37.0999988677979,0|0,0:0|0:0,0:0:0:0:
307,148,2270,2,0,L|356:139,1,37.0999988677979,0|0,0:0|0:0,0:0:0:0:
427,132,2545,1,0,0:0:0:0:
402,217,2683,6,0,L|415:334,1,106,4|0,0:0|0:0,0:0:0:0:
318,369,3096,2,0,L|312:303,1,53,8|0,0:0|0:0,0:0:0:0:
227,240,3371,2,0,L|231:292,1,53,0|0,0:0|0:0,0:0:0:0:
157,367,3646,1,8,0:0:0:0:
157,367,3784,1,0,0:0:0:0:
90,288,3921,6,0,L|72:224,1,53,0|0,0:0|0:0,0:0:0:0:
211,232,4197,2,0,L|229:168,1,53,8|2,0:0|0:0,0:0:0:0:
127,116,4472,2,0,L|167:107,3,26.5,0|0|0|0,0:0|0:0|0:0|0:0,0:0:0:0:
204,99,4747,1,8,0:0:0:0:
286,26,4885,6,0,B|306:82|306:82|303:144,1,106,2|0,0:0|0:0,0:0:0:0:
381,199,5297,2,0,L|387:139,1,53,8|0,0:0|0:0,0:0:0:0:
471,81,5573,2,0,L|465:133,1,53,0|0,0:0|0:0,0:0:0:0:
451,249,5848,1,8,0:0:0:0:
362,192,5986,2,0,B|318:195|318:195|305:203|305:203|247:208,1,106,0|0,0:0|0:0,0:0:0:0:
163,162,6398,2,0,L|94:171,1,53,8|0,0:0|0:0,0:0:0:0:
33,243,6674,2,0,L|19:204,3,26.5,0|0|0|0,0:0|0:0|0:0|0:0,0:0:0:0:
1,169,6949,1,8,0:0:0:0:
113,77,7086,6,0,P|166:68|230:85,1,106,4|0,0:0|0:0,0:0:0:0:
309,136,7499,2,0,P|342:148|378:143,1,53,8|0,0:0|0:0,0:0:0:0:
454,97,7775,2,0,P|421:85|385:90,1,53,0|0,0:0|0:0,0:0:0:0:
401,191,8050,1,8,0:0:0:0:
401,191,8187,1,0,0:0:0:0:
309,136,8325,6,0,L|317:206,1,53,0|0,0:0|0:0,0:0:0:0:
371,278,8600,2,0,L|363:348,1,53,8|0,0:0|0:0,0:0:0:0:
266,370,8875,2,0,L|223:362,3,26.5,2|0|0|0,0:0|0:0|0:0|0:0,0:0:0:0:
187,354,9151,1,8,0:0:0:0:
228,257,9288,2,0,L|114:277,1,106,6|0,0:0|0:0,0:0:0:0:
70,183,9701,2,0,L|130:195,1,53,8|0,0:0|0:0,0:0:0:0:
167,97,9976,2,0,L|107:109,1,53,0|0,0:0|0:0,0:0:0:0:
28,44,10252,1,8,0:0:0:0:
147,43,10389,6,0,B|170:99|170:99|156:159,1,106,4|0,0:0|0:0,0:0:0:0:
208,209,10802,2,0,L|268:198,1,53,12|0,0:0|0:0,0:0:0:0:
365,185,11077,2,0,L|408:180,4,26.5,8|0|0|0|0,0:0|0:0|0:0|0:0|0:0,0:0:0:0:
458,236,11490,2,0,L|473:129,1,106,4|0,0:0|0:0,0:0:0:0:
396,66,11903,5,10,0:0:0:0:
316,135,12453,1,10,0:0:0:0:
201,79,13004,1,8,0:0:0:0:
147,170,13279,1,0,0:0:0:0:
147,170,13417,1,8,0:0:0:0:
36,133,13692,6,0,L|59:260,1,106,4|2,0:0|0:0,0:0:0:0:
24,331,14105,1,10,0:0:0:0:
136,369,14655,1,10,0:0:0:0:
270,302,15206,2,0,L|271:243,1,53,10|0,0:0|0:0,0:0:0:0:
218,129,15481,2,0,L|276:144,1,53,10|8,0:0|0:0,0:0:0:0:
369,171,15756,1,10,0:0:0:0:
376,65,15894,6,0,L|368:185,1,106,6|0,0:0|0:0,0:0:0:0:
322,238,16307,2,0,L|334:304,1,53,8|0,0:0|0:0,0:0:0:0:
450,362,16582,1,0,0:0:0:0:
450,362,16719,2,0,L|383:355,1,53,0|8,0:0|0:0,0:0:0:0:
247,325,16995,2,0,L|132:339,1,106,6|0,0:0|0:0,0:0:0:0:
58,382,17408,6,0,L|45:320,1,53,8|0,0:0|0:0,0:0:0:0:
121,204,17683,1,0,0:0:0:0:
121,204,17820,2,0,L|104:262,1,53,0|8,0:0|0:0,0:0:0:0:
44,129,18096,2,0,L|156:105,1,106,2|0,0:0|0:0,0:0:0:0:
269,59,18508,6,0,L|203:45,1,53,8|0,0:0|0:0,0:0:0:0:
132,26,18784,1,0,0:0:0:0:
147,106,18921,1,0,0:0:0:0:
66,75,19059,1,12,0:0:0:0:
225,149,19334,6,0,L|235:264,1,106,8|0,0:0|0:0,0:0:0:0:
246,344,19747,1,2,0:0:0:0:
246,344,20022,1,2,0:0:0:0:
316,238,20297,2,0,L|430:224,1,106,6|2,0:0|0:0,0:0:0:0:
505,218,20710,5,10,0:0:0:0:
438,134,21261,1,10,0:0:0:0:
461,46,21811,1,10,0:0:0:0:
351,76,22086,1,2,0:0:0:0:
351,76,22224,1,10,0:0:0:0:
258,33,22499,2,0,L|250:142,1,106,4|0,0:0|0:0,0:0:0:0:
161,209,22912,5,10,0:0:0:0:
36,145,23463,1,10,0:0:0:0:
137,44,23738,1,0,0:0:0:0:
137,44,23875,2,0,L|135:104,1,53,2|14,0:0|0:0,0:0:0:0:
103,246,24151,2,0,L|161:240,3,53,2|10|10|10,0:0|0:0|0:0|0:0,0:0:0:0:
261,155,24701,6,0,L|249:293,1,116.60000355835,4|0,0:0|0:0,0:0:0:0:
335,380,25114,2,0,L|341:299,1,58.3000017791749,8|0,0:0|0:0,0:0:0:0:
353,164,25389,1,0,0:0:0:0:
353,164,25527,2,0,L|348:222,1,58.3000017791749,0|8,0:0|0:0,0:0:0:0:
482,155,25802,2,0,B|454:138|423:151|423:151|397:161|365:144,1,116.60000355835,2|0,0:0|0:0,0:0:0:0:
274,106,26215,6,0,P|272:76|279:48,1,58.3000017791749,8|0,0:0|0:0,0:0:0:0:
217,181,26490,1,0,0:0:0:0:
217,181,26628,2,0,P|179:185|143:177,1,58.3000017791749,0|8,0:0|0:0,0:0:0:0:
60,100,26903,2,0,B|49:134|63:159|63:159|78:193|65:233,1,116.60000355835,6|0,0:0|0:0,0:0:0:0:
30,308,27316,6,0,P|57:309|91:298,1,58.3000017791749,8|0,0:0|0:0,0:0:0:0:
166,342,27591,2,0,B|199:334|223:349|223:349|250:367|290:358,1,116.60000355835,2|12,0:0|0:0,0:0:0:0:
362,301,28142,2,0,L|354:263,3,29.1500008895874,14|0|0|0,0:0|0:0|0:0|0:0,0:0:0:0:
348,236,28417,1,8,0:0:0:0:
314,136,28692,5,10,0:0:0:0:
314,136,28830,2,0,P|268:162|201:159,1,116.60000355835,8|8,0:0|0:0,0:0:0:0:
122,117,29242,1,0,0:0:0:0:
122,117,29518,6,0,P|85:111|50:120,1,58.3000017791749,2|0,0:0|0:0,0:0:0:0:
64,223,29793,2,0,P|92:229|121:225,1,58.3000017791749,2|0,0:0|0:0,0:0:0:0:
217,171,30068,2,0,P|245:167|274:173,1,58.3000017791749,2|0,0:0|0:0,0:0:0:0:
396,251,30343,2,0,P|367:254|338:248,1,58.3000017791749,2|0,0:0|0:0,0:0:0:0:
379,102,30619,2,0,P|382:130|376:159,1,58.3000017791749,2|0,0:0|0:0,0:0:0:0:
396,251,30894,6,0,P|393:301|440:350,1,116.60000355835,2|0,0:0|0:0,0:0:0:0:
476,193,31307,1,8,0:0:0:0:
476,193,31444,2,0,B|489:157|477:131|477:131|465:101|485:68,3,116.60000355835,2|2|2|2,0:0|0:0|0:0|0:0,0:0:0:0:
392,39,32545,2,0,P|343:74|282:63,1,116.60000355835,2|0,0:0|0:0,0:0:0:0:
184,0,33096,2,0,P|195:31|195:70,1,58.3000017791749,2|8,0:0|0:0,0:0:0:0:
144,142,33371,1,0,0:0:0:0:
0,90,33646,2,0,L|67:82,1,58.3000017791749,4|0,0:0|0:0,0:0:0:0:
159,153,33921,6,0,P|174:191|172:218,1,58.3000017791749,2|0,0:0|0:0,0:0:0:0:
105,281,34197,2,0,P|90:319|92:346,1,58.3000017791749,2|0,0:0|0:0,0:0:0:0:
183,380,34472,2,0,P|211:377|237:365,1,58.3000017791749,2|0,0:0|0:0,0:0:0:0:
308,277,34747,2,0,P|334:264|362:262,1,58.3000017791749,2|0,0:0|0:0,0:0:0:0:
439,322,35022,2,0,P|441:350|454:377,1,58.3000017791749,2|0,0:0|0:0,0:0:0:0:
490,249,35297,2,0,P|498:200|455:135,1,116.60000355835,2|0,0:0|0:0,0:0:0:0:
359,133,35848,6,0,L|294:141,1,58.3000017791749,6|0,0:0|0:0,0:0:0:0:
232,205,36123,2,0,L|174:197,1,58.3000017791749,10|0,0:0|0:0,0:0:0:0:
108,118,36398,2,0,L|50:131,1,58.3000017791749,2|8,0:0|0:0,0:0:0:0:
30,221,36674,2,0,L|41:278,1,58.3000017791749,2|0,0:0|0:0,0:0:0:0:
153,330,36949,2,0,L|129:215,1,116.60000355835,14|8,0:0|0:0,0:0:0:0:
220,106,37499,2,0,L|195:150,3,29.1500008895874,0|0|0|0,0:0|0:0|0:0|0:0,0:0:0:0:
298,191,37775,2,0,L|283:165,3,29.1500008895874,0|0|0|0,0:0|0:0|0:0|0:0,0:0:0:0:
345,95,38050,5,4,0:0:0:0:
417,159,38325,2,0,P|420:198|407:236,1,63.5999980590821,10|0,0:0|0:0,0:0:0:0:
329,342,38600,2,0,P|326:303|339:265,1,63.5999980590821,2|0,0:0|0:0,0:0:0:0:
298,191,38875,2,0,P|267:187|235:193,1,63.5999980590821,10|0,0:0|0:0,0:0:0:0:
157,289,39151,6,0,P|127:297|94:286,1,63.5999980590821,2|0,0:0|0:0,0:0:0:0:
139,200,39426,2,0,L|149:131,1,63.5999980590821,10|0,0:0|0:0,0:0:0:0:
54,7,39701,2,0,L|63:69,1,63.5999980590821,2|0,0:0|0:0,0:0:0:0:
20,166,39976,1,10,0:0:0:0:
20,166,40114,1,2,0:0:0:0:
77,229,40252,6,0,P|111:233|151:213,1,63.5999980590821,6|0,0:0|0:0,0:0:0:0:
283,136,40527,2,0,P|249:132|209:152,1,63.5999980590821,10|0,0:0|0:0,0:0:0:0:
225,254,40802,2,0,B|216:290|230:314|230:314|250:344|242:388,1,127.199996118164,2|0,0:0|0:0,0:0:0:0:
236,241,41353,2,0,L|366:255,1,127.199996118164,10|8,0:0|0:0,0:0:0:0:
457,218,41903,2,0,L|467:296,1,63.5999980590821,10|0,0:0|0:0,0:0:0:0:
321,160,42178,2,0,L|329:96,1,63.5999980590821,2|0,0:0|0:0,0:0:0:0:
396,34,42453,2,0,P|337:53|277:14,1,127.199996118164,6|8,0:0|0:0,0:0:0:0:
186,71,43004,5,0,0:0:0:0:
186,71,43142,2,0,L|194:144,1,63.5999980590821,8|0,0:0|0:0,0:0:0:0:
105,166,43417,1,0,0:0:0:0:
105,166,43555,2,0,L|97:239,1,63.5999980590821,10|0,0:0|0:0,0:0:0:0:
165,320,43830,1,0,0:0:0:0:
165,320,43968,2,0,L|92:328,1,63.5999980590821,10|0,0:0|0:0,0:0:0:0:
256,262,44242,1,0,0:0:0:0:
256,262,44380,2,0,L|329:270,1,63.5999980590821,10|8,0:0|0:0,0:0:0:0:
430,343,44655,6,0,P|417:276|445:212,1,127.199996118164,6|8,0:0|0:0,0:0:0:0:
441,216,45068,2,0,P|454:149|426:85,1,127.199996118164,2|8,0:0|0:0,0:0:0:0:
347,54,45481,2,0,P|327:30|318:0,1,63.5999980590821,2|0,0:0|0:0,0:0:0:0:
250,111,45756,6,0,L|180:118,1,63.5999980590821,14|0,0:0|0:0,0:0:0:0:
69,212,46031,2,0,L|139:219,1,63.5999980590821,8|2,0:0|0:0,0:0:0:0:
264,260,46307,1,8,0:0:0:0:
264,260,46444,1,0,0:0:0:0:
184,323,46582,1,2,0:0:0:0:
184,323,46719,1,0,0:0:0:0:
292,359,46857,6,0,L|358:344,1,63.5999980590821,6|0,0:0|0:0,0:0:0:0:
476,275,47132,2,0,L|410:260,1,63.5999980590821,8|0,0:0|0:0,0:0:0:0:
314,151,47408,2,0,L|376:165,1,63.5999980590821,8|0,0:0|0:0,0:0:0:0:
510,109,47683,2,0,L|444:94,1,63.5999980590821,10|0,0:0|0:0,0:0:0:0:
356,37,47958,6,0,L|341:103,1,63.5999980590821,10|0,0:0|0:0,0:0:0:0:
272,221,48233,2,0,L|257:155,1,63.5999980590821,8|0,0:0|0:0,0:0:0:0:
148,59,48509,2,0,L|162:121,1,63.5999980590821,8|0,0:0|0:0,0:0:0:0:
106,255,48784,2,0,L|91:189,1,63.5999980590821,10|0,0:0|0:0,0:0:0:0:
25,66,49059,6,0,L|2:201,1,127.199996118164,14|0,0:0|0:0,0:0:0:0:
94,227,49472,2,0,L|115:352,1,127.199996118164,14|0,0:0|0:0,0:0:0:0:
203,291,49885,2,0,L|223:217,1,63.5999980590821,14|0,0:0|0:0,0:0:0:0:
283,349,50160,1,6,0:0:0:0:
63,82,51123,6,0,L|142:73,1,68.8999968460084,6|0,0:0|0:0,0:0:0:0:
291,106,51398,2,0,L|222:113,1,68.8999968460084,2|8,0:0|0:0,0:0:0:0:
128,213,51674,2,0,L|196:205,1,68.8999968460084,2|0,0:0|0:0,0:0:0:0:
313,246,51949,1,2,0:0:0:0:
313,246,52086,1,10,0:0:0:0:
249,384,52224,6,0,L|234:316,1,68.8999968460084,2|0,0:0|0:0,0:0:0:0:
395,311,52499,2,0,P|412:280|409:243,1,68.8999968460084,2|8,0:0|0:0,0:0:0:0:
340,158,52775,2,0,P|325:127|325:90,1,68.8999968460084,2|0,0:0|0:0,0:0:0:0:
468,25,53050,2,0,P|425:47|390:47,1,68.8999968460084,2|8,0:0|0:0,0:0:0:0:
281,3,53325,2,0,P|215:16|183:73,1,137.799993692017,2|0,0:0|0:0,0:0:0:0:
97,197,53738,6,0,L|103:114,1,68.8999968460084,8|0,0:0|0:0,0:0:0:0:
190,275,54013,2,0,L|196:192,1,68.8999968460084,0|0,0:0|0:0,0:0:0:0:
291,124,54288,2,0,L|286:192,1,68.8999968460084,8|0,0:0|0:0,0:0:0:0:
271,348,54564,1,8,0:0:0:0:
271,348,54839,1,8,0:0:0:0:
365,272,55114,6,0,L|446:281,2,68.8999968460084,10|2|2,0:0|0:0|0:0,0:0:0:0:
274,193,55527,2,0,P|255:145|258:112,1,68.8999968460084,6|0,0:0|0:0,0:0:0:0:
419,116,55802,2,0,L|342:133,1,68.8999968460084,2|10,0:0|0:0,0:0:0:0:
501,164,56077,2,0,P|505:206|483:246,1,68.8999968460084,2|0,0:0|0:0,0:0:0:0:
419,93,56353,2,0,P|425:55|451:28,1,68.8999968460084,2|10,0:0|0:0,0:0:0:0:
315,64,56628,6,0,P|284:79|250:77,1,68.8999968460084,2|0,0:0|0:0,0:0:0:0:
126,138,56903,2,0,P|156:153|190:151,1,68.8999968460084,2|8,0:0|0:0,0:0:0:0:
271,204,57178,2,0,L|277:276,1,68.8999968460084,2|0,0:0|0:0,0:0:0:0:
287,217,57453,2,0,L|293:289,1,68.8999968460084,2|8,0:0|0:0,0:0:0:0:
253,371,57729,2,0,L|391:357,1,137.799993692017,2|0,0:0|0:0,0:0:0:0:
475,310,58142,6,0,P|486:343|483:385,1,68.8999968460084,8|0,0:0|0:0,0:0:0:0:
399,242,58417,2,0,P|398:207|409:175,1,68.8999968460084,0|0,0:0|0:0,0:0:0:0:
484,117,58692,1,8,0:0:0:0:
484,117,58830,2,0,L|336:102,1,137.799993692017,4|0,0:0|0:0,0:0:0:0:
216,41,59242,2,0,L|290:33,1,68.8999968460084,8|0,0:0|0:0,0:0:0:0:
103,103,59518,6,0,P|115:72|115:27,2,68.8999968460084,10|8|10,0:0|0:0|0:0,0:0:0:0:
50,176,59931,2,0,B|42:252|42:252|72:334,1,137.799993692017,6|0,0:0|0:0,0:0:0:0:
137,360,60343,2,0,L|214:348,1,68.8999968460084,10|0,0:0|0:0,0:0:0:0:
294,273,60619,1,2,0:0:0:0:
294,273,60756,2,0,B|288:317|288:317|295:354,1,68.8999968460084,2|8,0:0|0:0,0:0:0:0:
382,308,61031,2,0,B|446:299|446:299|512:329,1,137.799993692017,2|2,0:0|0:0,0:0:0:0:
383,205,61444,6,0,L|372:130,1,68.8999968460084,10|0,0:0|0:0,0:0:0:0:
395,39,61719,1,2,0:0:0:0:
395,39,61857,2,0,B|305:49,1,68.8999968460084,2|8,0:0|0:0,0:0:0:0:
153,147,62132,2,0,L|298:124,1,137.799993692017,6|0,0:0|0:0,0:0:0:0:
387,250,62683,2,0,L|239:235,1,137.799993692017,6|0,0:0|0:0,0:0:0:0:
122,294,63096,1,8,0:0:0:0:
122,294,63233,2,0,P|158:238|131:172,1,137.799993692017,6|0,0:0|0:0,0:0:0:0:
2,106,63646,6,0,P|37:115|79:111,1,68.8999968460084,8|4,0:0|0:0,0:0:0:0:
135,54,63921,2,0,P|202:64|247:115,1,137.799993692017,2|10,0:0|0:0,0:0:0:0:
246,114,64334,2,0,L|386:90,1,137.799993692017,6|0,0:0|0:0,0:0:0:0:
401,171,64747,6,0,L|390:248,1,68.8999968460084,8|0,0:0|0:0,0:0:0:0:
305,286,65022,2,0,L|316:363,1,68.8999968460084,10|0,0:0|0:0,0:0:0:0:
207,202,65297,2,0,L|196:279,1,68.8999968460084,10|0,0:0|0:0,0:0:0:0:
112,338,65573,1,14,0:0:0:0:
136,114,66123,6,0,L|310:130,1,159,2|0,0:0|0:0,0:0:0:0:
67,177,66674,1,6,0:0:0:0:
256,192,66742,12,8,68325,0:0:0:0:
68,94,68738,6,0,L|187:82,1,106,4|0,0:0|0:0,0:0:0:0:
270,162,69151,2,0,L|214:169,1,53,8|0,0:0|0:0,0:0:0:0:
160,275,69426,2,0,L|212:268,1,53,0|0,0:0|0:0,0:0:0:0:
342,252,69701,1,8,0:0:0:0:
342,252,69839,1,0,0:0:0:0:
291,332,69976,6,0,L|301:402,1,53,0|0,0:0|0:0,0:0:0:0:
447,253,70252,2,0,L|437:323,1,53,8|0,0:0|0:0,0:0:0:0:
257,154,70527,2,0,L|268:201,3,26.5,0|0|0|0,0:0|0:0|0:0|0:0,0:0:0:0:
268,207,70802,1,8,0:0:0:0:
290,70,70940,2,0,P|238:65|185:101,1,106,0|0,0:0|0:0,0:0:0:0:
130,179,71353,6,0,L|77:168,1,53,8|0,0:0|0:0,0:0:0:0:
159,279,71628,2,0,L|106:268,1,53,0|0,0:0|0:0,0:0:0:0:
17,226,71903,1,8,0:0:0:0:
9,380,72041,2,0,L|118:362,1,106,0|0,0:0|0:0,0:0:0:0:
177,273,72453,2,0,L|237:281,1,53,8|0,0:0|0:0,0:0:0:0:
318,352,72729,2,0,L|356:345,3,26.5,0|0|0|0,0:0|0:0|0:0|0:0,0:0:0:0:
367,343,73004,1,8,0:0:0:0:
416,255,73142,6,0,P|423:204|393:149,1,106,4|0,0:0|0:0,0:0:0:0:
307,101,73554,2,0,P|280:105|254:102,1,53,8|0,0:0|0:0,0:0:0:0:
396,34,73830,2,0,P|422:30|449:33,1,53,0|0,0:0|0:0,0:0:0:0:
395,147,74105,1,8,0:0:0:0:
395,147,74242,1,0,0:0:0:0:
268,196,74380,2,0,L|280:257,1,53,0|0,0:0|0:0,0:0:0:0:
360,297,74655,2,0,L|349:349,1,53,8|0,0:0|0:0,0:0:0:0:
197,363,74931,2,0,L|154:355,3,26.5,0|0|0|0,0:0|0:0|0:0|0:0,0:0:0:0:
146,354,75206,1,8,0:0:0:0:
90,257,75343,6,0,P|83:204|119:156,1,106,4|0,0:0|0:0,0:0:0:0:
264,155,75756,2,0,P|232:155|200:142,1,53,8|0,0:0|0:0,0:0:0:0:
140,31,76031,2,0,P|145:49|146:74,3,26.5,8|0|0|0,0:0|0:0|0:0|0:0,0:0:0:0:
151,82,76307,1,8,0:0:0:0:
277,165,76444,2,0,L|396:142,1,106,4|0,0:0|0:0,0:0:0:0:
464,28,76857,2,0,L|458:84,1,53,0|0,0:0|0:0,0:0:0:0:
445,240,77132,2,0,L|450:204,4,26.5,0|0|0|0|0,0:0|0:0|0:0|0:0|0:0,0:0:0:0:
399,335,77545,6,0,B|330:342|330:342|294:317,1,95.3999970886231,4|2,0:0|0:0,0:0:0:0:
225,266,77958,2,0,L|168:277,1,47.6999985443116,2|2,0:0|0:0,0:0:0:0:
76,264,78233,2,0,L|85:310,1,47.6999985443116,2|2,0:0|0:0,0:0:0:0:
162,372,78508,1,2,0:0:0:0:
284,339,78646,2,0,L|335:345,1,47.6999985443116,2|0,0:0|0:0,0:0:0:0:
404,289,78921,2,0,L|455:295,1,47.6999985443116,2|0,0:0|0:0,0:0:0:0:
314,227,79197,1,2,0:0:0:0:
314,227,79334,5,8,0:0:0:0:
404,168,79472,1,0,0:0:0:0:
214,148,79747,2,0,L|103:147,1,95.3999970886231,4|0,0:0|0:0,0:0:0:0:
21,182,80160,2,0,L|16:126,1,47.6999985443116,2|2,0:0|0:0,0:0:0:0:
78,54,80435,2,0,L|83:7,1,47.6999985443116,2|2,0:0|0:0,0:0:0:0:
215,71,80710,5,2,0:0:0:0:
229,51,80848,2,0,L|170:44,1,47.6999985443116,2|0,0:0|0:0,0:0:0:0:
279,145,81123,1,2,0:0:0:0:
300,120,81261,2,0,L|292:185,1,47.6999985443116,2|8,0:0|0:0,0:0:0:0:
354,273,81536,2,0,L|359:225,2,47.6999985443116,10|2|2,0:0|0:0|0:0,0:0:0:0:
276,328,81949,6,0,B|210:331|210:331|166:304,1,106,6|0,0:0|0:0,0:0:0:0:
107,178,82362,2,0,P|117:213|117:236,1,53,8|0,0:0|0:0,0:0:0:0:
35,359,82637,1,0,0:0:0:0:
35,359,82775,2,0,P|65:347|91:346,1,53,0|8,0:0|0:0,0:0:0:0:
215,220,83050,6,0,B|259:192|259:192|319:194,1,106,2|0,0:0|0:0,0:0:0:0:
403,286,83463,2,0,L|390:229,1,53,8|0,0:0|0:0,0:0:0:0:
457,93,83738,1,0,0:0:0:0:
457,93,83875,2,0,L|445:144,1,53,0|8,0:0|0:0,0:0:0:0:
250,104,84151,2,0,B|297:98|297:98|314:103|314:103|356:97,1,106,6|0,0:0|0:0,0:0:0:0:
150,73,84564,6,0,P|149:110|157:148,1,53,8|0,0:0|0:0,0:0:0:0:
223,200,84839,1,0,0:0:0:0:
223,200,84976,2,0,P|235:250|232:271,1,53,0|8,0:0|0:0,0:0:0:0:
163,359,85252,2,0,B|249:342|249:342|233:365,1,106,4|8,0:0|0:0,0:0:0:0:
96,304,85664,2,0,P|118:288|159:272,3,53,0|8|0|0,0:0|0:0|0:0|0:0,0:0:0:0:
242,258,86215,1,0,0:0:0:0:
173,144,86353,6,0,B|218:155|218:155|242:148|242:148|289:159,1,106,4|0,0:0|0:0,0:0:0:0:
395,223,86765,2,0,P|388:190|393:164,1,53,2|2,0:0|0:0,0:0:0:0:
439,95,87041,2,0,P|446:70|444:44,1,53,10|2,0:0|0:0,0:0:0:0:
420,11,87316,1,2,0:0:0:0:
343,69,87453,2,0,L|274:60,1,53,2|0,0:0|0:0,0:0:0:0:
225,137,87729,2,0,L|172:143,2,53,2|0|2,0:0|0:0|0:0,0:0:0:0:
67,134,88142,6,0,B|68:162|68:162|76:192,2,53,8|8|8,0:0|0:0|0:0,0:0:0:0:
151,247,88554,2,0,B|163:297|163:297|144:363,1,106,4|2,0:0|0:0,0:0:0:0:
14,287,88967,2,0,L|73:289,1,53,2|2,0:0|0:0,0:0:0:0:
231,196,89242,2,0,L|251:260,1,53,10|0,0:0|0:0,0:0:0:0:
285,332,89518,1,2,0:0:0:0:
285,332,89655,1,2,0:0:0:0:
348,253,89793,5,10,0:0:0:0:
398,349,89931,2,0,L|394:379,2,26.5,2|0|10,0:0|0:0|0:0,0:0:0:0:
468,265,90206,1,8,0:0:0:0:
413,174,90343,2,0,L|351:165,1,53,2|2,0:0|0:0,0:0:0:0:
257,198,90619,1,2,0:0:0:0:
255,70,90756,6,0,B|225:119|225:119|233:190,1,116.60000355835,6|0,0:0|0:0,0:0:0:0:
348,279,91169,2,0,P|322:265|293:262,1,58.3000017791749,8|0,0:0|0:0,0:0:0:0:
192,305,91444,1,0,0:0:0:0:
192,305,91582,2,0,P|163:326|134:326,1,58.3000017791749,0|8,0:0|0:0,0:0:0:0:
31,243,91857,2,0,B|44:302|44:302|40:320|40:320|52:373,1,116.60000355835,0|0,0:0|0:0,0:0:0:0:
131,237,92270,6,0,L|114:160,1,58.3000017791749,8|0,0:0|0:0,0:0:0:0:
89,79,92545,1,0,0:0:0:0:
89,79,92683,2,0,P|120:96|150:97,1,58.3000017791749,0|8,0:0|0:0,0:0:0:0:
254,45,92958,2,0,B|293:34|293:34|380:57,1,116.60000355835,4|0,0:0|0:0,0:0:0:0:
452,119,93371,6,0,L|438:196,1,58.3000017791749,8|0,0:0|0:0,0:0:0:0:
374,281,93646,2,0,B|345:306|345:306|362:215,1,116.60000355835,0|12,0:0|0:0,0:0:0:0:
276,158,94059,1,0,0:0:0:0:
276,158,94197,2,0,L|267:218,1,58.3000017791749,8|8,0:0|0:0,0:0:0:0:
171,329,94472,2,0,L|162:271,1,58.3000017791749,8|0,0:0|0:0,0:0:0:0:
129,96,94747,2,0,L|137:153,1,58.3000017791749,0|0,0:0|0:0,0:0:0:0:
155,317,95022,2,0,L|146:259,1,58.3000017791749,0|0,0:0|0:0,0:0:0:0:
226,75,95297,2,0,L|265:84,3,29.1500008895874,0|0|0|0,0:0|0:0|0:0|0:0,0:0:0:0:
318,148,95573,6,0,P|350:151|393:137,1,63.5999980590821,14|0,0:0|0:0,0:0:0:0:
510,56,95848,2,0,P|478:53|435:67,1,63.5999980590821,10|0,0:0|0:0,0:0:0:0:
303,161,96123,2,0,P|335:164|378:150,1,63.5999980590821,10|0,0:0|0:0,0:0:0:0:
495,69,96398,2,0,P|463:66|420:80,1,63.5999980590821,10|0,0:0|0:0,0:0:0:0:
353,28,96674,2,0,P|350:60|364:103,1,63.5999980590821,10|0,0:0|0:0,0:0:0:0:
445,220,96949,2,0,P|448:188|434:145,1,63.5999980590821,10|0,0:0|0:0,0:0:0:0:
348,258,97224,2,0,P|333:301|335:331,1,63.5999980590821,8|0,0:0|0:0,0:0:0:0:
263,192,97499,6,0,P|231:189|188:203,1,63.5999980590821,10|0,0:0|0:0,0:0:0:0:
71,284,97774,2,0,P|103:287|146:273,1,63.5999980590821,10|0,0:0|0:0,0:0:0:0:
278,179,98049,2,0,P|246:176|203:190,1,63.5999980590821,10|0,0:0|0:0,0:0:0:0:
86,271,98325,2,0,P|118:274|159:261,1,63.5999980590821,10|0,0:0|0:0,0:0:0:0:
228,312,98600,2,0,P|230:281|217:239,1,63.5999980590821,14|0,0:0|0:0,0:0:0:0:
136,120,98875,2,0,P|133:152|147:195,1,63.5999980590821,8|0,0:0|0:0,0:0:0:0:
233,82,99150,2,0,P|248:39|246:9,1,63.5999980590821,14|0,0:0|0:0,0:0:0:0:
37,39,99426,2,0,P|39:70|51:99,1,63.5999980590821,8|0,0:0|0:0,0:0:0:0:
153,139,99701,5,12,0:0:0:0:
153,139,99976,2,0,L|162:206,1,63.5999980590821,10|0,0:0|0:0,0:0:0:0:
249,150,100252,2,0,L|258:217,1,63.5999980590821,10|0,0:0|0:0,0:0:0:0:
351,195,100527,2,0,L|342:131,1,63.5999980590821,10|0,0:0|0:0,0:0:0:0:
428,26,100802,2,0,P|386:37|366:63,1,63.5999980590821,10|0,0:0|0:0,0:0:0:0:
295,219,101077,2,0,P|337:208|357:182,1,63.5999980590821,10|0,0:0|0:0,0:0:0:0:
185,166,101353,2,0,L|193:233,1,63.5999980590821,10|0,0:0|0:0,0:0:0:0:
261,298,101628,2,0,L|269:365,1,63.5999980590821,8|0,0:0|0:0,0:0:0:0:
375,200,101903,6,0,L|296:215,1,63.5999980590821,14|0,0:0|0:0,0:0:0:0:
167,111,102178,2,0,L|229:99,1,63.5999980590821,10|0,0:0|0:0,0:0:0:0:
363,189,102453,2,0,L|284:204,1,63.5999980590821,10|0,0:0|0:0,0:0:0:0:
155,100,102728,2,0,L|217:88,1,63.5999980590821,10|0,0:0|0:0,0:0:0:0:
359,55,103004,5,10,0:0:0:0:
256,192,103073,12,4,104105,0:0:0:0:
152,55,104380,6,0,L|154:136,1,63.5999980590821,10|0,0:0|0:0,0:0:0:0:
213,251,104655,2,0,L|211:187,1,63.5999980590821,2|0,0:0|0:0,0:0:0:0:
344,126,104931,2,0,L|280:124,1,63.5999980590821,10|0,0:0|0:0,0:0:0:0:
84,93,105206,2,0,P|111:116|155:126,1,63.5999980590821,2|0,0:0|0:0,0:0:0:0:
268,43,105481,2,0,P|238:53|214:74,1,63.5999980590821,10|0,0:0|0:0,0:0:0:0:
214,179,105756,2,0,P|224:208|245:232,1,63.5999980590821,0|0,0:0|0:0,0:0:0:0:
413,248,106031,2,0,P|386:259|332:257,1,63.5999980590821,8|0,0:0|0:0,0:0:0:0:
205,338,106307,2,0,B|259:315|304:338|304:338|347:363|413:341,1,190.799994177246,14|0,0:0|0:0,0:0:0:0:
405,255,106857,2,0,B|362:270|319:246|319:246|274:222|220:245,1,190.799994177246,14|0,0:0|0:0,0:0:0:0:
136,312,107408,6,0,L|114:184,2,127.199996118164,14|12|2,0:0|0:0|0:0,0:0:0:0:
234,350,108233,1,2,0:0:0:0:
386,203,108508,2,0,L|246:220,1,127.199996118164,4|8,0:0|0:0,0:0:0:0:
193,187,109059,1,0,0:0:0:0:
193,187,109197,2,0,L|319:171,1,127.199996118164,8|0,0:0|0:0,0:0:0:0:
429,82,109609,6,0,L|346:90,1,63.5999980590821,10|0,0:0|0:0,0:0:0:0:
219,48,109885,1,0,0:0:0:0:
219,48,110022,2,0,L|282:41,1,63.5999980590821,10|0,0:0|0:0,0:0:0:0:
133,111,110297,1,0,0:0:0:0:
133,111,110435,2,0,L|69:117,1,63.5999980590821,10|8,0:0|0:0,0:0:0:0:
17,196,110710,6,0,L|28:274,1,63.5999980590821,6|0,0:0|0:0,0:0:0:0:
120,299,110986,1,8,0:0:0:0:
120,299,111123,2,0,L|111:236,1,63.5999980590821,2|0,0:0|0:0,0:0:0:0:
195,165,111398,1,8,0:0:0:0:
195,165,111536,2,0,L|203:227,1,63.5999980590821,2|0,0:0|0:0,0:0:0:0:
264,318,111811,2,0,L|399:295,1,127.199996118164,14|12,0:0|0:0,0:0:0:0:
436,153,112362,2,0,L|452:222,1,63.5999980590821,8|8,0:0|0:0,0:0:0:0:
335,91,112637,2,0,L|319:160,1,63.5999980590821,8|8,0:0|0:0,0:0:0:0:
370,16,112912,6,0,B|336:-2|305:11|305:11|268:24|234:7,2,127.199996118164,6|8|8,0:0|0:0|0:0,0:0:0:0:
460,65,113738,2,0,P|466:97|457:145,1,63.5999980590821,10|0,0:0|0:0,0:0:0:0:
352,174,114013,2,0,P|337:245|357:317,2,127.199996118164,10|8|8,0:0|0:0|0:0,0:0:0:0:
277,109,114839,2,0,P|243:97|203:103,1,63.5999980590821,10|0,0:0|0:0,0:0:0:0:
170,191,115114,2,0,L|27:180,1,127.199996118164,14|0,0:0|0:0,0:0:0:0:
160,64,115527,2,0,L|171:207,1,127.199996118164,14|0,0:0|0:0,0:0:0:0:
37,244,115940,2,0,L|44:172,1,63.5999980590821,14|0,0:0|0:0,0:0:0:0:
114,334,116215,1,14,0:0:0:0:
188,252,117178,6,0,L|266:244,1,63.5999980590821,6|0,0:0|0:0,0:0:0:0:
390,155,117453,2,0,L|327:162,1,63.5999980590821,2|8,0:0|0:0,0:0:0:0:
177,102,117729,2,0,L|240:95,1,63.5999980590821,2|0,0:0|0:0,0:0:0:0:
327,35,118004,1,2,0:0:0:0:
327,35,118142,1,10,0:0:0:0:
170,114,118279,6,0,P|164:157|175:203,1,63.5999980590821,2|0,0:0|0:0,0:0:0:0:
243,311,118554,2,0,P|245:280|240:249,1,63.5999980590821,2|8,0:0|0:0,0:0:0:0:
65,273,118830,2,0,P|105:277|143:260,1,63.5999980590821,2|0,0:0|0:0,0:0:0:0:
331,148,119105,2,0,P|291:144|253:161,1,63.5999980590821,2|8,0:0|0:0,0:0:0:0:
411,249,119380,6,0,B|398:211|413:185|413:185|430:149|416:112,1,127.199996118164,2|0,0:0|0:0,0:0:0:0:
371,39,119793,2,0,P|396:40|435:29,1,63.5999980590821,8|0,0:0|0:0,0:0:0:0:
264,83,120068,2,0,P|239:78|203:58,1,63.5999980590821,0|0,0:0|0:0,0:0:0:0:
466,111,120343,2,0,P|487:97|513:66,1,63.5999980590821,8|0,0:0|0:0,0:0:0:0:
319,191,120619,5,8,0:0:0:0:
319,191,120894,1,8,0:0:0:0:
196,252,121169,2,0,L|208:326,2,63.5999980590821,10|2|2,0:0|0:0|0:0,0:0:0:0:
135,151,121582,6,0,L|63:163,1,63.5999980590821,2|0,0:0|0:0,0:0:0:0:
203,18,121857,2,0,L|215:90,1,63.5999980590821,2|8,0:0|0:0,0:0:0:0:
145,213,122132,2,0,L|134:150,1,63.5999980590821,2|0,0:0|0:0,0:0:0:0:
213,80,122408,1,2,0:0:0:0:
213,80,122545,1,10,0:0:0:0:
251,172,122683,6,0,L|324:161,1,63.5999980590821,2|0,0:0|0:0,0:0:0:0:
474,266,122958,2,0,L|401:255,1,63.5999980590821,2|8,0:0|0:0,0:0:0:0:
391,247,123233,2,0,L|406:321,1,63.5999980590821,2|0,0:0|0:0,0:0:0:0:
462,175,123508,2,0,L|474:112,1,63.5999980590821,2|8,0:0|0:0,0:0:0:0:
364,0,123784,2,0,B|360:58|360:58|389:137,1,127.199996118164,2|0,0:0|0:0,0:0:0:0:
326,209,124197,6,0,L|253:198,1,63.5999980590821,8|0,0:0|0:0,0:0:0:0:
139,117,124472,2,0,L|201:126,1,63.5999980590821,0|0,0:0|0:0,0:0:0:0:
166,21,124747,1,8,0:0:0:0:
73,48,124885,2,0,B|47:89|47:89|55:185,1,127.199996118164,4|0,0:0|0:0,0:0:0:0:
142,275,125297,2,0,L|135:193,1,63.5999980590821,8|0,0:0|0:0,0:0:0:0:
207,352,125573,6,0,P|243:355|278:343,1,63.5999980590821,10|8,0:0|0:0,0:0:0:0:
148,262,125848,1,10,0:0:0:0:
227,184,125986,2,0,L|365:193,1,127.199996118164,6|0,0:0|0:0,0:0:0:0:
186,97,126398,2,0,P|154:87|122:92,1,63.5999980590821,10|0,0:0|0:0,0:0:0:0:
55,157,126674,1,2,0:0:0:0:
55,157,126811,2,0,P|64:190|52:235,1,63.5999980590821,2|8,0:0|0:0,0:0:0:0:
40,303,127086,6,0,B|78:313|105:295|105:295|133:274|181:283,1,127.199996118164,2|0,0:0|0:0,0:0:0:0:
280,235,127499,2,0,P|241:221|218:199,1,63.5999980590821,10|0,0:0|0:0,0:0:0:0:
178,99,127775,1,2,0:0:0:0:
178,99,127912,2,0,P|164:138|142:161,1,63.5999980590821,2|8,0:0|0:0,0:0:0:0:
50,180,128187,6,0,B|30:248|30:248|46:317,1,127.199996118164,4|0,0:0|0:0,0:0:0:0:
187,154,128738,2,0,B|124:145|124:145|58:169,1,127.199996118164,4|0,0:0|0:0,0:0:0:0:
292,241,129288,2,0,B|310:183|310:183|301:101,1,127.199996118164,4|0,0:0|0:0,0:0:0:0:
236,33,129701,1,8,0:0:0:0:
236,33,129839,1,4,0:0:0:0:
143,74,129976,6,0,L|68:65,1,63.5999980590821,2|0,0:0|0:0,0:0:0:0:
14,134,130252,1,10,0:0:0:0:
14,134,130389,2,0,L|29:262,1,127.199996118164,6|0,0:0|0:0,0:0:0:0:
106,351,130802,2,0,L|184:338,1,63.5999980590821,8|0,0:0|0:0,0:0:0:0:
263,250,131077,2,0,P|227:246|200:260,1,63.5999980590821,10|0,0:0|0:0,0:0:0:0:
350,296,131353,2,0,P|386:300|412:285,1,63.5999980590821,10|0,0:0|0:0,0:0:0:0:
477,215,131628,5,14,0:0:0:0:
256,192,131697,12,0,132660,0:0:0:0:
138,42,132729,6,0,B|104:114|188:173|263:103|224:37|224:37|301:80|278:154|278:154|230:166|194:197|188:253|215:298,1,556.499983016968,6|0,0:0|0:0,0:0:0:0:
293,365,134931,1,0,0:0:0:0:
293,365,135068,1,0,0:0:0:0:
84,75,139334,6,0,L|92:121,2,37.0999988677979,0|0|0,0:0|0:0|0:0,0:0:0:0:
175,219,139747,2,0,L|168:182,2,37.0999988677979,0|8|0,0:0|0:0|0:0,0:0:0:0:
235,85,140160,2,0,L|241:121,2,37.0999988677979,0|8|0,0:0|0:0|0:0,0:0:0:0:
326,216,140573,2,0,L|319:179,2,37.0999988677979,0|8|0,0:0|0:0|0:0,0:0:0:0:
383,84,140986,2,0,L|389:120,2,37.0999988677979,0|8|0,0:0|0:0|0:0,0:0:0:0:
452,202,141398,6,0,L|517:189,2,53,0|8|0,0:0|0:0|0:0,0:0:0:0:
329,307,141811,2,0,L|380:317,2,53,0|8|0,0:0|0:0|0:0,0:0:0:0:
158,245,142224,2,0,L|209:234,2,53,0|8|0,0:0|0:0|0:0,0:0:0:0:
75,323,142637,2,0,L|67:282,12,26.5,8|0|0|0|8|0|0|0|8|0|8|0|8,0:0|0:0|0:0|0:0|0:0|0:0|0:0|0:0|0:0|0:0|0:0|0:0|0:0,0:0:0:0:
124,213,143600,6,0,L|216:220,1,74.1999977355958,6|0,0:0|0:0,0:0:0:0:
309,196,143875,1,2,0:0:0:0:
309,196,144013,2,0,P|297:233|303:287,1,74.1999977355958,10|0,0:0|0:0,0:0:0:0:
416,116,144288,1,2,0:0:0:0:
416,116,144426,2,0,P|428:153|422:207,1,74.1999977355958,2|8,0:0|0:0,0:0:0:0:
283,35,144701,6,0,L|374:30,1,74.1999977355958,2|0,0:0|0:0,0:0:0:0:
215,118,144976,1,2,0:0:0:0:
215,118,145114,2,0,L|124:113,1,74.1999977355958,10|0,0:0|0:0,0:0:0:0:
292,194,145389,1,2,0:0:0:0:
292,194,145527,2,0,L|287:285,1,74.1999977355958,2|8,0:0|0:0,0:0:0:0:
180,338,145802,2,0,B|233:336|233:336|276:355|276:355|341:351,1,148.399995471192,2|0,0:0|0:0,0:0:0:0:
464,269,146215,6,0,L|371:274,1,74.1999977355958,8|0,0:0|0:0,0:0:0:0:
209,183,146490,2,0,L|283:179,1,74.1999977355958,0|0,0:0|0:0,0:0:0:0:
444,71,146765,2,0,L|369:74,1,74.1999977355958,8|0,0:0|0:0,0:0:0:0:
218,7,147041,6,0,L|226:97,1,74.1999977355958,0|0,0:0|0:0,0:0:0:0:
141,271,147316,2,0,L|147:197,1,74.1999977355958,8|0,0:0|0:0,0:0:0:0:
12,57,147591,2,0,L|28:141,1,74.1999977355958,0|0,0:0|0:0,0:0:0:0:
255,125,147866,1,8,0:0:0:0:
255,125,148004,6,0,B|211:125|211:125|179:111|179:111|102:113,1,148.399995471192,4|0,0:0|0:0,0:0:0:0:
312,191,148417,2,0,L|388:192,1,74.1999977355958,8|0,0:0|0:0,0:0:0:0:
512,118,148692,2,0,L|436:119,1,74.1999977355958,0|0,0:0|0:0,0:0:0:0:
401,204,148967,1,8,0:0:0:0:
401,204,149105,2,0,L|385:366,1,148.399995471192,0|0,0:0|0:0,0:0:0:0:
286,384,149518,6,0,L|204:376,1,74.1999977355958,8|0,0:0|0:0,0:0:0:0:
79,280,149793,2,0,L|152:287,1,74.1999977355958,0|0,0:0|0:0,0:0:0:0:
224,164,150068,1,8,0:0:0:0:
224,164,150206,6,0,L|233:260,1,74.1999977355958,2|0,0:0|0:0,0:0:0:0:
253,69,150481,1,2,0:0:0:0:
253,69,150619,1,10,0:0:0:0:
253,69,150756,2,0,L|157:78,1,74.1999977355958,2|0,0:0|0:0,0:0:0:0:
89,94,151031,1,0,0:0:0:0:
89,94,151169,1,10,0:0:0:0:
40,169,151307,6,0,L|46:222,4,37.0999988677979,6|0|2|0|2,0:0|0:0|0:0|0:0|0:0,0:0:0:0:
134,255,151719,2,0,L|123:349,1,74.1999977355958,14|0,0:0|0:0,0:0:0:0:
270,384,151995,2,0,L|261:310,1,74.1999977355958,10|10,0:0|0:0,0:0:0:0:
249,206,152270,1,10,0:0:0:0:
342,250,152408,6,0,L|417:245,1,74.1999977355958,6|0,0:0|0:0,0:0:0:0:
479,310,152683,2,0,L|483:354,2,37.0999988677979,2|2|10,0:0|0:0|0:0,0:0:0:0:
503,202,152958,1,2,0:0:0:0:
433,146,153096,2,0,L|423:73,1,74.1999977355958,2|2,0:0|0:0,0:0:0:0:
490,21,153371,1,10,0:0:0:0:
343,84,153508,2,0,L|265:74,1,74.1999977355958,2|0,0:0|0:0,0:0:0:0:
173,50,153784,6,0,L|177:102,2,37.0999988677979,2|2|10,0:0|0:0|0:0,0:0:0:0:
183,174,154059,1,2,0:0:0:0:
95,143,154197,2,0,L|106:228,1,74.1999977355958,2|2,0:0|0:0,0:0:0:0:
157,308,154472,1,10,0:0:0:0:
246,268,154609,6,0,L|339:275,1,74.1999977355958,2|0,0:0|0:0,0:0:0:0:
448,240,154885,2,0,L|397:234,2,37.0999988677979,2|2|10,0:0|0:0|0:0,0:0:0:0:
378,117,155160,1,2,0:0:0:0:
473,87,155297,2,0,L|462:160,1,74.1999977355958,2|2,0:0|0:0,0:0:0:0:
392,23,155573,1,10,0:0:0:0:
300,64,155710,2,0,L|205:53,1,74.1999977355958,6|0,0:0|0:0,0:0:0:0:
109,22,155986,6,0,L|114:80,2,37.0999988677979,2|2|10,0:0|0:0|0:0,0:0:0:0:
55,133,156261,1,6,0:0:0:0:
163,220,156398,2,0,L|77:233,1,74.1999977355958,2|6,0:0|0:0,0:0:0:0:
8,258,156674,1,10,0:0:0:0:
118,314,156811,6,0,B|170:334|217:318|217:318|248:337|248:337|277:329|312:343|312:343|275:296|299:228|362:192|433:220|468:284|422:357,1,519.39998414917,6|8,0:0|0:0,0:0:0:0:
222,227,157912,2,0,B|242:166|314:144|314:144|234:164|177:115|177:115|116:63|34:104|34:104|41:156|122:180,1,519.39998414917,2|8,0:0|0:0,0:0:0:0:
92,169,159013,2,0,P|118:235|77:316,1,148.399995471192,6|0,0:0|0:0,0:0:0:0:
42,313,159426,2,0,L|102:301,2,49.4666651570639,8|0|0,0:0|0:0|0:0,0:0:0:0:
122,307,159701,2,0,L|170:316,2,49.4666651570639,0|0|0,0:0|0:0|0:0,0:0:0:0:
206,328,159976,1,8,0:0:0:0:
277,273,160114,6,0,L|290:357,1,74.1999977355958,6|0,0:0|0:0,0:0:0:0:
347,206,160389,1,0,0:0:0:0:
347,206,160527,1,8,0:0:0:0:
276,134,160664,2,0,L|192:143,1,74.1999977355958,6|0,0:0|0:0,0:0:0:0:
105,187,160940,2,0,P|101:169|99:151,2,37.0999988677979,0|0|12,0:0|0:0|0:0,0:0:0:0:
241,183,161353,6,0,B|208:156|201:94|201:94|170:144|203:197|203:197|236:254|200:308|200:308|241:280|284:298|284:298|342:315|381:281,1,519.39998414917,4|0,0:0|0:0,0:0:0:0:
367,177,162453,2,0,P|348:226|468:331,2,222.599993206787,0|0|8,0:0|0:0|0:0,0:0:0:0:
455,96,163554,2,0,B|376:37|287:85|287:85|194:141|108:76|108:76|170:6|248:18,1,519.39998414917,0|0,0:0|0:0,0:0:0:0:
361,64,164655,2,0,B|411:211|322:367|322:367|264:317|269:250,1,445.199986413575,0|8,0:0|0:0,0:0:0:0:
281,164,165756,2,0,P|197:221|73:211,2,222.599993206787,6|2|10,0:0|0:0|0:0,0:0:0:0:
406,61,166857,2,0,P|372:165|409:268,2,222.599993206787,2|2|10,0:0|0:0|0:0,0:0:0:0:
494,21,167958,5,6,0:0:0:0:
256,192,168027,12,0,170022,0:0:0:0:
207,209,170160,6,0,P|165:225|130:218,1,74.1999977355958,6|0,0:0|0:0,0:0:0:0:
286,157,170435,2,0,P|328:141|363:148,1,74.1999977355958,2|0,0:0|0:0,0:0:0:0:
197,115,170710,2,0,P|181:73|188:38,1,74.1999977355958,10|0,0:0|0:0,0:0:0:0:
295,249,170986,2,0,P|305:289|297:331,1,74.1999977355958,2|0,0:0|0:0,0:0:0:0:
200,213,171261,6,0,P|150:231|110:223,1,74.1999977355958,10|0,0:0|0:0,0:0:0:0:
292,152,171536,2,0,P|341:133|381:141,1,74.1999977355958,2|0,0:0|0:0,0:0:0:0:
188,103,171811,2,0,P|169:53|177:13,1,74.1999977355958,10|0,0:0|0:0,0:0:0:0:
303,260,172087,2,0,P|314:306|305:355,1,74.1999977355958,2|0,0:0|0:0,0:0:0:0:
195,216,172362,6,0,P|140:237|95:227,1,74.1999977355958,14|0,0:0|0:0,0:0:0:0:
296,148,172637,2,0,P|351:128|396:137,1,74.1999977355958,2|0,0:0|0:0,0:0:0:0:
181,94,172912,2,0,P|161:40|170:-5,1,74.1999977355958,10|0,0:0|0:0,0:0:0:0:
309,268,173188,2,0,P|322:320|311:374,1,74.1999977355958,2|0,0:0|0:0,0:0:0:0:
207,232,173463,6,0,L|126:243,2,49.4666651570639,8|0|0,0:0|0:0|0:0,0:0:0:0:
109,319,173738,2,0,L|59:312,2,49.4666651570639,0|0|0,0:0|0:0|0:0,0:0:0:0:
1,248,174013,1,8,0:0:0:0:
1,248,174151,1,0,0:0:0:0:
54,128,174426,6,0,B|97:106|128:120|128:120|170:134|215:109,1,148.399995471192,4|0,0:0|0:0,0:0:0:0:
289,51,174839,2,0,P|285:94|302:127,1,74.1999977355958,8|0,0:0|0:0,0:0:0:0:
435,189,175114,2,0,L|353:184,1,74.1999977355958,0|0,0:0|0:0,0:0:0:0:
273,240,175389,1,8,0:0:0:0:
221,178,175527,6,0,B|241:233|241:233|232:280|232:280|239:325,1,148.399995471192,0|0,0:0|0:0,0:0:0:0:
155,368,175940,1,8,0:0:0:0:
74,315,176077,2,0,B|143:282|143:282|225:295,1,148.399995471192,0|0,0:0|0:0,0:0:0:0:
319,318,176490,1,8,0:0:0:0:
380,243,176628,6,0,P|415:311|388:384,1,148.399995471192,4|0,0:0|0:0,0:0:0:0:
327,161,177041,2,0,P|365:151|408:155,1,74.1999977355958,8|0,0:0|0:0,0:0:0:0:
512,66,177316,2,0,P|473:76|431:72,1,74.1999977355958,0|0,0:0|0:0,0:0:0:0:
331,0,177591,2,0,P|348:34|343:85,1,74.1999977355958,8|0,0:0|0:0,0:0:0:0:
189,62,177866,6,0,L|289:50,1,74.1999977355958,4|0,0:0|0:0,0:0:0:0:
147,147,178142,2,0,L|47:135,1,74.1999977355958,8|4,0:0|0:0,0:0:0:0:
225,204,178417,2,0,L|325:192,1,74.1999977355958,0|0,0:0|0:0,0:0:0:0:
154,269,178692,2,0,L|166:369,1,74.1999977355958,12|0,0:0|0:0,0:0:0:0:
115,187,178967,6,0,B|178:162|218:197|218:197|268:237|334:205|334:205|295:170|287:119|308:70|368:62|392:83|392:83|340:109|338:155,1,519.39998414917,12|0,0:0|0:0,0:0:0:0:
200,68,180068,2,0,P|272:74|322:210,1,222.599993206787,8|0,0:0|0:0,0:0:0:0:
232,235,180619,2,0,P|221:302|245:349,2,111.299996603394,8|0|0,0:0|0:0|0:0,0:0:0:0:
142,103,181169,6,0,L|157:201,2,74.1999977355958,12|0|0,0:0|0:0|0:0,0:0:0:0:
256,42,181582,2,0,L|241:140,2,74.1999977355958,12|0|0,0:0|0:0|0:0,0:0:0:0:
157,16,181995,2,0,L|83:27,1,74.1999977355958,12|0,0:0|0:0,0:0:0:0:
0,48,182270,6,0,B|16:109|16:109|8:153|8:153|29:230,1,185.5,12|0,0:0|0:0,0:0:0:0:
256,192,189976,5,6,0:0:0:0:
256,192,190045,12,0,191628,0:0:0:0:
117,197,192041,6,0,P|121:158|105:107,1,63.5999980590821,6|0,0:0|0:0,0:0:0:0:
34,19,192316,2,0,P|32:49|42:82,1,63.5999980590821,2|8,0:0|0:0,0:0:0:0:
130,217,192591,2,0,P|148:189|160:154,1,63.5999980590821,2|0,0:0|0:0,0:0:0:0:
142,54,192866,1,2,0:0:0:0:
142,54,193004,1,10,0:0:0:0:
250,135,193142,6,0,L|323:127,1,63.5999980590821,2|0,0:0|0:0,0:0:0:0:
462,186,193417,2,0,L|389:178,1,63.5999980590821,2|8,0:0|0:0,0:0:0:0:
331,293,193692,2,0,L|323:220,1,63.5999980590821,2|0,0:0|0:0,0:0:0:0:
432,287,193967,2,0,L|425:350,1,63.5999980590821,2|8,0:0|0:0,0:0:0:0:
255,360,194242,2,0,B|217:341|188:353|188:353|157:364|114:344,1,127.199996118164,2|0,0:0|0:0,0:0:0:0:
63,281,194655,6,0,P|45:245|43:211,1,63.5999980590821,8|0,0:0|0:0,0:0:0:0:
124,88,194931,2,0,P|142:124|144:158,1,63.5999980590821,0|0,0:0|0:0,0:0:0:0:
33,64,195206,2,0,P|38:32|53:5,1,63.5999980590821,8|0,0:0|0:0,0:0:0:0:
196,24,195481,1,8,0:0:0:0:
196,24,195756,1,8,0:0:0:0:
285,128,196031,6,0,L|203:114,1,63.5999980590821,10|2,0:0|0:0,0:0:0:0:
118,144,196307,1,2,0:0:0:0:
58,229,196444,2,0,P|59:273|77:307,1,63.5999980590821,6|0,0:0|0:0,0:0:0:0:
168,384,196719,2,0,P|177:353|176:322,1,63.5999980590821,2|10,0:0|0:0,0:0:0:0:
239,203,196995,2,0,P|253:230|277:251,1,63.5999980590821,2|0,0:0|0:0,0:0:0:0:
417,321,197270,2,0,P|402:293|378:272,1,63.5999980590821,2|10,0:0|0:0,0:0:0:0:
225,183,197545,6,0,P|263:195|299:197,1,63.5999980590821,2|0,0:0|0:0,0:0:0:0:
414,177,197820,2,0,P|447:155|471:128,1,63.5999980590821,2|8,0:0|0:0,0:0:0:0:
364,42,198096,2,0,P|352:80|350:116,1,63.5999980590821,2|0,0:0|0:0,0:0:0:0:
286,197,198371,2,0,P|307:230|334:254,1,63.5999980590821,2|8,0:0|0:0,0:0:0:0:
253,95,198646,6,0,B|215:86|188:101|188:101|163:117|125:109,1,127.199996118164,2|0,0:0|0:0,0:0:0:0:
67,0,199059,2,0,P|61:33|48:63,1,63.5999980590821,8|0,0:0|0:0,0:0:0:0:
130,201,199334,2,0,P|95:195|68:177,1,63.5999980590821,0|0,0:0|0:0,0:0:0:0:
39,80,199609,1,8,0:0:0:0:
227,178,199747,2,0,B|189:224|189:224|116:255,1,127.199996118164,4|0,0:0|0:0,0:0:0:0:
23,331,200160,2,0,P|57:336|102:361,1,63.5999980590821,8|0,0:0|0:0,0:0:0:0:
281,327,200435,6,0,L|272:250,1,63.5999980590821,10|8,0:0|0:0,0:0:0:0:
347,199,200710,1,10,0:0:0:0:
257,114,200848,2,0,P|293:161|376:169,1,127.199996118164,6|2,0:0|0:0,0:0:0:0:
505,106,201261,2,0,P|466:103|427:115,1,63.5999980590821,10|0,0:0|0:0,0:0:0:0:
440,220,201536,1,2,0:0:0:0:
440,220,201674,2,0,L|454:293,1,63.5999980590821,2|8,0:0|0:0,0:0:0:0:
384,345,201949,6,0,B|347:320|316:332|316:332|282:346|248:322,1,127.199996118164,2|0,0:0|0:0,0:0:0:0:
190,198,202362,2,0,P|208:235|208:275,1,63.5999980590821,10|0,0:0|0:0,0:0:0:0:
99,161,202637,1,2,0:0:0:0:
116,256,202775,2,0,P|93:290|59:311,1,63.5999980590821,2|8,0:0|0:0,0:0:0:0:
0,125,203050,6,0,L|134:137,1,127.199996118164,6|0,0:0|0:0,0:0:0:0:
335,59,203600,2,0,L|201:71,1,127.199996118164,6|0,0:0|0:0,0:0:0:0:
438,25,204151,2,0,P|428:85|475:146,1,127.199996118164,6|0,0:0|0:0,0:0:0:0:
338,173,204564,1,8,0:0:0:0:
338,173,204701,1,4,0:0:0:0:
275,249,204839,6,0,P|274:284|291:337,1,63.5999980590821,2|0,0:0|0:0,0:0:0:0:
187,115,205114,1,10,0:0:0:0:
187,115,205252,2,0,P|194:177|168:244,1,127.199996118164,6|0,0:0|0:0,0:0:0:0:
20,296,205664,6,0,P|51:285|91:288,1,63.5999980590821,8|0,0:0|0:0,0:0:0:0:
203,384,205940,2,0,P|182:351|168:315,1,63.5999980590821,10|0,0:0|0:0,0:0:0:0:
53,196,206215,2,0,P|67:159|89:127,1,63.5999980590821,10|0,0:0|0:0,0:0:0:0:
165,74,206490,6,0,L|206:67,3,31.799999029541,10|0|0|0,0:0|0:0|0:0|0:0,0:0:0:0:
256,179,206765,2,0,L|287:184,3,31.799999029541,0|0|0|0,0:0|0:0|0:0|0:0,0:0:0:0:
393,89,207041,2,0,P|387:119|394:173,2,63.5999980590821,2|2|2,0:0|0:0|0:0,0:0:0:0:
424,257,207453,6,0,P|383:256|348:274,1,63.5999980590821,6|0,0:0|0:0,0:0:0:0:
244,356,207729,2,0,P|284:356|319:338,1,63.5999980590821,2|10,0:0|0:0,0:0:0:0:
259,197,208004,2,0,P|258:237|276:272,1,63.5999980590821,2|0,0:0|0:0,0:0:0:0:
391,359,208279,1,2,0:0:0:0:
391,359,208417,1,10,0:0:0:0:
380,178,208554,6,0,P|415:177|444:163,1,63.5999980590821,2|0,0:0|0:0,0:0:0:0:
291,106,208830,2,0,P|268:94|227:91,1,63.5999980590821,2|8,0:0|0:0,0:0:0:0:
144,142,209105,2,0,P|138:185|146:217,1,63.5999980590821,2|0,0:0|0:0,0:0:0:0:
222,63,209380,2,0,P|225:31|219:0,1,63.5999980590821,2|8,0:0|0:0,0:0:0:0:
16,13,209655,2,0,P|59:47|133:43,1,127.199996118164,2|0,0:0|0:0,0:0:0:0:
289,118,210068,6,0,P|261:147|247:176,1,63.5999980590821,8|0,0:0|0:0,0:0:0:0:
370,38,210343,2,0,P|330:28|298:30,1,63.5999980590821,0|0,0:0|0:0,0:0:0:0:
474,58,210619,2,0,P|462:19|444:-7,1,63.5999980590821,8|0,0:0|0:0,0:0:0:0:
414,125,210894,6,0,B|416:162|416:162|429:208,2,63.5999980590821,12|0|0,0:0|0:0|0:0,0:0:0:0:
489,281,211307,2,0,B|487:318|487:318|474:364,2,63.5999980590821,12|2|2,0:0|0:0|0:0,0:0:0:0:
386,287,211719,1,2,0:0:0:0:
306,325,211857,6,0,L|235:331,1,63.5999980590821,6|0,0:0|0:0,0:0:0:0:
104,279,212132,2,0,L|167:273,1,63.5999980590821,2|8,0:0|0:0,0:0:0:0:
287,203,212408,2,0,L|223:208,1,63.5999980590821,2|0,0:0|0:0,0:0:0:0:
124,151,212683,1,2,0:0:0:0:
124,151,212820,1,10,0:0:0:0:
229,86,212958,6,0,B|243:154|243:154|219:220,1,127.199996118164,2|0,0:0|0:0,0:0:0:0:
80,42,213371,2,0,L|157:34,1,63.5999980590821,8|0,0:0|0:0,0:0:0:0:
305,33,213646,1,2,0:0:0:0:
305,33,213784,2,0,L|319:109,1,63.5999980590821,2|8,0:0|0:0,0:0:0:0:
381,173,214059,2,0,B|418:150|445:163|445:163|479:175|519:153,1,127.199996118164,2|0,0:0|0:0,0:0:0:0:
296,290,214472,6,0,P|298:256|315:228,1,63.5999980590821,8|0,0:0|0:0,0:0:0:0:
373,153,214747,2,0,P|339:151|311:134,1,63.5999980590821,0|0,0:0|0:0,0:0:0:0:
264,46,215022,1,8,0:0:0:0:
153,112,215160,2,0,L|179:251,1,127.199996118164,4|0,0:0|0:0,0:0:0:0:
134,331,215573,2,0,L|94:320,3,31.799999029541,8|0|0|0,0:0|0:0|0:0|0:0,0:0:0:0:
12,288,215848,6,0,L|21:368,1,63.5999980590821,2|0,0:0|0:0,0:0:0:0:
74,210,216123,1,2,0:0:0:0:
9,134,216261,2,0,B|67:116|67:116|135:125,1,127.199996118164,4|0,0:0|0:0,0:0:0:0:
232,200,216674,6,0,P|228:163|235:134,1,63.5999980590821,10|0,0:0|0:0,0:0:0:0:
305,82,216949,1,2,0:0:0:0:
383,55,217086,2,0,L|300:60,1,63.5999980590821,2|8,0:0|0:0,0:0:0:0:
440,136,217362,2,0,P|471:95|470:13,1,127.199996118164,2|0,0:0|0:0,0:0:0:0:
354,174,217775,6,0,P|352:206|362:248,1,63.5999980590821,10|0,0:0|0:0,0:0:0:0:
489,309,218050,1,2,0:0:0:0:
489,309,218187,2,0,P|462:300|420:305,1,63.5999980590821,2|8,0:0|0:0,0:0:0:0:
331,350,218463,2,0,P|264:354|198:316,1,127.199996118164,6|0,0:0|0:0,0:0:0:0:
146,221,219013,2,0,P|126:280|79:323,1,127.199996118164,6|0,0:0|0:0,0:0:0:0:
83,135,219564,2,0,B|148:118|148:118|224:138,1,127.199996118164,6|0,0:0|0:0,0:0:0:0:
303,218,219976,2,0,L|308:143,1,63.5999980590821,8|4,0:0|0:0,0:0:0:0:
400,67,220252,6,0,P|364:74|332:64,1,63.5999980590821,2|0,0:0|0:0,0:0:0:0:
488,30,220527,1,10,0:0:0:0:
487,119,220664,2,0,P|462:176|493:248,1,127.199996118164,6|0,0:0|0:0,0:0:0:0:
408,348,221077,6,0,L|333:337,1,63.5999980590821,8|0,0:0|0:0,0:0:0:0:
173,274,221353,2,0,L|248:263,1,63.5999980590821,10|0,0:0|0:0,0:0:0:0:
361,190,221628,2,0,L|286:179,1,63.5999980590821,10|0,0:0|0:0,0:0:0:0:
183,120,221903,2,0,L|186:169,3,31.799999029541,10|0|0|0,0:0|0:0|0:0|0:0,0:0:0:0:
114,31,222178,2,0,L|111:80,3,31.799999029541,0|0|0|0,0:0|0:0|0:0|0:0,0:0:0:0:
44,122,222453,6,0,L|55:196,3,63.5999980590821,2|0|0|0,0:0|0:0|0:0|0:0,0:0:0:0:
110,248,223004,1,4,0:0:0:0:
256,192,223073,12,8,224931,0:0:0:0:
99,110,225068,6,0,L|215:97,1,106,4|0,0:0|0:0,0:0:0:0:
308,18,225481,2,0,P|292:54|293:72,1,53,8|0,0:0|0:0,0:0:0:0:
377,171,225756,2,0,P|375:145|362:123,1,53,0|0,0:0|0:0,0:0:0:0:
272,157,226031,1,8,0:0:0:0:
272,157,226169,1,0,0:0:0:0:
145,100,226307,6,0,L|155:162,1,53,0|0,0:0|0:0,0:0:0:0:
211,247,226582,2,0,L|201:309,1,53,8|0,0:0|0:0,0:0:0:0:
110,358,226857,2,0,L|73:350,3,26.5,0|0|0|0,0:0|0:0|0:0|0:0,0:0:0:0:
62,353,227132,1,8,0:0:0:0:
54,261,227270,6,0,B|55:230|55:230|63:204|63:204|64:157,1,106,0|0,0:0|0:0,0:0:0:0:
137,53,227683,2,0,L|139:128,1,53,8|0,0:0|0:0,0:0:0:0:
218,216,227958,2,0,L|216:163,1,53,0|0,0:0|0:0,0:0:0:0:
293,86,228233,1,8,0:0:0:0:
418,70,228371,6,0,B|383:58|361:70|361:70|338:84|297:71,1,106,0|0,0:0|0:0,0:0:0:0:
468,193,228784,2,0,P|483:167|484:134,1,53,8|0,0:0|0:0,0:0:0:0:
359,226,229059,2,0,L|363:265,3,26.5,0|0|0|0,0:0|0:0|0:0|0:0,0:0:0:0:
362,279,229334,1,8,0:0:0:0:
310,365,229472,6,0,L|195:349,1,106,4|0,0:0|0:0,0:0:0:0:
133,235,229885,2,0,P|142:267|143:295,1,53,8|0,0:0|0:0,0:0:0:0:
51,177,230160,2,0,P|53:150|61:125,1,53,0|0,0:0|0:0,0:0:0:0:
130,63,230435,1,8,0:0:0:0:
130,63,230573,1,0,0:0:0:0:
214,119,230710,6,0,L|267:114,1,53,0|0,0:0|0:0,0:0:0:0:
410,187,230986,2,0,L|357:181,1,53,8|0,0:0|0:0,0:0:0:0:
252,281,231261,2,0,L|278:278,3,26.5,0|0|0|0,0:0|0:0|0:0|0:0,0:0:0:0:
297,278,231536,1,8,0:0:0:0:
157,249,231674,6,0,L|170:378,1,106,4|0,0:0|0:0,0:0:0:0:
103,171,232086,2,0,P|130:157|159:157,1,53,8|0,0:0|0:0,0:0:0:0:
254,163,232362,2,0,P|240:136|240:107,1,53,0|0,0:0|0:0,0:0:0:0:
319,53,232637,1,8,0:0:0:0:
386,137,232775,6,0,B|387:196|387:196|368:241,1,106,4|0,0:0|0:0,0:0:0:0:
226,304,233187,2,0,L|298:294,1,53,12|0,0:0|0:0,0:0:0:0:
401,369,233463,2,0,L|361:363,3,26.5,0|0|0|0,0:0|0:0|0:0|0:0,0:0:0:0:
347,365,233738,1,0,0:0:0:0:
216,291,233875,6,0,L|88:310,1,106,4|0,0:0|0:0,0:0:0:0:
27,247,234288,2,0,L|42:187,1,53,8|0,0:0|0:0,0:0:0:0:
178,164,234564,2,0,L|163:104,1,53,0|0,0:0|0:0,0:0:0:0:
81,53,234839,1,8,0:0:0:0:
81,53,234976,1,0,0:0:0:0:
181,21,235114,6,0,L|234:9,1,53,0|0,0:0|0:0,0:0:0:0:
372,80,235389,2,0,L|319:68,1,53,8|0,0:0|0:0,0:0:0:0:
459,13,235664,2,0,L|448:60,3,26.5,0|0|0|0,0:0|0:0|0:0|0:0,0:0:0:0:
450,58,235940,1,8,0:0:0:0:
384,169,236077,6,0,L|397:288,1,106,0|0,0:0|0:0,0:0:0:0:
289,356,236490,2,0,L|294:303,1,53,8|0,0:0|0:0,0:0:0:0:
201,191,236765,2,0,L|206:243,1,53,0|0,0:0|0:0,0:0:0:0:
98,240,237041,1,8,0:0:0:0:
118,118,237178,6,0,L|233:98,1,106,0|0,0:0|0:0,0:0:0:0:
348,43,237591,2,0,L|282:32,1,53,8|0,0:0|0:0,0:0:0:0:
447,36,237866,2,0,L|440:78,3,26.5,0|0|0|0,0:0|0:0|0:0|0:0,0:0:0:0:
440,82,238142,1,8,0:0:0:0:
366,149,238279,6,0,L|381:264,1,106,4|0,0:0|0:0,0:0:0:0:
416,345,238692,2,0,L|352:335,1,53,8|0,0:0|0:0,0:0:0:0:
283,264,238967,2,0,L|230:272,1,53,0|0,0:0|0:0,0:0:0:0:
135,293,239242,1,8,0:0:0:0:
135,293,239380,1,0,0:0:0:0:
154,156,239518,6,0,P|166:190|165:225,1,53,0|0,0:0|0:0,0:0:0:0:
64,99,239793,2,0,P|67:72|77:48,1,53,8|0,0:0|0:0,0:0:0:0:
241,118,240068,2,0,P|246:133|246:155,3,26.5,0|0|0|0,0:0|0:0|0:0|0:0,0:0:0:0:
250,168,240343,1,8,0:0:0:0:
303,39,240481,6,0,L|428:52,1,106,4|0,0:0|0:0,0:0:0:0:
466,175,240894,2,0,L|476:120,1,53,8|0,0:0|0:0,0:0:0:0:
367,208,241169,2,0,L|376:260,1,53,0|0,0:0|0:0,0:0:0:0:
401,352,241444,1,8,0:0:0:0:
290,278,241582,6,0,P|234:277|184:309,1,106,4|0,0:0|0:0,0:0:0:0:
80,358,241995,2,0,P|95:325|97:304,1,53,8|8,0:0|0:0,0:0:0:0:
56,171,242270,2,0,P|59:183|70:218,3,26.5,8|0|8|0,0:0|0:0|0:0|0:0,0:0:0:0:
78,222,242545,1,8,0:0:0:0:
299,113,242683,6,0,B|237:122|196:101|196:101|185:89|185:89|152:65|95:78,1,212,4|0,0:0|0:0,0:0:0:0:
