osu file format v14

[General]
AudioFilename: audio.mp3
AudioLeadIn: 0
PreviewTime: 116765
Countdown: 1
SampleSet: None
StackLeniency: 0.7
Mode: 0
LetterboxInBreaks: 0
WidescreenStoryboard: 1

[Editor]
Bookmarks: 1926,2064,2201,2339,2476,2614,2752,2889,2958,3164,3302,3440,3577,3715,3921,4059,4197,4334,4472,4609,4816,4953,5091,5229,5366,5573,5710,5848,6054,6192,6398,6536,6674,6880,7018,7155,7293,7499,7637,7775,7981,8119,8325,8463,8669,8807,9013,9151,9357,9495,9701,9839,10045,10183,10389,10596,10733,10940,11077,11284,11421,11628,11834,12041,12178,12316,12522,12660,12866,13073,13210,13417,13623,13761,13967,14105,14242,14518,14655,14793,14999,15137,15275,15412,15550,15687,15894,16031,16238,16375,16582,16719,16926,17064,17270,17408,17614,17820,17958,18164,18371,18508,18715,18921,19128,19334,19541,19747,19953,20091,20297,20504,20710,20917,21123,21330,21536,21742,21880,22086,22293,22499,22637,22843,23050,23187,23394,23600,23807,23944,24151,24357,24495,24770,24908,25114,25320,25527,25733,25940,26146,26353,26559,26765,26972,27178,27385,27522,27729,28004,28210,28348,28623,28761,28967,29174,29380,29586,29793,29999,30206,30343,30550,30756,30963,31169,31307,31513,31719,31926,32132,32339,32545,32752,32958,33164,33371,33577,33784,33990,34197,34403,34609,34816,35022,35229,35435,35642,35848,36123,36330,36536,36742,36949,37155,37362,37568,37775,37981,38187,38394,38600,38807,39082,39219,39426,39632,39839,40045,40252,40527,40733,40940,41146,41353,41559,41765,41972,42178,42385,42591,42797,43073,43279,43417,43623,43830,44036,44311,44518,44724,44931,45137,45343,45550,45756,45963,46169,46375,46582,46788,46995,47201,47408,47683,47889,48027,48233,48440,48646,48853,49059,49334,49541,49747,49953,50160,50366,50504,65022,117178,117247,117385,117453,117522,117660,117729,117797,117935,118004,118142,118210,118554,118692,118898,119105,119242,119449,119655,119793,119999,120206,120343,120550,120756,120894,121100,121307,121513,121719,121926,122064,122270,122476,122683,122820,123027,123233,123440,123646,123853,124059,124265,124403,124609,124816,124953,125160,125366,125573,125779,125986,126192,126330,126536,126742,126949,127155,127362,127568,127775,127981,128187,128325,128531,128738,128944,129082,129288,129495,129701,129839,130045,130252,130389,130596,130802,130940,131146,131353,131559,131765,131972,132109,132316,132522,132729,132935,133142,133348,133554,133761,133967,134174,134380,134586,134793,134931,134999,135206,135343,135481,135619,135825,135963,136169,136307,136375,136513,136651,136719,136857,137064,137201,137339,137545,137683,137889,138096,138233,138440,138577,138784,138921,139128,139334,139541,139678,139885,140091,140435,140573,140779,140986,141123,141330,141536,141742,141880,142086,142224,142431,142636,142637,142775,142981,143119,143325,143463,143600,148004,148073,148279,148417,148554,148692,148830,148967,149174,149311,149449,149655,149862,149999,150206,150343,150550,150756,150894,151031,151238,151375,151582,151719,151926,152132,152408,161353,161421,161559,161765,161903,162109,162247,162453,162591,162797,162935,163073,163279,163417,163623,163761,163967,164174,164380,164518,164724,164931,165068,165275,165412,165619,165756,165894,166100,166238,166444,166651,166857,166995,167201,167408,167614,167820,167958,168164,168302,168508,168715,168921,169059,169265,169472,169678,169816,170022,170160,170366,170573,170779,170986,171123,171330,171536,171742,171880,172086,172293,172431,172637,172843,172981,173187,173394,173600,173738,173944,174151,174357,174564,174770,174976,175183,175389,175527,175733,175940,176146,176284,176490,176697,176903,177041,177247,177453,177660,177797,178004,178210,178417,178623,178761,178967,179242,179380,179586,179793,179931,180206,180343,180550,180756,180963,181169,181307,181513,181719,181926,182132,182270,207453,207660,207797,207935,208073,208210,208348,208554,208692,208898,209036,209174,209380,209518,209724,209862,210068,210206,210412,210550,210687,210894,211031,211238,211444,211582,211788,211995,212132,212339,212545,212752,212889,213027,213233,213440,213577,213784,213921,214059,214265,214403,214609,214747,214953,215091,215297,215504,215642,215848,216054,216261,216467,216605,216811,217018,217155,217362,217568,217775,217912,218119,218325,218531,218669,218875,219082,219288,219426,219632,219839,220045,220183,220389,220596,220802,221008,221215,221421,221628,221765,221972,222178,222316,222591,222729,222935,223073,233875,234013,234151,234288,234495,234632,234770,234976,235114,235320,235458,235596,235802,235940,236077,236284,236421,236628,236765,236972,237109,237316,237453,237660,237797,238004,238142,238348,238554,238692,238898,239105,239242,239449,239586,239793,239999,240137,240343,240550,240687,240894,241100,241238,241444,241582,241788,241995,242201,242339,242545,242752,242889,243096,243302,243371
DistanceSpacing: 1
BeatDivisor: 4
GridSize: 32
TimelineZoom: 2.3

[Metadata]
Title:Toaru Shoukoku no Ohimesama ga...
TitleUnicode:とある小国のお姫様が、会ったこともない兄の家にやってきて住みついた事情。
Artist:nao
ArtistUnicode:nao
Creator:fstapled
Version:Collab Extra
Source:姫様LOVEライフ!
Tags:Lithium とある小国のお姫様が、会ったこともない兄の家にやってきて住みついた事情。 demetori 寺前甲 maya 山下慎一狼 princess sugar eroge himesama love lifeとある小国のお姫様が、会ったこともない兄の家にやってきて住みついた事情。 demetori 寺前甲 maya 山下慎一狼 princess sugar eroge himesama love lifeとある小国のお姫様が、会ったこともない兄の家にやってきて住みついた事情。 demetori 寺前甲 maya 山下慎一狼 princess sugar eroge himesama love life
BeatmapID:2039542
BeatmapSetID:954570

[Difficulty]
HPDrainRate:5
CircleSize:4
OverallDifficulty:9
ApproachRate:9.6
SliderMultiplier:1.6
SliderTickRate:1

[Events]
//Background and Video events
0,0,"bg2.jpg",0,0
//Break Periods
2,183432,188778
//Storyboard Layer 0 (Background)
//Storyboard Layer 1 (Fail)
//Storyboard Layer 2 (Pass)
//Storyboard Layer 3 (Foreground)
//Storyboard Sound Samples

[TimingPoints]
1720,275.229357798165,4,3,1,70,1,0
1720,-200,4,3,1,70,0,0
2683,-100,4,3,1,70,0,0
11490,-125,4,3,1,70,0,0
15894,-100,4,3,1,70,0,0
20642,-125,4,3,1,70,0,0
24701,-100,4,3,1,70,0,0
29518,-125,4,3,1,70,0,0
35848,-100,4,3,1,70,0,0
38256,-100,4,3,1,5,0,0
38325,-100,4,3,1,70,0,0
49885,-76.9230769230769,4,3,1,70,0,0
50160,-333.333333333333,4,3,1,70,0,0
50642,-333.333333333333,4,3,1,5,0,0
50710,-133.333333333333,4,3,1,70,0,0
51123,-76.9230769230769,4,3,1,70,0,1
65573,-76.9230769230769,4,3,1,70,0,0
66674,-100,4,3,1,70,0,0
68738,-83.3333333333333,4,3,1,70,0,0
95573,-76.9230769230769,4,3,1,70,0,0
101903,-83.3333333333333,4,3,1,70,0,0
103004,-90.9090909090909,4,3,1,70,0,0
104105,-100,4,3,1,70,0,0
117178,275.229357798165,4,3,1,70,1,0
117178,-76.9230769230769,4,3,1,70,0,1
131627,-333.333333333333,4,3,1,70,0,0
131697,-333.333333333333,4,3,1,5,0,0
132728,275.229357798165,4,3,1,70,1,0
132728,-166.666666666667,4,3,1,70,0,0
142912,-100,4,3,1,70,0,0
143187,-83.3333333333333,4,3,1,70,0,0
143463,-71.4285714285714,4,3,1,70,0,0
143599,-76.9230769230769,4,3,1,70,0,1
145802,-66.6666666666667,4,3,1,70,0,1
146077,-90.9090909090909,4,3,1,70,0,1
168164,-90.9090909090909,4,3,1,5,0,1
168233,-90.9090909090909,4,3,1,70,0,1
182269,-76.9230769230769,4,3,1,70,0,0
189288,-100,4,3,1,70,0,0
192039,-83.3333333333333,4,3,1,70,0,1
206489,-100,4,3,1,70,0,0
207452,-76.9230769230769,4,3,1,70,0,1
223003,-166.666666666667,4,3,1,70,0,0
225067,-83.3333333333333,4,3,1,70,0,0
242683,-250,4,3,1,70,0,0
242752,-250,4,3,1,5,0,0

[Colours]
Combo1 : 249,249,249
Combo2 : 106,184,255
Combo3 : 253,239,192
Combo4 : 161,223,236

[HitObjects]
63,57,1720,6,0,L|72:114,1,40
131,190,1995,2,0,L|137:150,1,40
221,71,2270,2,0,L|227:110,1,40
263,224,2545,1,0,0:0:0:0:
476,152,2683,6,0,B|422:147|422:147|384:161|384:161|314:157,1,160
345,276,3096,1,0,0:0:0:0:
312,84,3233,1,0,0:0:0:0:
189,186,3371,2,0,P|180:234|205:280,1,80
270,327,3646,5,0,0:0:0:0:
79,257,3784,1,0,0:0:0:0:
325,224,3921,2,0,L|412:232,1,80
209,99,4197,2,0,L|122:107,1,80
327,129,4472,5,0,0:0:0:0:
329,109,4541,1,0,0:0:0:0:
331,89,4609,2,0,L|338:36,1,40
172,207,4747,1,0,0:0:0:0:
381,332,4885,6,0,B|379:223|379:223|393:246|418:258,1,160
287,337,5297,2,0,P|237:355|198:344,1,80
148,165,5573,1,0,0:0:0:0:
101,321,5710,1,0,0:0:0:0:
276,234,5848,1,0,0:0:0:0:
56,219,5986,6,0,B|45:149|45:149|53:121|53:121|42:53,1,160
159,263,6398,2,0,L|175:360,1,80
168,128,6674,1,0,0:0:0:0:
187,126,6742,1,0,0:0:0:0:
206,124,6811,2,0,L|214:180,1,40
129,40,6949,1,0,0:0:0:0:
335,240,7086,6,0,B|291:217|255:238|255:238|217:260|162:228,1,160
118,162,7499,1,0,0:0:0:0:
294,307,7637,1,0,0:0:0:0:
383,157,7775,2,0,P|385:112|366:73,1,80
266,135,8050,5,0,0:0:0:0:
475,117,8187,1,0,0:0:0:0:
202,185,8325,2,0,P|186:148|189:108,1,80
448,226,8600,2,0,P|463:262|460:302,1,80
158,278,8875,1,0,0:0:0:0:
185,273,8944,1,0,0:0:0:0:
212,268,9013,2,0,L|219:320,1,40
95,381,9151,5,0,0:0:0:0:
81,223,9288,2,0,B|91:162|91:162|82:123|82:123|95:60,1,160
227,189,9701,2,0,L|210:268,1,80
162,84,9976,1,0,0:0:0:0:
325,242,10114,1,0,0:0:0:0:
363,34,10252,1,0,0:0:0:0:
118,161,10389,6,0,B|155:184|202:173|225:139|225:139|237:162|263:177,1,160
56,247,10802,1,0,0:0:0:0:
37,77,10940,1,0,0:0:0:0:
223,143,11077,1,0,0:0:0:0:
219,182,11146,1,0,0:0:0:0:
215,221,11215,1,0,0:0:0:0:
211,260,11284,1,0,0:0:0:0:
207,299,11353,2,0,L|217:358,1,40
137,207,11490,6,0,B|148:121|148:121|128:77,1,128
13,30,11903,2,0,L|85:35,1,64
286,76,12178,2,0,L|223:72,1,64
72,137,12453,1,0,0:0:0:0:
229,186,12591,2,0,L|217:249,1,64
81,299,12866,2,0,L|69:235,1,64
181,346,13142,1,0,0:0:0:0:
242,175,13279,5,0,0:0:0:0:
423,256,13417,2,0,L|499:265,1,64
336,198,13692,2,0,B|325:264|325:264|354:338,1,128
452,136,14105,6,0,L|379:129,1,64
312,69,14380,1,0,0:0:0:0:
239,186,14518,1,0,0:0:0:0:
155,101,14655,1,0,0:0:0:0:
163,244,14793,2,0,L|88:237,1,64
234,96,15068,1,0,0:0:0:0:
279,295,15206,2,0,L|354:288,1,64
440,332,15481,5,0,0:0:0:0:
277,195,15619,1,0,0:0:0:0:
435,86,15756,1,0,0:0:0:0:
265,206,15894,6,0,B|145:202|145:202|185:170,1,160
336,77,16307,2,0,P|349:114|347:154,1,80
214,46,16582,1,0,0:0:0:0:
401,225,16719,2,0,P|364:240|324:236,1,80
481,127,16995,6,0,B|474:188|474:188|483:242|483:242|472:302,1,160
436,58,17408,2,0,P|476:46|518:59,1,80
372,143,17683,1,0,0:0:0:0:
372,143,17820,2,0,P|332:155|290:142,1,80
234,267,18096,6,0,B|201:301|201:301|210:253|197:220|197:220|205:208|210:186,1,160
315,96,18508,2,0,L|222:110,1,80
50,274,18784,1,0,0:0:0:0:
107,69,18921,1,0,0:0:0:0:
237,262,19059,6,0,B|239:312|239:312|228:362,1,80
172,194,19334,1,0,0:0:0:0:
211,189,19403,1,0,0:0:0:0:
250,184,19472,1,0,0:0:0:0:
289,179,19541,1,0,0:0:0:0:
328,174,19609,1,0,0:0:0:0:
407,46,19747,6,0,P|394:86|394:131,1,80
480,255,20022,2,0,P|478:215|465:177,1,80
282,253,20297,2,0,P|302:317|392:339,1,160
302,170,20642,1,0,0:0:0:0:
302,170,20710,6,0,P|260:169|227:189,1,64
185,257,20986,1,0,0:0:0:0:
143,150,21123,1,0,0:0:0:0:
219,82,21261,1,0,0:0:0:0:
68,66,21398,6,0,L|216:47,1,128
288,135,21811,1,0,0:0:0:0:
288,135,21949,1,0,0:0:0:0:
370,69,22086,1,0,0:0:0:0:
329,306,22224,1,0,0:0:0:0:
375,232,22499,6,0,B|314:227|314:227|291:235|291:235|240:231,1,128
428,339,22912,2,0,P|449:301|446:271,1,64
372,156,23187,1,0,0:0:0:0:
372,156,23325,1,0,0:0:0:0:
447,92,23463,1,0,0:0:0:0:
264,50,23600,6,0,L|278:129,1,64
190,205,23875,1,0,0:0:0:0:
190,205,23944,1,0,0:0:0:0:
190,205,24013,2,0,L|208:122,1,64
69,60,24288,5,0,0:0:0:0:
284,171,24426,1,0,0:0:0:0:
119,287,24564,1,0,0:0:0:0:
307,157,24701,6,0,B|317:287|317:287|283:262,1,160
271,88,25114,2,0,P|309:79|347:90,1,80
476,188,25389,1,0,0:0:0:0:
476,188,25527,2,0,P|437:196|399:185,1,80
254,83,25802,6,0,B|206:69|171:87|171:87|135:68|88:88,1,160
192,246,26215,2,0,P|152:209|144:173,1,80
294,225,26490,1,0,0:0:0:0:
237,330,26628,2,0,P|196:339|138:319,1,80
299,203,26903,6,0,B|362:214|362:214|385:238|385:238|458:257,1,160
319,297,27316,1,0,0:0:0:0:
365,92,27453,1,0,0:0:0:0:
183,163,27591,2,0,L|195:253,1,80
252,87,27866,6,0,L|119:75,1,120
92,46,28142,2,0,L|104:100,3,40
168,166,28417,1,0,0:0:0:0:
162,193,28486,1,0,0:0:0:0:
156,220,28554,1,0,0:0:0:0:
150,247,28623,1,0,0:0:0:0:
144,274,28692,5,0,0:0:0:0:
35,370,28830,2,0,L|126:356,1,80
232,339,29105,1,0,0:0:0:0:
281,255,29242,1,0,0:0:0:0:
252,112,29518,6,0,P|241:156|247:184,1,64
360,243,29793,2,0,P|396:216|410:191,1,64
382,112,30068,2,0,P|355:75|330:61,1,64
212,40,30343,2,0,P|175:66|161:91,1,64
154,203,30619,2,0,P|180:239|205:253,1,64
323,258,30894,2,0,P|283:275|277:366,1,128
401,295,31307,1,0,0:0:0:0:
446,212,31444,6,0,B|457:174|440:147|440:147|424:118|434:79,2,128
505,310,32270,1,0,0:0:0:0:
362,184,32545,2,0,P|292:168|247:209,1,128
228,289,33096,5,0,0:0:0:0:
140,228,33233,1,0,0:0:0:0:
143,334,33371,1,0,0:0:0:0:
189,158,33508,1,0,0:0:0:0:
189,158,33577,1,0,0:0:0:0:
189,158,33646,1,0,0:0:0:0:
58,98,33921,6,0,L|136:84,1,64
322,223,34197,2,0,L|244:209,1,64
383,133,34472,2,0,L|461:119,1,64
335,282,34747,2,0,P|319:236|327:211,1,64
369,73,35022,2,0,P|385:119|377:144,1,64
173,112,35297,6,0,B|216:113|239:90|239:90|270:87|303:109,1,128
85,75,35848,2,0,L|93:158,1,80
311,174,36123,2,0,L|303:257,1,80
146,241,36398,2,0,L|154:324,1,80
375,305,36674,2,0,L|367:388,1,80
288,338,36880,1,0,0:0:0:0:
288,338,36949,5,0,0:0:0:0:
449,217,37086,1,0,0:0:0:0:
279,130,37224,1,0,0:0:0:0:
464,308,37362,1,0,0:0:0:0:
479,80,37499,2,0,L|427:90,3,40
324,28,37775,2,0,L|376:38,3,40
263,119,38050,6,0,B|214:124|214:124|191:133|191:133|129:139,1,120
83,201,38325,2,0,P|59:145|65:116,1,80
233,250,38600,2,0,P|205:304|179:318,1,80
145,137,38875,2,0,P|172:82|198:68,1,80
393,202,39151,6,0,L|298:191,1,80
455,74,39426,2,0,L|466:169,1,80
474,347,39701,2,0,L|463:252,1,80
372,113,39976,1,0,0:0:0:0:
512,212,40114,1,0,0:0:0:0:
341,311,40252,6,0,P|270:315|226:278,1,120
214,195,40527,2,0,P|155:173|129:181,1,80
125,264,40802,1,0,0:0:0:0:
55,153,40940,2,0,L|59:66,1,80
123,275,41215,1,0,0:0:0:0:
289,131,41353,6,0,L|303:219,1,80
376,333,41559,1,0,0:0:0:0:
376,333,41628,2,0,L|390:245,1,80
459,164,41903,5,0,0:0:0:0:
464,188,42041,1,0,0:0:0:0:
385,90,42178,1,0,0:0:0:0:
380,114,42316,1,0,0:0:0:0:
470,33,42453,6,0,B|413:50|413:50|337:49,1,120
218,114,42729,2,0,L|310:122,1,80
372,198,43004,1,0,0:0:0:0:
138,210,43142,2,0,L|230:218,1,80
281,305,43417,1,0,0:0:0:0:
70,272,43554,6,0,P|45:228|94:129,1,160
281,262,43967,2,0,P|267:310|162:346,1,160
222,114,44380,1,0,0:0:0:0:
187,259,44518,1,0,0:0:0:0:
345,202,44655,6,0,B|363:244|363:244|369:297,1,80
142,169,44931,1,0,0:0:0:0:
328,108,45068,2,0,B|373:114|373:114|419:135,1,80
124,161,45343,1,0,0:0:0:0:
259,52,45481,2,0,B|301:36|301:36|339:36,1,80
475,101,45687,1,0,0:0:0:0:
482,113,45756,6,0,L|389:103,1,80
247,216,45963,1,0,0:0:0:0:
240,228,46031,2,0,L|333:218,1,80
481,273,46238,1,0,0:0:0:0:
487,287,46307,5,0,0:0:0:0:
322,335,46444,1,0,0:0:0:0:
488,372,46582,1,0,0:0:0:0:
308,348,46719,1,0,0:0:0:0:
436,215,46857,6,0,P|435:160|373:124,1,120
292,102,47132,2,0,P|330:107|375:83,1,80
231,33,47408,2,0,P|193:28|148:52,1,80
124,138,47683,2,0,P|125:178|146:212,1,80
243,300,47958,6,0,B|202:287|178:300|178:300|153:311|110:292,1,120
300,356,48233,2,0,P|268:376|224:379,1,80
343,199,48508,2,0,P|380:197|420:217,1,80
237,101,48784,2,0,P|235:63|255:23,1,80
180,213,49059,6,0,B|147:216|147:216|91:201,2,80
329,309,49472,2,0,B|362:312|362:312|418:297,2,80
159,342,49885,2,0,P|133:282|196:207,1,155.999992858887
300,145,50160,6,0,L|216:139,1,83.9999974365235
152,87,50710,2,0,P|153:57|160:27,2,60.0000022888184
251,42,51123,6,0,L|354:35,1,103.999995239258
290,159,51398,1,0,0:0:0:0:
398,109,51536,1,0,0:0:0:0:
280,173,51674,2,0,P|278:224|299:271,1,103.999995239258
392,318,51949,1,0,0:0:0:0:
235,308,52086,1,0,0:0:0:0:
367,209,52224,6,0,L|470:215,1,103.999995239258
280,173,52499,2,0,L|176:179,1,103.999995239258
98,249,52775,1,0,0:0:0:0:
194,287,52912,1,0,0:0:0:0:
166,186,53050,1,0,0:0:0:0:
102,333,53187,1,0,0:0:0:0:
9,247,53325,6,0,P|-6:147|48:62,1,207.999990478516
236,75,53738,2,0,P|184:76|137:55,1,103.999995239258
305,11,54013,2,0,P|326:57|324:109,1,103.999995239258
261,192,54288,1,0,0:0:0:0:
387,280,54426,6,0,L|438:273,2,51.999997619629
184,299,54701,1,0,0:0:0:0:
422,361,54839,5,0,0:0:0:0:
267,276,54976,1,0,0:0:0:0:
330,349,55114,6,0,P|284:371|233:366,1,103.999995239258
184,299,55389,1,0,0:0:0:0:
272,172,55527,6,0,L|267:276,1,103.999995239258
189,188,55802,1,0,0:0:0:0:
292,87,55940,1,0,0:0:0:0:
150,80,56077,2,0,P|145:131|167:177,1,103.999995239258
226,30,56353,1,0,0:0:0:0:
64,92,56490,1,0,0:0:0:0:
272,172,56628,6,0,L|375:166,1,103.999995239258
184,299,56903,2,0,L|80:293,1,103.999995239258
362,268,57178,6,0,P|366:319|344:365,1,103.999995239258
167,177,57453,2,0,P|162:125|184:79,1,103.999995239258
496,76,57729,6,0,B|417:73|417:73|373:90|373:90|290:86,1,207.999990478516
79,73,58142,2,0,L|183:79,1,103.999995239258
266,275,58417,2,0,L|272:171,1,103.999995239258
167,176,58692,1,0,0:0:0:0:
362,268,58830,6,0,P|316:356|216:363,1,207.999990478516
125,280,59242,2,0,L|74:273,2,51.999997619629
271,171,59518,1,0,0:0:0:0:
296,167,59586,1,0,0:0:0:0:
322,163,59655,1,0,0:0:0:0:
266,275,59793,1,0,0:0:0:0:
6,105,59931,6,0,B|84:102|84:102|128:119|128:119|211:115,1,207.999990478516
425,149,60343,2,0,L|321:163,1,103.999995239258
181,1,60619,2,0,L|284:15,1,103.999995239258
227,112,60894,1,0,0:0:0:0:
487,31,61031,6,0,P|509:131|490:233,1,207.999990478516
380,384,61444,2,0,P|374:332|381:280,1,103.999995239258
425,149,61719,2,0,L|321:163,1,103.999995239258
218,179,61995,1,0,0:0:0:0:
392,269,62132,5,0,0:0:0:0:
289,288,62270,1,0,0:0:0:0:
186,307,62408,1,0,0:0:0:0:
84,326,62545,1,0,0:0:0:0:
12,141,62683,5,0,0:0:0:0:
115,160,62820,1,0,0:0:0:0:
218,179,62958,1,0,0:0:0:0:
320,198,63096,1,0,0:0:0:0:
487,31,63233,6,0,P|383:23|283:50,1,207.999990478516
218,179,63646,1,0,0:0:0:0:
83,76,63784,2,0,P|134:75|183:92,1,103.999995239258
320,198,64059,1,0,0:0:0:0:
115,160,64197,1,0,0:0:0:0:
283,50,64334,6,0,P|383:23|487:31,1,207.999990478516
470,223,64747,2,0,P|452:174|453:122,1,103.999995239258
329,315,65022,2,0,P|380:314|429:331,1,103.999995239258
225,347,65297,1,0,0:0:0:0:
218,179,65435,5,0,0:0:0:0:
218,179,65504,1,0,0:0:0:0:
218,179,65573,2,0,B|128:147|110:215|14:178,1,207.999990478516
305,74,66123,6,0,P|347:166|323:265,1,207.999990478516
107,76,66674,6,0,L|186:70,1,80
218,179,66949,2,0,L|138:173,1,80
22,261,67224,2,0,L|101:255,1,80
133,364,67499,1,0,0:0:0:0:
53,358,67637,1,0,0:0:0:0:
217,275,67775,6,0,L|222:354,1,80
137,172,68050,1,0,0:0:0:0:
305,74,68187,1,0,0:0:0:0:
305,74,68256,1,0,0:0:0:0:
305,74,68325,2,0,L|225:79,1,80
145,88,68600,1,0,0:0:0:0:
389,216,68738,6,0,B|355:127|418:111|388:28,1,191.999994140625
217,275,69151,2,0,P|261:291|308:284,1,95.9999970703126
128,215,69426,2,0,P|81:207|36:224,1,95.9999970703126
95,312,69701,1,0,0:0:0:0:
220,184,69839,6,0,B|229:136|229:136|226:88,1,95.9999970703126
119,24,70114,2,0,B|116:71|116:71|125:119,1,95.9999970703126
221,73,70389,1,0,0:0:0:0:
44,129,70527,1,0,0:0:0:0:
42,152,70596,1,0,0:0:0:0:
40,176,70664,1,0,0:0:0:0:
38,200,70733,1,0,0:0:0:0:
36,224,70802,1,0,0:0:0:0:
95,312,70940,6,0,B|177:341|194:278|282:312,1,191.999994140625
463,364,71353,2,0,P|416:371|371:354,1,95.9999970703126
389,193,71628,2,0,P|418:229|426:276,1,95.9999970703126
443,114,71903,1,0,0:0:0:0:
167,202,72041,6,0,P|258:211|315:138,1,191.999994140625
260,40,72453,2,0,P|230:76|222:123,1,95.9999970703126
152,193,72729,2,0,P|144:146|114:109,1,95.9999970703126
114,109,72935,1,0,0:0:0:0:
114,109,73004,1,0,0:0:0:0:
52,195,73142,6,0,L|47:290,2,95.9999970703126
144,289,73554,2,0,P|190:281|227:251,1,95.9999970703126
398,241,73830,2,0,P|361:211|314:203,1,95.9999970703126
318,309,74105,1,0,0:0:0:0:
404,368,74242,6,0,L|500:355,1,95.9999970703126
306,322,74518,2,0,L|210:309,1,95.9999970703126
297,205,74793,1,0,0:0:0:0:
398,241,74931,1,0,0:0:0:0:
401,205,74999,1,0,0:0:0:0:
404,169,75068,1,0,0:0:0:0:
407,133,75137,1,0,0:0:0:0:
410,97,75206,1,0,0:0:0:0:
318,45,75343,6,0,B|186:37|186:37|137:72,1,191.999994140625
225,216,75756,2,0,L|212:120,1,95.9999970703126
139,198,76031,2,0,L|126:294,1,95.9999970703126
126,293,76238,1,0,0:0:0:0:
126,293,76307,1,0,0:0:0:0:
25,237,76444,6,0,L|-1:45,1,191.999994140625
142,67,76857,5,0,0:0:0:0:
180,39,76926,1,0,0:0:0:0:
226,24,76995,1,0,0:0:0:0:
273,26,77064,1,0,0:0:0:0:
317,44,77132,2,0,L|363:60,1,47.9999985351563
251,167,77270,1,0,0:0:0:0:
251,167,77339,1,0,0:0:0:0:
251,167,77408,2,0,L|247:120,1,47.9999985351563
330,231,77545,6,0,P|246:268|166:222,1,191.999994140625
114,140,77889,1,0,0:0:0:0:
114,140,77958,2,0,P|81:174|69:220,1,95.9999970703126
160,381,78233,2,0,P|148:334|115:300,1,95.9999970703126
45,359,78508,1,0,0:0:0:0:
165,221,78646,6,0,P|249:184|329:230,1,191.999994140625
345,335,79059,2,0,L|249:334,1,95.9999970703126
496,370,79334,5,0,0:0:0:0:
365,103,79472,1,0,0:0:0:0:
368,83,79747,6,0,P|452:113|451:203,1,191.999994140625
250,183,80091,1,0,0:0:0:0:
250,183,80160,2,0,L|348:175,1,95.9999970703126
205,83,80435,2,0,L|107:75,1,95.9999970703126
34,149,80710,1,0,0:0:0:0:
119,319,80848,6,0,P|121:271|105:227,1,95.9999970703126
18,288,81123,1,0,0:0:0:0:
188,179,81261,1,0,0:0:0:0:
206,361,81398,5,0,0:0:0:0:
219,315,81467,1,0,0:0:0:0:
221,268,81536,1,0,0:0:0:0:
119,319,81674,1,0,0:0:0:0:
308,225,81811,1,0,0:0:0:0:
138,91,81949,6,0,B|235:64|228:114|328:93,1,191.999994140625
438,22,82362,2,0,P|421:66|423:114,1,95.9999970703126
495,290,82637,2,0,P|496:242|480:197,1,95.9999970703126
308,225,82912,1,0,0:0:0:0:
206,361,83050,6,0,L|397:351,1,191.999994140625
287,221,83463,2,0,B|233:219|233:219|183:228,1,95.9999970703126
385,191,83738,2,0,B|426:198|426:198|480:197,1,95.9999970703126
310,127,84013,1,0,0:0:0:0:
137,324,84151,6,0,P|86:245|113:156,1,191.999994140625
233,83,84564,2,0,L|135:75,1,95.9999970703126
310,127,84839,2,0,L|408:119,1,95.9999970703126
309,43,85114,1,0,0:0:0:0:
191,227,85252,5,0,0:0:0:0:
296,223,85389,1,0,0:0:0:0:
113,156,85527,5,0,0:0:0:0:
245,296,85664,1,0,0:0:0:0:
309,43,85802,5,0,0:0:0:0:
191,227,85940,1,0,0:0:0:0:
310,127,86077,1,0,0:0:0:0:
178,71,86215,1,0,0:0:0:0:
255,306,86353,6,0,L|451:290,1,191.999994140625
181,237,86765,2,0,L|82:229,1,95.9999970703126
323,139,87041,2,0,L|421:131,1,95.9999970703126
283,223,87316,1,0,0:0:0:0:
113,156,87453,6,0,P|100:110|111:63,1,95.9999970703126
247,26,87729,2,0,P|259:71|248:118,1,95.9999970703126
122,52,88004,1,0,0:0:0:0:
273,222,88142,5,0,0:0:0:0:
61,207,88279,1,0,0:0:0:0:
290,204,88417,1,0,0:0:0:0:
74,360,88554,6,0,P|159:326|180:236,1,191.999994140625
113,156,88898,1,0,0:0:0:0:
113,156,88967,2,0,P|100:110|111:63,1,95.9999970703126
247,26,89242,2,0,P|259:71|248:118,1,95.9999970703126
174,222,89518,1,0,0:0:0:0:
176,109,89655,1,0,0:0:0:0:
348,258,89793,5,0,0:0:0:0:
155,222,89931,1,0,0:0:0:0:
136,222,89999,1,0,0:0:0:0:
117,222,90068,1,0,0:0:0:0:
397,144,90206,1,0,0:0:0:0:
346,360,90343,2,0,P|300:347|265:315,1,95.9999970703126
356,245,90619,1,0,0:0:0:0:
219,47,90756,6,0,B|242:157|242:157|223:234,1,191.999994140625
18,171,91169,2,0,L|112:155,1,95.9999970703126
173,326,91444,2,0,L|78:310,1,95.9999970703126
241,158,91719,1,0,0:0:0:0:
320,384,91857,6,0,B|458:368|458:368|412:340,1,191.999994140625
230,171,92270,2,0,L|245:265,1,95.9999970703126
394,122,92545,2,0,L|409:27,1,95.9999970703126
245,49,92820,1,0,0:0:0:0:
134,307,92958,6,0,B|157:198|107:227|136:118,1,191.999994140625
325,166,93371,2,0,P|277:173|229:170,1,95.9999970703126
23,36,93646,2,0,P|70:28|118:31,1,95.9999970703126
236,63,93921,1,0,0:0:0:0:
102,212,94059,1,0,0:0:0:0:
339,155,94197,5,0,0:0:0:0:
265,252,94334,1,0,0:0:0:0:
265,252,94403,1,0,0:0:0:0:
265,252,94472,1,0,0:0:0:0:
135,118,94609,1,0,0:0:0:0:
47,343,94747,5,0,0:0:0:0:
82,339,94816,1,0,0:0:0:0:
118,335,94885,1,0,0:0:0:0:
154,332,94953,1,0,0:0:0:0:
190,328,95022,6,0,L|237:335,1,47.9999985351563
92,222,95160,2,0,L|44:229,1,47.9999985351563
297,63,95297,5,0,0:0:0:0:
289,110,95366,1,0,0:0:0:0:
281,157,95435,1,0,0:0:0:0:
273,205,95504,1,0,0:0:0:0:
265,252,95573,5,0,0:0:0:0:
175,166,95710,1,0,0:0:0:0:
368,164,95848,5,0,0:0:0:0:
174,251,95986,1,0,0:0:0:0:
391,270,96123,5,0,0:0:0:0:
176,81,96261,1,0,0:0:0:0:
448,106,96398,6,0,P|463:155|451:205,1,103.999995239258
289,110,96674,2,0,P|277:59|292:10,1,103.999995239258
391,270,96949,2,0,L|183:289,1,207.999990478516
65,248,97362,1,0,0:0:0:0:
135,376,97499,6,0,P|184:391|234:379,1,103.999995239258
113,161,97775,2,0,P|63:145|13:157,1,103.999995239258
55,351,98050,6,0,L|65:248,1,103.999995239258
213,107,98325,2,0,L|222:210,1,103.999995239258
33,48,98600,5,0,0:0:0:0:
194,18,98738,1,0,0:0:0:0:
113,161,98875,1,0,0:0:0:0:
48,59,99013,1,0,0:0:0:0:
374,137,99151,5,0,0:0:0:0:
213,107,99288,1,0,0:0:0:0:
294,250,99426,1,0,0:0:0:0:
359,148,99564,1,0,0:0:0:0:
149,258,99701,2,0,L|158:361,1,103.999995239258
460,182,99976,6,0,P|471:131|456:82,1,103.999995239258
294,250,100252,2,0,P|331:285|381:296,1,103.999995239258
318,72,100527,2,0,P|268:86|233:124,1,103.999995239258
469,285,100802,6,0,L|459:181,1,103.999995239258
233,124,101077,2,0,L|223:227,1,103.999995239258
29,364,101353,2,0,L|9:156,1,207.999990478516
66,46,101765,5,0,0:0:0:0:
66,46,101834,1,0,0:0:0:0:
66,46,101903,2,0,P|112:55|160:51,1,95.9999970703126
357,11,102178,2,0,P|309:7|262:16,1,95.9999970703126
233,124,102453,6,0,L|224:219,1,95.9999970703126
387,190,102729,2,0,L|378:94,1,95.9999970703126
290,313,103004,5,0,0:0:0:0:
392,285,103142,1,0,0:0:0:0:
392,285,103210,1,0,0:0:0:0:
392,285,103279,1,0,0:0:0:0:
221,234,103417,1,0,0:0:0:0:
357,369,103554,6,0,L|452:360,1,88.000002685547
184,384,103830,2,0,L|88:375,1,88.000002685547
59,142,104105,6,0,P|94:212|75:289,1,160
4,221,104518,1,0,0:0:0:0:
21,62,104655,2,0,P|60:55|99:61,1,80
179,116,104931,2,0,P|218:122|257:116,1,80
363,18,105206,6,0,P|343:94|378:164,1,160
456,220,105619,1,0,0:0:0:0:
377,274,105756,2,0,B|297:284,1,80
141,214,106031,2,0,B|221:225,1,80
215,321,106307,5,0,0:0:0:0:
215,321,106444,1,0,0:0:0:0:
297,200,106582,1,0,0:0:0:0:
297,200,106719,1,0,0:0:0:0:
319,358,106857,5,0,0:0:0:0:
319,358,106995,1,0,0:0:0:0:
141,214,107132,1,0,0:0:0:0:
141,214,107270,1,0,0:0:0:0:
297,200,107408,5,0,0:0:0:0:
215,321,107545,1,0,0:0:0:0:
377,274,107683,5,0,0:0:0:0:
199,148,107820,1,0,0:0:0:0:
397,100,107958,5,0,0:0:0:0:
394,119,108027,1,0,0:0:0:0:
392,139,108096,1,0,0:0:0:0:
389,159,108164,1,0,0:0:0:0:
387,179,108233,1,0,0:0:0:0:
377,274,108371,1,0,0:0:0:0:
199,148,108508,6,0,P|122:128|52:163,1,160
52,162,109059,6,0,P|70:127|73:88,1,80
0,243,109334,2,0,P|2:282|21:317,1,80
143,362,109609,6,0,L|302:345,1,160
377,274,110022,2,0,L|217:257,1,160
293,185,110435,1,0,0:0:0:0:
201,258,110573,1,0,0:0:0:0:
452,335,110710,6,0,P|471:258|436:188,1,160
436,188,111261,6,0,P|471:206|510:209,1,80
308,108,111536,2,0,P|268:110|233:129,1,80
166,250,111742,1,0,0:0:0:0:
166,250,111811,2,0,L|157:170,1,80
65,81,112086,1,0,0:0:0:0:
23,327,112224,5,0,0:0:0:0:
42,324,112293,1,0,0:0:0:0:
62,322,112362,1,0,0:0:0:0:
82,320,112431,1,0,0:0:0:0:
102,318,112499,2,0,L|141:327,1,40
251,242,112637,1,0,0:0:0:0:
157,170,112775,1,0,0:0:0:0:
234,353,112912,5,0,0:0:0:0:
289,348,113187,5,0,0:0:0:0:
344,343,113463,5,0,0:0:0:0:
360,260,113600,1,0,0:0:0:0:
399,338,113738,5,0,0:0:0:0:
415,255,113875,1,0,0:0:0:0:
376,177,114013,5,0,0:0:0:0:
321,182,114288,5,0,0:0:0:0:
266,187,114564,5,0,0:0:0:0:
250,270,114701,1,0,0:0:0:0:
211,192,114839,5,0,0:0:0:0:
195,275,114976,1,0,0:0:0:0:
234,353,115114,5,0,0:0:0:0:
360,260,115252,1,0,0:0:0:0:
211,192,115389,1,0,0:0:0:0:
399,338,115527,5,0,0:0:0:0:
195,275,115664,1,0,0:0:0:0:
376,177,115802,1,0,0:0:0:0:
234,353,115940,5,0,0:0:0:0:
294,185,116077,1,0,0:0:0:0:
399,338,116215,2,0,P|475:328|506:258,1,160
506,258,116765,6,0,L|426:262,1,80
305,266,117041,1,0,0:0:0:0:
367,98,117178,6,0,B|380:155|380:155|366:209,1,103.999995239258
304,20,117453,1,0,0:0:0:0:
457,66,117590,1,0,0:0:0:0:
267,146,117728,2,0,L|146:131,1,103.999995239258
51,186,118003,5,0,0:0:0:0:
215,57,118141,1,0,0:0:0:0:
34,79,118278,2,0,P|12:146|26:190,1,103.999995239258
194,321,118554,2,0,P|200:270|179:223,1,103.999995239258
0,321,118829,2,0,P|67:343|104:324,1,103.999995239258
311,154,119104,2,0,P|244:132|207:151,1,103.999995239258
376,310,119379,6,0,B|357:254|377:220|377:220|417:165|380:95,1,207.999990478516
267,259,119792,2,0,P|267:322|286:376,1,103.999995239258
176,160,120067,2,0,P|189:109|187:58,1,103.999995239258
75,195,120343,1,0,0:0:0:0:
321,106,120480,2,0,L|261:98,1,51.999997619629
108,86,120618,5,0,0:0:0:0:
178,280,120755,1,0,0:0:0:0:
191,152,120893,5,0,0:0:0:0:
121,346,121031,1,0,0:0:0:0:
86,181,121168,5,0,0:0:0:0:
257,229,121306,1,0,0:0:0:0:
39,295,121444,1,0,0:0:0:0:
292,326,121581,6,0,B|366:310|366:310|393:282,1,103.999995239258
355,73,121856,2,0,B|345:108|345:108|350:190,1,103.999995239258
472,337,122132,2,0,L|465:222,1,103.999995239258
503,130,122407,1,0,0:0:0:0:
289,242,122544,1,0,0:0:0:0:
179,50,122682,6,0,L|202:178,1,103.999995239258
104,299,122957,2,0,L|123:197,1,103.999995239258
324,228,123233,2,0,B|275:250|275:250|216:244,1,103.999995239258
63,134,123508,2,0,B|112:112|112:112|171:118,1,103.999995239258
379,160,123783,6,0,B|423:209|393:275|393:275|449:262|468:214,1,207.999990478516
294,114,124196,1,0,0:0:0:0:
482,124,124333,1,0,0:0:0:0:
274,98,124471,1,0,0:0:0:0:
497,106,124609,1,0,0:0:0:0:
249,195,124746,1,0,0:0:0:0:
422,29,124884,6,0,B|266:15|266:15|209:33,1,207.999990478516
130,103,125297,1,0,0:0:0:0:
130,103,125366,1,0,0:0:0:0:
130,103,125434,2,0,L|142:179,1,51.999997619629
212,250,125572,5,0,0:0:0:0:
39,159,125710,1,0,0:0:0:0:
219,29,125847,1,0,0:0:0:0:
117,233,125985,2,0,P|148:321|267:326,1,207.999990478516
377,120,126398,6,0,P|305:123|271:153,1,103.999995239258
264,235,126673,1,0,0:0:0:0:
466,161,126811,2,0,P|463:89|433:55,1,103.999995239258
417,298,127086,2,0,B|394:326|403:359|403:359|340:308|381:220,1,207.999990478516
292,88,127499,6,0,P|241:118|184:112,1,103.999995239258
312,6,127774,1,0,0:0:0:0:
107,68,127911,2,0,L|133:183,1,103.999995239258
239,268,128187,6,0,P|202:246|123:260,1,103.999995239258
321,343,128462,1,0,0:0:0:0:
277,161,128600,1,0,0:0:0:0:
194,353,128737,6,0,P|250:368|304:337,1,103.999995239258
375,185,129012,1,0,0:0:0:0:
190,101,129150,1,0,0:0:0:0:
442,121,129288,2,0,P|468:163|461:216,1,103.999995239258
227,173,129563,5,0,0:0:0:0:
452,102,129700,1,0,0:0:0:0:
249,35,129838,1,0,0:0:0:0:
305,254,129976,6,0,L|193:243,1,103.999995239258
108,296,130251,1,0,0:0:0:0:
376,199,130389,2,0,B|407:146|371:130|363:96|363:96|337:129|307:117|296:179,1,207.999990478516
405,286,130801,1,0,0:0:0:0:
270,63,130939,1,0,0:0:0:0:
142,234,131077,6,0,L|165:358,1,103.999995239258
361,185,131352,1,0,0:0:0:0:
122,105,131489,1,0,0:0:0:0:
122,105,131558,1,0,0:0:0:0:
122,105,131627,6,0,B|160:128|196:113|196:113|241:91|291:122,1,155.999992858887
357,29,132728,2,0,B|354:85|394:120|394:120|402:164|365:205|365:205|404:252|399:307|399:307|358:260|285:268|256:307|256:307|282:364|354:360,1,575.999982421876
434,180,134929,5,0,0:0:0:0:
94,255,135067,1,0,0:0:0:0:
78,180,137131,5,0,0:0:0:0:
418,255,137269,1,0,0:0:0:0:
241,48,138783,6,0,P|224:108|137:112,1,143.999995605469
61,64,139333,2,0,L|55:125,2,47.9999985351563
109,244,139746,2,0,L|104:196,2,47.9999985351563
21,315,140159,2,0,L|68:319,2,47.9999985351563
214,353,140572,2,0,L|166:357,2,47.9999985351563
261,255,140984,6,0,L|308:259,2,47.9999985351563
474,327,141397,2,0,L|426:331,2,47.9999985351563
207,222,141810,2,0,L|254:226,2,47.9999985351563
512,196,142223,2,0,L|464:200,2,47.9999985351563
379,117,142636,6,0,P|370:95|369:80,3,23.9999992675781
306,28,142911,2,0,P|303:42|291:65,3,23.9999992675781
248,202,143186,2,0,P|237:187|229:157,3,40
189,58,143461,2,0,P|181:80|156:107,1,47.9999985351563
30,174,143599,6,0,L|20:119,1,51.999997619629
124,240,143737,1,0,0:0:0:0:
124,240,143805,1,0,0:0:0:0:
124,240,143874,2,0,L|132:188,1,51.999997619629
48,318,144012,2,0,L|39:266,1,51.999997619629
131,383,144150,2,0,L|139:331,1,51.999997619629
211,278,144287,6,0,L|262:271,1,51.999997619629
360,314,144425,1,0,0:0:0:0:
360,314,144494,1,0,0:0:0:0:
360,314,144562,2,0,L|351:365,1,51.999997619629
431,234,144700,6,0,L|422:182,1,51.999997619629
297,95,144838,1,0,0:0:0:0:
297,95,144906,1,0,0:0:0:0:
297,95,144975,2,0,L|305:146,1,51.999997619629
423,80,145113,2,0,L|431:28,1,51.999997619629
309,165,145250,2,0,L|317:216,1,51.999997619629
181,83,145388,2,0,L|189:31,1,51.999997619629
84,127,145526,2,0,L|92:178,1,51.999997619629
193,15,145663,1,0,0:0:0:0:
235,230,145801,6,0,B|243:309|186:346|186:346|142:332|129:289,1,207.999990478516
84,127,146214,2,0,P|40:125|0:141,1,88.000002685547
235,230,146489,2,0,P|275:245|319:244,1,88.000002685547
181,98,146764,2,0,L|165:184,2,88.000002685547
116,284,147177,1,0,0:0:0:0:
292,164,147315,6,0,P|332:148|376:149,1,88.000002685547
483,312,147590,2,0,P|467:271|468:227,1,88.000002685547
512,63,147865,1,0,0:0:0:0:
311,177,148003,6,0,B|185:169|185:169|234:131,1,176.000005371094
386,264,148416,2,0,L|377:362,1,88.000002685547
169,185,148691,2,0,L|160:97,1,88.000002685547
357,74,148966,1,0,0:0:0:0:
81,142,149104,2,0,B|89:216|89:216|113:254|113:254|121:323,1,176.000005371094
0,63,149516,6,0,L|90:57,1,88.000002685547
256,179,149792,2,0,L|169:185,1,88.000002685547
40,287,150067,1,0,0:0:0:0:
317,236,150205,6,0,P|337:190|334:152,1,88.000002685547
263,85,150480,1,0,0:0:0:0:
410,211,150617,1,0,0:0:0:0:
421,8,150755,2,0,P|414:51|429:93,1,88.000002685547
504,133,151030,5,0,0:0:0:0:
281,75,151168,1,0,0:0:0:0:
220,229,151305,2,0,P|220:254|230:285,3,44.0000013427735
235,295,151581,1,0,0:0:0:0:
159,141,151718,2,0,L|54:129,1,88.000002685547
82,249,151994,5,0,0:0:0:0:
52,130,152131,1,0,0:0:0:0:
4,300,152269,1,0,0:0:0:0:
136,55,152406,6,0,P|218:75|247:155,1,176.000005371094,0|0,0:0|0:0,3:0:0:0:
247,155,152750,1,0,0:0:0:0:
247,155,152819,1,0,0:0:0:0:
159,141,152957,1,0,0:0:0:0:
235,263,153094,5,0,0:0:0:0:
332,207,153232,1,0,0:0:0:0:
164,159,153370,1,0,0:0:0:0:
166,318,153507,6,0,P|244:350|313:302,1,176.000005371094,0|0,0:0|0:0,3:0:0:0:
313,302,153851,1,0,0:0:0:0:
313,302,153920,1,0,0:0:0:0:
235,263,154058,1,0,0:0:0:0:
412,334,154195,5,0,0:0:0:0:
332,207,154333,1,0,0:0:0:0:
460,128,154471,1,0,0:0:0:0:
231,7,154608,6,0,P|198:85|246:154,1,176.000005371094,0|0,0:0|0:0,3:0:0:0:
246,155,154952,1,0,0:0:0:0:
246,155,155021,1,0,0:0:0:0:
286,76,155159,1,0,0:0:0:0:
102,114,155296,5,0,0:0:0:0:
226,248,155434,1,0,0:0:0:0:
201,93,155572,1,0,0:0:0:0:
25,205,155709,6,0,B|19:274|19:274|34:306|34:306|29:377,1,176.000005371094
29,377,156053,1,0,0:0:0:0:
29,377,156122,2,0,L|71:366,1,44.0000013427735
161,331,156260,2,0,L|203:341,1,44.0000013427735
309,349,156397,6,0,P|307:327|302:305,1,44.0000013427735
232,204,156535,2,0,P|227:225|225:247,1,44.0000013427735
332,161,156672,2,0,P|330:139|325:117,1,44.0000013427735
226,32,156810,6,0,B|201:73|201:137|201:137|155:122|122:94|122:94|110:142|126:185|126:185|55:185|9:132|9:132|0:245|62:323,1,616.000018798829
145,367,157911,2,0,B|172:331|156:281|156:281|193:274|212:235|212:235|262:286|235:364|235:364|284:358|332:328|332:328|334:255|295:196|295:196|325:216|359:204,1,616.000018798829
445,26,159012,6,0,P|364:46|339:126,1,176.000005371094
453,218,159425,2,0,P|450:187|444:158,2,58.6666684570313
400,312,159700,2,0,P|394:340|392:369,2,58.6666684570313
490,321,159975,1,0,0:0:0:0:
296,196,160113,6,0,B|197:187|224:233|123:212,1,176.000005371094
48,109,160526,1,0,0:0:0:0:
25,244,160663,2,0,P|83:306|168:304,1,176.000005371094
190,113,161076,1,0,0:0:0:0:
107,205,161214,1,0,0:0:0:0:
367,238,161351,6,0,B|431:230|456:133|351:64|215:158|340:253|242:291|158:292|105:204|105:204|161:258|133:356,1,616.000018798829
41,153,162452,2,0,B|89:112|142:138|142:138|181:129|209:87,1,176.000005371094
439,258,162865,2,0,B|391:217|338:243|338:243|299:234|271:192,1,176.000005371094
299,32,163278,2,0,P|293:91|268:126,1,88.000002685547
73,148,163553,6,0,B|121:106|113:26|113:26|192:95|144:175|144:175|88:269|148:340|148:340|217:288|203:212,1,616.000018798829
280,86,164654,6,0,B|245:175|329:215|329:215|391:151|339:82|339:82|392:67|433:94|433:94|481:121|531:81|531:81|513:11|426:3,1,616.000018798829
191,107,165755,6,0,P|185:165|248:266,1,176.000005371094
429,306,166168,2,0,P|371:300|270:363,1,176.000005371094
492,251,166581,2,0,P|494:203|477:166,1,88.000002685547
432,65,166856,6,0,B|380:94|380:94|258:72,1,176.000005371094
121,126,167269,2,0,B|187:142|187:142|221:166|221:166|286:179,1,176.000005371094
350,275,167682,2,0,L|250:257,1,88.000002685547
59,198,167957,6,0,B|77:250|77:250|63:331,1,132.00000402832
58,349,168232,2,0,L|152:342,1,88.000002685547
181,238,168507,1,0,0:0:0:0:
261,365,168645,1,0,0:0:0:0:
290,158,168783,2,0,L|186:144,1,88.000002685547
179,145,168989,1,0,0:0:0:0:
179,145,169058,5,0,0:0:0:0:
362,233,169195,1,0,0:0:0:0:
304,67,169333,1,0,0:0:0:0:
200,231,169471,1,0,0:0:0:0:
364,26,169608,2,0,P|380:60|375:101,2,58.6666684570313
94,148,169883,2,0,P|96:118|110:93,2,58.6666684570313
292,191,170159,6,0,L|301:247,3,44.0000013427735
199,356,170434,1,0,0:0:0:0:
192,330,170503,1,0,0:0:0:0:
185,304,170572,1,0,0:0:0:0:
178,278,170640,1,0,0:0:0:0:
171,252,170709,2,0,L|153:311,3,44.0000013427735
80,200,170984,5,0,0:0:0:0:
94,168,171053,1,0,0:0:0:0:
108,135,171122,1,0,0:0:0:0:
122,102,171191,1,0,0:0:0:0:
137,70,171260,2,0,L|99:106,3,44.0000013427735
212,160,171535,5,0,0:0:0:0:
248,135,171604,1,0,0:0:0:0:
284,110,171672,1,0,0:0:0:0:
320,86,171741,1,0,0:0:0:0:
356,60,171810,2,0,L|310:55,3,44.0000013427735
275,211,172085,5,0,0:0:0:0:
327,201,172154,1,0,0:0:0:0:
379,191,172223,1,0,0:0:0:0:
431,182,172292,1,0,0:0:0:0:
483,174,172361,6,0,L|478:124,3,44.0000013427735
265,220,172636,2,0,L|260:263,3,44.0000013427735
176,52,172911,2,0,L|171:8,3,44.0000013427735
141,162,173186,2,0,L|30:155,1,88.000002685547
235,118,173461,5,0,0:0:0:0:
243,126,173553,2,0,L|234:207,1,58.6666684570313
319,240,173737,1,0,0:0:0:0:
311,248,173828,2,0,L|320:329,1,58.6666684570313
241,373,174012,1,0,0:0:0:0:
424,271,174150,1,0,0:0:0:0:
221,162,174425,6,0,B|280:157|280:157|304:138|304:138|330:151|330:151|396:149,1,176.000005371094
156,216,174838,2,0,P|139:171|147:131,1,88.000002685547
222,76,175113,1,0,0:0:0:0:
222,76,175250,1,0,0:0:0:0:
55,162,175388,1,0,0:0:0:0:
244,264,175526,6,0,P|249:307|232:363,1,88.000002685547
123,371,175801,1,0,0:0:0:0:
339,275,175939,1,0,0:0:0:0:
186,161,176076,2,0,B|321:142|321:142|285:110,1,176.000005371094
99,113,176489,5,0,0:0:0:0:
395,101,176627,2,0,B|409:161|409:161|395:204|395:204|415:282,1,176.000005371094
441,351,177039,1,0,0:0:0:0:
491,214,177177,1,0,0:0:0:0:
306,253,177315,2,0,L|328:348,1,88.000002685547
401,184,177590,5,0,0:0:0:0:
194,162,177727,1,0,0:0:0:0:
359,36,177865,2,0,L|344:125,1,88.000002685547
143,246,178140,5,0,0:0:0:0:
427,183,178278,1,0,0:0:0:0:
100,123,178416,2,0,L|114:225,1,88.000002685547
201,324,178622,1,0,0:0:0:0:
201,324,178691,1,0,0:0:0:0:
231,64,178828,1,0,0:0:0:0:
342,170,178966,6,0,B|383:187|383:187|442:181,1,88.000002685547
443,58,179241,2,0,B|402:41|402:41|343:47,1,88.000002685547
243,153,179516,2,0,L|261:255,1,88.000002685547
512,221,179792,2,0,L|498:126,1,88.000002685547
196,296,180067,6,0,P|234:324|284:326,1,88.000002685547
190,81,180342,2,0,P|162:119|160:169,1,88.000002685547
358,145,180617,2,0,L|262:140,1,88.000002685547
27,240,180893,2,0,L|123:235,1,88.000002685547
266,324,181168,5,0,0:0:0:0:
152,135,181305,1,0,0:0:0:0:
107,370,181443,1,0,0:0:0:0:
303,188,181581,5,0,0:0:0:0:
129,147,181718,1,0,0:0:0:0:
350,78,181856,1,0,0:0:0:0:
122,39,181994,5,0,0:0:0:0:
205,243,182131,1,0,0:0:0:0:
343,92,182269,1,0,0:0:0:0:
256,192,182338,12,0,183232,0:0:0:0:
253,268,189287,5,0,0:0:0:0:
253,268,189356,1,0,0:0:0:0:
253,268,189425,2,0,P|213:268|174:280,1,80
5,295,189700,2,0,P|43:306|83:307,1,80
95,136,189975,6,0,L|106:215,1,80
201,192,190250,2,0,L|212:112,1,80
304,147,190526,2,0,L|315:226,1,80
411,203,190801,2,0,L|422:123,1,80
335,53,191076,5,0,0:0:0:0:
483,20,191214,1,0,0:0:0:0:
318,56,191351,1,0,0:0:0:0:
424,112,191489,1,0,0:0:0:0:
315,226,191627,6,0,L|303:146,1,80
411,203,191902,1,0,0:0:0:0:
361,334,192039,6,0,B|266:358|283:308|190:336,1,160
61,367,192452,1,0,0:0:0:0:
14,261,192590,2,0,P|19:213|29:166,1,95.9999970703126
149,141,192865,1,0,0:0:0:0:
34,156,193003,1,0,0:0:0:0:
124,228,193140,6,0,L|218:212,1,95.9999970703126
264,76,193416,2,0,L|169:60,1,95.9999970703126
329,237,193691,2,0,P|367:208|402:175,1,95.9999970703126
276,88,193966,1,0,0:0:0:0:
414,162,194104,1,0,0:0:0:0:
124,228,194241,6,0,P|210:205|256:282,1,191.999994140625
57,348,194654,2,0,P|51:300|41:253,1,95.9999970703126
38,78,194929,2,0,P|43:125|53:172,1,95.9999970703126
179,277,195205,1,0,0:0:0:0:
276,88,195342,5,0,0:0:0:0:
276,88,195411,1,0,0:0:0:0:
276,88,195480,2,0,B|205:95|205:95|182:105,1,95.9999970703126
320,179,195755,2,0,B|391:172|391:172|413:161,1,95.9999970703126
201,206,196030,5,0,0:0:0:0:
291,277,196168,1,0,0:0:0:0:
187,320,196305,1,0,0:0:0:0:
371,343,196443,6,0,P|389:299|391:251,1,95.9999970703126
306,172,196718,1,0,0:0:0:0:
291,277,196856,1,0,0:0:0:0:
121,97,196994,6,0,P|164:78|212:76,1,95.9999970703126
292,162,197269,1,0,0:0:0:0:
187,177,197406,1,0,0:0:0:0:
381,20,197544,6,0,P|399:63|401:111,1,95.9999970703126
271,253,197819,2,0,P|272:205|291:161,1,95.9999970703126
371,343,198094,6,0,L|275:356,1,95.9999970703126
104,294,198370,2,0,L|199:307,1,95.9999970703126
316,68,198645,2,0,B|310:183|272:142|270:252,1,191.999994140625
458,217,199058,6,0,L|362:230,1,95.9999970703126
91,163,199333,2,0,L|186:176,1,95.9999970703126
304,135,199608,1,0,0:0:0:0:
193,362,199746,6,0,B|179:285|179:285|196:250|196:250|185:175,1,191.999994140625
123,67,200159,1,0,0:0:0:0:
55,171,200296,1,0,0:0:0:0:
55,171,200365,1,0,0:0:0:0:
55,171,200434,1,0,0:0:0:0:
179,160,200572,1,0,0:0:0:0:
114,53,200709,1,0,0:0:0:0:
5,240,200847,6,0,L|196:249,1,191.999994140625
270,139,201260,2,0,P|222:140|178:159,1,95.9999970703126
336,213,201535,2,0,P|379:231|427:233,1,95.9999970703126
402,110,201810,1,0,0:0:0:0:
196,249,201948,6,0,L|188:344,1,95.9999970703126
297,282,202223,1,0,0:0:0:0:
178,159,202361,2,0,P|130:160|86:179,1,95.9999970703126
270,139,202636,2,0,P|313:157|361:159,1,95.9999970703126
465,88,202911,1,0,0:0:0:0:
297,282,203049,6,0,B|303:334|303:334|327:371,1,95.9999970703126
464,282,203324,1,0,0:0:0:0:
464,282,203461,1,0,0:0:0:0:
185,91,203599,6,0,B|133:97|133:97|96:121,1,95.9999970703126
196,249,203874,1,0,0:0:0:0:
196,249,204012,1,0,0:0:0:0:
387,137,204150,6,0,B|381:85|381:85|357:48,1,95.9999970703126
276,143,204425,1,0,0:0:0:0:
276,143,204562,1,0,0:0:0:0:
375,311,204700,1,0,0:0:0:0:
285,327,204838,6,0,B|291:275|291:275|315:238,1,95.9999970703126
387,137,205113,1,0,0:0:0:0:
184,91,205250,6,0,P|145:173|196:250,1,191.999994140625
387,137,205663,2,0,P|339:132|291:135,1,95.9999970703126
314,238,205939,2,0,P|361:240|409:236,1,95.9999970703126
277,138,206214,1,0,0:0:0:0:
141,351,206351,5,0,0:0:0:0:
141,351,206420,1,0,0:0:0:0:
141,351,206489,2,0,L|131:300,3,40
63,222,206764,2,0,L|55:271,3,40
157,184,207039,5,0,0:0:0:0:
111,29,207177,1,0,0:0:0:0:
15,121,207315,1,0,0:0:0:0:
195,108,207452,6,0,L|301:95,1,103.999995239258
375,161,207727,1,0,0:0:0:0:
360,22,207865,1,0,0:0:0:0:
452,107,208003,2,0,P|469:169|453:214,1,103.999995239258
290,212,208278,5,0,0:0:0:0:
445,28,208416,1,0,0:0:0:0:
213,177,208553,2,0,P|207:235|234:289,1,103.999995239258
342,383,208828,2,0,P|359:335|353:284,1,103.999995239258
225,160,209104,6,0,L|99:169,1,103.999995239258
301,69,209379,2,0,L|427:78,1,103.999995239258
243,351,209654,2,0,B|223:304|259:252|259:252|268:201|217:152,1,207.999990478516
79,50,210067,6,0,P|141:59|187:22,1,103.999995239258
377,92,210342,2,0,P|331:69|281:80,1,103.999995239258
465,162,210617,1,0,0:0:0:0:
150,212,210755,2,0,P|142:185|143:153,1,51.999997619629
204,95,210893,5,0,0:0:0:0:
242,292,211030,1,0,0:0:0:0:
52,235,211168,1,0,0:0:0:0:
185,66,211305,5,0,0:0:0:0:
274,289,211443,1,0,0:0:0:0:
274,289,211512,1,0,0:0:0:0:
274,289,211581,1,0,0:0:0:0:
50,258,211718,1,0,0:0:0:0:
323,363,211856,6,0,L|441:339,1,103.999995239258
242,182,212131,2,0,L|124:158,1,103.999995239258
403,66,212406,2,0,L|379:184,1,103.999995239258
417,257,212682,1,0,0:0:0:0:
285,87,212819,1,0,0:0:0:0:
166,244,212957,6,0,P|169:300|192:355,2,103.999995239258
237,173,213370,1,0,0:0:0:0:
68,259,213507,1,0,0:0:0:0:
270,322,213645,5,0,0:0:0:0:
104,136,213783,2,0,B|106:62|106:62|128:29,1,103.999995239258
341,202,214058,2,0,B|261:257|261:257|143:242,1,207.999990478516
389,93,214471,1,0,0:0:0:0:
356,316,214608,1,0,0:0:0:0:
294,60,214746,6,0,L|405:66,1,103.999995239258
474,155,215021,1,0,0:0:0:0:
247,211,215159,2,0,P|213:154|298:46,1,207.999990478516
375,294,215572,2,0,L|317:288,1,51.999997619629
136,149,215709,2,0,L|194:143,1,51.999997619629
81,240,215847,5,0,0:0:0:0:
81,240,215916,1,0,0:0:0:0:
81,240,215984,2,0,L|17:229,1,51.999997619629
50,65,216122,2,0,L|104:67,1,51.999997619629
288,143,216260,6,0,B|265:313|265:313|235:269,1,207.999990478516
334,64,216672,2,0,P|388:50|430:72,1,103.999995239258
248,61,216948,1,0,0:0:0:0:
485,130,217085,2,0,P|505:69|489:20,1,103.999995239258
163,153,217361,6,0,B|217:192|266:158|266:158|321:142|375:171,1,207.999990478516
98,191,217773,2,0,P|88:127|117:91,1,103.999995239258
241,239,218049,1,0,0:0:0:0:
132,348,218186,2,0,L|23:339,1,103.999995239258
260,258,218461,6,0,L|274:370,1,103.999995239258
130,261,218737,1,0,0:0:0:0:
392,230,218874,1,0,0:0:0:0:
254,157,219012,6,0,L|242:271,1,103.999995239258
393,209,219287,1,0,0:0:0:0:
126,103,219425,1,0,0:0:0:0:
264,31,219562,6,0,L|278:144,1,103.999995239258
168,186,219838,1,0,0:0:0:0:
388,91,219975,1,0,0:0:0:0:
180,31,220113,1,0,0:0:0:0:
180,31,220250,6,0,P|121:53|77:42,1,103.999995239258
266,100,220526,1,0,0:0:0:0:
140,324,220663,2,0,B|107:274|129:223|129:223|153:176|119:112,1,207.999990478516
54,177,221076,5,0,0:0:0:0:
258,264,221214,1,0,0:0:0:0:
285,106,221351,2,0,L|398:91,1,103.999995239258
459,165,221627,1,0,0:0:0:0:
199,174,221764,1,0,0:0:0:0:
199,174,221833,1,0,0:0:0:0:
199,174,221902,6,0,L|192:118,3,51.999997619629
355,203,222177,2,0,L|361:254,3,51.999997619629
208,332,222452,1,0,0:0:0:0:
439,248,222590,1,0,0:0:0:0:
261,86,222727,1,0,0:0:0:0:
305,349,222865,1,0,0:0:0:0:
210,245,223003,6,0,B|148:215|141:158|150:117|190:77|237:54|291:74|332:109|345:174|314:206|296:229|296:229|277:260|288:287|301:305,1,479.999985351563
245,175,224516,1,0,0:0:0:0:
245,175,224585,1,0,0:0:0:0:
245,175,224654,1,0,0:0:0:0:
362,268,224792,1,0,0:0:0:0:
376,79,224929,1,0,0:0:0:0:
445,182,225067,6,0,P|458:227|454:275,2,95.9999970703126
376,79,225480,2,0,L|280:82,1,95.9999970703126
340,171,225755,2,0,L|244:174,1,95.9999970703126
160,81,226030,1,0,0:0:0:0:
66,230,226168,6,0,P|62:277|75:323,1,95.9999970703126
158,191,226443,2,0,P|171:145|167:97,1,95.9999970703126
42,105,226718,1,0,0:0:0:0:
153,293,226856,1,0,0:0:0:0:
174,283,226925,1,0,0:0:0:0:
198,279,226994,1,0,0:0:0:0:
222,280,227062,1,0,0:0:0:0:
245,288,227131,1,0,0:0:0:0:
332,361,227269,6,0,B|329:296|329:296|342:243|342:243|339:170,1,191.999994140625
405,35,227682,2,0,P|418:81|415:129,1,95.9999970703126
255,148,227957,2,0,P|242:102|246:55,1,95.9999970703126
337,158,228232,1,0,0:0:0:0:
196,215,228370,6,0,B|186:270|217:309|217:309|207:358|152:366,1,191.999994140625
20,304,228783,2,0,P|65:291|113:294,1,95.9999970703126
288,352,229058,1,0,0:0:0:0:
279,235,229195,1,0,0:0:0:0:
279,235,229264,1,0,0:0:0:0:
279,235,229333,1,0,0:0:0:0:
371,319,229471,6,0,L|466:309,2,95.9999970703126
211,308,229883,2,0,B|193:250|193:250|196:215,1,95.9999970703126
346,141,230159,2,0,B|364:199|364:199|361:234,1,95.9999970703126
279,235,230434,1,0,0:0:0:0:
188,114,230572,6,0,L|92:123,1,95.9999970703126
284,38,230847,2,0,L|379:47,1,95.9999970703126
171,0,231122,1,0,0:0:0:0:
289,221,231260,5,0,0:0:0:0:
293,197,231328,1,0,0:0:0:0:
292,173,231397,1,0,0:0:0:0:
286,150,231466,1,0,0:0:0:0:
274,129,231535,1,0,0:0:0:0:
109,179,231672,6,0,B|151:207|204:196|204:196|161:213|143:263,1,191.999994140625
320,310,232085,2,0,P|273:301|231:277,1,95.9999970703126
384,229,232361,2,0,P|425:204|472:196,1,95.9999970703126
441,317,232636,1,0,0:0:0:0:
293,197,232773,6,0,L|321:7,1,191.999994140625
435,55,233186,1,0,0:0:0:0:
225,54,233324,1,0,0:0:0:0:
225,54,233393,1,0,0:0:0:0:
225,54,233461,2,0,L|177:60,1,47.9999985351563
82,135,233599,2,0,L|129:141,1,47.9999985351563
49,18,233737,2,0,L|1:24,1,47.9999985351563
227,155,233874,6,0,B|203:215|239:255|239:255|270:297|254:359,1,191.999994140625
386,165,234287,2,0,P|347:196|300:195,1,95.9999970703126
404,70,234562,2,0,P|443:39|490:40,1,95.9999970703126
472,220,234838,1,0,0:0:0:0:
328,106,234975,1,0,0:0:0:0:
317,275,235113,6,0,L|333:371,1,95.9999970703126
146,156,235388,2,0,L|130:252,1,95.9999970703126
238,94,235663,1,0,0:0:0:0:
233,127,235732,1,0,0:0:0:0:
228,160,235801,2,0,L|215:223,1,47.9999985351563
139,36,235939,5,0,0:0:0:0:
307,44,236076,2,0,B|448:67|448:67|400:97,1,191.999994140625
228,160,236489,2,0,P|203:114|205:68,1,95.9999970703126
380,229,236764,2,0,P|360:277|324:305,1,95.9999970703126
406,93,237039,1,0,0:0:0:0:
214,318,237177,6,0,B|149:326|111:282|111:282|156:278|186:243,1,191.999994140625
225,174,237590,2,0,P|235:123|212:82,1,95.9999970703126
133,12,237865,2,0,P|126:42|132:79,1,47.9999985351563
325,120,238003,1,0,0:0:0:0:
325,120,238072,1,0,0:0:0:0:
325,120,238140,1,0,0:0:0:0:
342,251,238278,6,0,B|279:249|279:249|240:264|240:264|150:263,1,191.999994140625
302,329,238691,2,0,L|407:331,1,95.9999970703126
213,186,238966,2,0,L|117:184,1,95.9999970703126
43,253,239241,1,0,0:0:0:0:
143,88,239379,1,0,0:0:0:0:
15,28,239516,6,0,L|34:138,1,95.9999970703126
196,280,239792,2,0,L|212:185,1,95.9999970703126
248,41,240067,1,0,0:0:0:0:
248,41,240136,1,0,0:0:0:0:
248,41,240205,2,0,L|180:52,1,47.9999985351563
105,82,240342,1,0,0:0:0:0:
331,125,240480,6,0,B|363:128|392:97|392:97|369:136|377:164|377:164|357:192|366:231,1,191.999994140625
390,327,240893,2,0,P|440:350|478:336,1,95.9999970703126
288,260,241168,2,0,P|238:237|200:251,1,95.9999970703126
149,332,241443,1,0,0:0:0:0:
235,157,241581,6,0,B|252:104|222:46|222:46|186:70|168:111,1,191.999994140625
258,305,241994,1,0,0:0:0:0:
381,257,242131,1,0,0:0:0:0:
105,224,242269,2,0,L|120:287,1,47.9999985351563
182,360,242406,1,0,0:0:0:0:
182,360,242475,1,0,0:0:0:0:
182,360,242544,1,0,0:0:0:0:
237,57,242682,6,0,B|252:108|243:140|243:140|272:157|287:188,1,144
