osu file format v14

[General]
AudioFilename: audio.mp3
AudioLeadIn: 0
PreviewTime: 50780
Countdown: 1
SampleSet: None
StackLeniency: 0.2
Mode: 0
LetterboxInBreaks: 0
WidescreenStoryboard: 0

[Editor]
DistanceSpacing: 1.5
BeatDivisor: 4
GridSize: 32
TimelineZoom: 2.899999

[Metadata]
Title:Toaru Shoukoku no Ohimesama ga...
TitleUnicode:とある小国のお姫様が...
Artist:nao
ArtistUnicode:nao
Creator:duoduo_123dong
Version:Extra
Source:姫様LOVEライフ!
Tags:Demetori Himesama Love Life Eroge Opening Atta koto mo nai Ani no Ie ni Yattekite Sumitsuita Jijou 会ったこともない兄の家にやってきて住みついた事情
BeatmapID:1910011
BeatmapSetID:914471

[Difficulty]
HPDrainRate:6
CircleSize:4
OverallDifficulty:9
ApproachRate:9.7
SliderMultiplier:2
SliderTickRate:1

[Events]
//Background and Video events
0,0,"this_is_lame.jpg",0,0
//Break Periods
//Storyboard Layer 0 (Background)
//Storyboard Layer 1 (Fail)
//Storyboard Layer 2 (Pass)
//Storyboard Layer 3 (Foreground)
//Storyboard Sound Samples

[TimingPoints]
1790,275.229357798165,4,3,0,40,1,0
1790,-200,4,3,0,40,0,0
2753,-100,4,1,0,60,0,0
11973,-200,4,2,0,40,0,0
13349,-200,4,1,0,60,0,0
14175,-200,4,2,0,40,0,0
15138,-100,4,1,0,60,0,0
20780,-200,4,2,0,40,0,0
22156,-200,4,1,0,60,0,0
22982,-200,4,2,0,40,0,0
23945,-100,4,1,0,60,0,0
29312,-200,4,3,0,40,0,0
35918,-133.333333333333,4,1,0,50,0,0
38120,-100,4,1,0,60,0,0
46927,-100,4,1,0,80,0,0
51193,-100,4,1,0,80,0,1
54634,-100,4,1,0,100,0,0
54771,-100,4,1,0,60,0,0
54909,-100,4,1,0,100,0,0
55046,-100,4,1,0,60,0,0
55184,-100,4,1,0,80,0,0
55597,-100,4,1,0,80,0,1
62202,-83.3333333333333,4,1,0,80,0,1
64404,-83.3333333333333,4,1,0,100,0,1
65643,-100,4,1,0,100,0,0
66744,-200,4,1,0,60,0,0
68395,-100,4,1,0,100,0,0

[Colours]
Combo1 : 255,0,128
Combo2 : 255,255,0
Combo3 : 255,0,255
SliderTrackOverride : 24,32,88

[HitObjects]
430,48,1790,6,0,L|423:97,1,50
469,118,2065,2,0,L|446:162,1,50
481,197,2340,2,0,L|444:230,1,50
465,276,2615,1,0,0:0:0:0:
465,276,2753,6,0,L|366:295,2,100,4|0|2,0:0|0:0|0:3,0:0:0:0:
292,173,3166,2,0,L|390:191,1,100,8|0,0:0|0:0,0:0:0:0:
227,308,3441,5,2,0:3:0:0:
134,345,3578,1,2,0:3:0:0:
54,205,3716,5,8,0:0:0:0:
152,223,3854,1,2,0:3:0:0:
14,368,3991,6,0,L|111:347,1,100,0|2,0:0|0:3,0:0:0:0:
117,145,4267,2,0,L|215:163,1,100,8|0,0:0|0:0,0:0:0:0:
400,84,4542,5,2,0:3:0:0:
375,80,4611,1,0,0:0:0:0:
350,77,4679,1,2,0:3:0:0:
325,74,4748,1,0,0:0:0:0:
300,71,4817,1,8,0:0:0:0:
300,71,4955,6,0,P|355:149|323:240,1,200,2|2,0:3|0:3,0:0:0:0:
125,216,5367,2,0,L|135:116,1,100,8|0,0:0|0:0,0:0:0:0:
114,317,5643,5,2,0:3:0:0:
114,317,5780,1,2,0:3:0:0:
248,168,5918,1,8,0:0:0:0:
413,281,6056,6,0,P|357:202|389:111,1,200,2|2,0:3|0:3,0:0:0:0:
257,260,6468,1,8,0:0:0:0:
389,111,6606,1,0,0:0:0:0:
450,301,6744,5,2,0:3:0:0:
263,67,6881,1,2,0:3:0:0:
263,67,6950,1,0,0:0:0:0:
263,67,7019,1,8,0:0:0:0:
319,360,7156,6,0,L|342:260,2,100,2|0|2,0:3|0:0|0:3,0:0:0:0:
202,197,7569,2,0,L|224:294,1,100,8|0,0:0|0:0,0:0:0:0:
366,151,7845,5,2,0:3:0:0:
168,124,7982,1,2,0:3:0:0:
151,323,8120,5,8,0:0:0:0:
341,262,8257,1,2,0:3:0:0:
144,228,8395,5,0,0:0:0:0:
347,356,8533,1,2,0:3:0:0:
76,300,8670,5,8,0:0:0:0:
415,284,8808,1,2,0:3:0:0:
264,246,8945,5,2,0:3:0:0:
255,269,9014,1,0,0:0:0:0:
245,292,9083,1,2,0:3:0:0:
236,315,9152,1,0,0:0:0:0:
227,338,9221,1,8,0:0:0:0:
227,338,9358,6,0,L|211:138,1,200,2|2,0:3|0:3,0:0:0:0:
366,11,9771,2,0,P|320:29|294:71,1,100,8|0,0:0|0:0,0:0:0:0:
348,265,10046,5,2,0:3:0:0:
367,311,10184,1,2,0:3:0:0:
385,357,10322,1,8,0:0:0:0:
385,357,10459,6,0,L|400:157,1,200,2|2,0:3|0:3,0:0:0:0:
206,206,10872,5,8,0:0:0:0:
400,157,11010,1,2,0:3:0:0:
107,100,11147,5,8,0:0:0:0:
155,92,11216,1,0,0:0:0:0:
201,111,11285,1,2,0:3:0:0:
249,124,11354,1,0,0:0:0:0:
296,110,11423,2,0,L|314:55,1,50,2|0,0:3|0:0,0:0:0:0:
311,213,11560,5,4,0:0:0:0:
311,213,11973,1,0,0:0:0:0:
311,213,12523,1,0,0:0:0:0:
311,213,13074,1,0,0:0:0:0:
311,213,13349,5,0,0:0:0:0:
164,246,13487,1,0,0:0:0:0:
164,246,13762,5,4,0:0:0:0:
164,246,14175,1,0,0:0:0:0:
164,246,14725,1,0,0:0:0:0:
164,246,15138,5,2,0:3:0:0:
164,246,15276,2,0,L|263:236,1,100,8|0,0:0|0:0,0:0:0:0:
102,116,15551,2,0,L|201:125,2,100,2|2|8,0:3|0:3|0:0,0:0:0:0:
50,309,15964,6,0,L|15:112,1,200,2|2,0:3|0:3,0:0:0:0:
164,246,16377,2,0,L|263:236,1,100,8|0,0:0|0:0,0:0:0:0:
102,116,16652,2,0,L|201:106,2,100,2|2|8,0:3|0:3|0:0,0:0:0:0:
136,312,17065,6,0,L|101:115,1,200,2|2,0:3|0:3,0:0:0:0:
250,249,17478,2,0,L|349:239,1,100,8|2,0:0|0:3,0:0:0:0:
188,119,17753,2,0,L|287:109,2,100,2|0|8,0:3|0:0|0:0,0:0:0:0:
222,315,18166,6,0,L|187:118,1,200,2|2,0:3|0:3,0:0:0:0:
336,252,18578,2,0,L|435:242,1,100,8|0,0:0|0:0,0:0:0:0:
274,122,18854,2,0,L|373:112,2,100,2|0|8,0:3|0:0|0:0,0:0:0:0:
308,318,19267,1,2,0:3:0:0:
161,182,19404,6,0,L|168:231,1,50,8|0,0:0|0:0,0:0:0:0:
67,117,19542,1,0,0:0:0:0:
67,117,19611,1,0,0:0:0:0:
67,117,19679,2,0,L|59:166,1,50,8|0,0:0|0:0,0:0:0:0:
184,80,19817,5,0,0:0:0:0:
463,187,20092,1,0,0:0:0:0:
230,376,20367,5,4,0:0:0:0:
184,80,20780,1,0,0:0:0:0:
184,80,21331,1,0,0:0:0:0:
184,80,21881,1,0,0:0:0:0:
184,80,22156,5,0,0:0:0:0:
329,119,22294,1,0,0:0:0:0:
329,119,22569,5,4,0:0:0:0:
329,119,22982,1,0,0:0:0:0:
329,119,23533,1,0,0:0:0:0:
329,119,23945,5,2,0:3:0:0:
329,119,24014,1,2,0:3:0:0:
329,119,24083,2,0,L|385:130,1,50,8|0,0:0|0:0,0:0:0:0:
268,234,24221,2,0,L|324:223,1,50
175,173,24358,5,2,0:3:0:0:
420,346,24496,1,2,0:3:0:0:
398,45,24634,1,8,0:0:0:0:
419,345,24771,6,0,P|325:315|225:311,1,200,2|2,0:3|0:3,0:0:0:0:
502,194,25184,2,0,P|472:154|467:105,1,100,8|0,0:0|0:0,0:0:0:0:
175,173,25459,1,2,0:3:0:0:
419,345,25597,1,2,0:3:0:0:
398,45,25734,1,8,0:0:0:0:
99,80,25872,6,0,P|198:82|296:60,1,200,2|2,0:3|0:3,0:0:0:0:
41,219,26285,2,0,P|75:254|90:301,1,100,8|0,0:0|0:0,0:0:0:0:
353,155,26560,1,2,0:3:0:0:
52,141,26698,1,2,0:3:0:0:
285,326,26835,1,8,0:0:0:0:
506,124,26973,6,0,P|429:186|377:271,1,200,2|2,0:3|0:3,0:0:0:0:
122,109,27386,2,0,P|170:124|220:123,1,100,8|0,0:0|0:0,0:0:0:0:
459,305,27661,1,2,0:3:0:0:
333,31,27799,1,2,0:3:0:0:
285,326,27936,1,8,0:0:0:0:
333,31,28074,1,2,0:3:0:0:
33,56,28212,6,0,L|82:48,1,50,8|0,0:0|0:0,0:0:0:0:
219,123,28349,1,2,0:3:0:0:
219,123,28418,1,2,0:3:0:0:
219,123,28487,6,0,L|169:115,1,50,8|0,0:0|0:0,0:0:0:0:
33,190,28624,1,2,0:3:0:0:
33,190,28693,1,2,0:3:0:0:
33,190,28762,6,0,L|82:182,1,50,8|0,0:0|0:0,0:0:0:0:
211,264,28900,2,0,L|161:256,1,50,8|0,0:0|0:0,0:0:0:0:
12,278,29037,6,0,L|61:270,1,50,2|0,0:3|0:0,0:0:0:0:
190,352,29175,2,0,L|140:344,1,50,8|0,0:0|0:0,0:0:0:0:
331,283,29312,5,4,0:0:0:0:
331,258,29588,1,0,0:0:0:0:
331,233,29863,1,0,0:0:0:0:
331,208,30138,1,0,0:0:0:0:
331,183,30413,5,0,0:0:0:0:
331,208,30689,1,0,0:0:0:0:
331,233,30964,1,0,0:0:0:0:
331,258,31239,1,0,0:0:0:0:
130,270,31377,1,2,0:0:0:0:
331,283,31514,5,0,0:0:0:0:
331,258,31789,1,0,0:0:0:0:
331,233,32065,1,0,0:0:0:0:
331,208,32340,1,0,0:0:0:0:
331,183,32615,5,0,0:0:0:0:
331,208,32890,1,0,0:0:0:0:
331,233,33166,1,0,0:0:0:0:
166,120,33303,1,2,0:0:0:0:
210,315,33441,1,0,0:0:0:0:
49,197,33578,5,0,0:0:0:0:
49,197,33647,1,0,0:0:0:0:
49,197,33716,5,4,0:0:0:0:
49,172,33991,1,0,0:0:0:0:
49,147,34267,1,0,0:0:0:0:
49,122,34542,1,0,0:0:0:0:
49,97,34817,5,0,0:0:0:0:
49,122,35092,1,0,0:0:0:0:
49,147,35367,1,0,0:0:0:0:
49,172,35643,1,0,0:0:0:0:
49,197,35918,6,0,L|123:185,1,75.0000028610231,2|0,0:3|0:0,0:0:0:0:
64,324,36193,2,0,L|138:335,1,75.0000028610231,8|0,0:0|0:0,0:0:0:0:
123,185,36468,1,2,0:3:0:0:
260,246,36606,1,8,0:0:0:0:
138,335,36744,5,0,0:0:0:0:
123,185,36881,1,2,0:3:0:0:
123,185,36950,1,2,0:3:0:0:
123,185,37019,2,0,L|117:107,1,75.0000028610231,8|2,0:0|0:3,0:0:0:0:
260,246,37294,2,0,L|266:168,1,75.0000028610231,8|2,0:0|0:3,0:0:0:0:
249,136,37501,1,0,0:0:0:0:
234,102,37569,5,8,0:0:0:0:
210,73,37638,1,0,0:0:0:0:
180,51,37707,1,0,0:0:0:0:
145,37,37776,1,0,0:0:0:0:
107,33,37845,2,0,P|121:20|139:16,1,37.5000014305115,2|0,0:3|0:0,0:0:0:0:
123,185,37982,2,0,P|109:197|91:201,1,37.5000014305115,0|0,0:0|0:0,0:0:0:0:
107,33,38120,6,0,P|200:64|298:49,1,200,4|8,0:0|0:0,0:0:0:0:
260,246,38533,1,0,0:0:0:0:
260,246,38670,2,0,L|254:146,2,100,2|0|8,0:3|0:3|0:0,0:0:0:0:
298,49,39083,1,0,0:0:0:0:
407,217,39221,6,0,L|413:117,1,100,2|2,0:3|0:3,0:0:0:0:
260,246,39496,1,8,0:0:0:0:
456,285,39634,2,0,L|465:384,1,100,2|0,0:3|0:0,0:0:0:0:
266,358,39909,1,2,0:3:0:0:
407,217,40046,2,0,L|413:117,1,100,8|0,0:0|0:0,0:0:0:0:
216,164,40322,5,2,0:3:0:0:
216,164,40597,1,8,0:0:0:0:
85,314,40734,1,0,0:0:0:0:
85,314,40803,1,0,0:0:0:0:
85,314,40872,2,0,L|184:321,1,100,2|8,0:3|0:0,0:0:0:0:
20,205,41147,1,0,0:0:0:0:
216,164,41285,1,0,0:0:0:0:
57,41,41423,6,0,P|105:54|154:51,1,100,8|2,0:0|0:3,0:0:0:0:
250,81,41629,1,2,0:3:0:0:
250,81,41698,2,0,P|298:67|347:70,1,100,8|2,0:0|0:3,0:0:0:0:
443,41,41904,1,2,0:3:0:0:
443,41,41973,5,8,0:0:0:0:
298,180,42111,1,0,0:0:0:0:
496,194,42248,1,0,0:0:0:0:
351,333,42386,1,0,0:0:0:0:
496,194,42523,5,2,0:3:0:0:
495,194,42799,2,0,P|455:222|406:231,1,100,8|0,0:0|0:0,0:0:0:0:
269,378,43074,1,2,0:3:0:0:
298,180,43212,1,8,0:0:0:0:
161,34,43349,1,2,0:3:0:0:
298,180,43487,1,2,0:3:0:0:
108,242,43624,6,0,L|64:332,2,100,8|2|2,0:0|0:3|0:3,0:0:0:0:
238,89,44037,2,0,L|194:-1,2,100,8|2|2,0:0|0:3|0:3,0:0:0:0:
305,277,44450,1,8,0:0:0:0:
108,242,44588,1,8,0:0:0:0:
238,89,44725,5,2,0:3:0:0:
238,89,45001,1,8,0:0:0:0:
50,156,45138,1,0,0:0:0:0:
50,156,45207,1,0,0:0:0:0:
50,156,45276,1,2,0:3:0:0:
245,192,45413,1,8,0:0:0:0:
57,259,45551,1,0,0:0:0:0:
245,192,45689,5,2,0:3:0:0:
245,192,45757,1,2,0:3:0:0:
244,191,45826,2,0,P|293:185|340:204,1,100,8|2,0:0|0:3,0:0:0:0:
373,299,46033,1,2,0:3:0:0:
373,299,46101,2,0,P|416:322|466:320,1,100,8|2,0:0|0:3,0:0:0:0:
437,224,46308,1,2,0:3:0:0:
437,224,46377,5,8,0:0:0:0:
355,98,46514,1,0,0:0:0:0:
288,233,46652,5,0,0:0:0:0:
267,85,46789,1,0,0:0:0:0:
409,36,46927,5,4,0:0:0:0:
409,36,47202,5,8,0:0:0:0:
383,234,47340,1,2,0:3:0:0:
268,11,47478,5,8,0:0:0:0:
294,209,47615,1,2,0:3:0:0:
85,73,47753,5,8,0:0:0:0:
111,271,47890,1,2,0:3:0:0:
226,49,48028,5,8,0:0:0:0:
200,246,48166,1,2,0:3:0:0:
293,59,48303,5,8,0:0:0:0:
132,235,48441,1,2,0:3:0:0:
348,117,48578,5,8,0:0:0:0:
77,177,48716,1,2,0:3:0:0:
367,211,48854,5,8,0:0:0:0:
58,83,48991,1,2,0:3:0:0:
304,138,49129,5,8,0:0:0:0:
139,327,49267,1,2,0:3:0:0:
387,313,49404,1,2,0:3:0:0:
240,109,49542,5,8,0:0:0:0:
7,296,49679,1,2,0:3:0:0:
294,382,49817,1,2,0:3:0:0:
184,48,49955,5,8,0:0:0:0:
40,365,50092,1,2,0:3:0:0:
387,313,50230,1,4,0:0:0:0:
387,313,51193,6,0,B|408:284|408:284|404:164,1,150,2|0,0:3|0:0,0:0:0:0:
308,201,51468,1,2,0:3:0:0:
496,268,51606,1,8,0:0:0:0:
418,82,51744,2,0,B|381:76|381:76|272:107,1,150,2|0,0:3|0:0,0:0:0:0:
308,201,52019,1,2,0:3:0:0:
328,2,52156,1,8,0:0:0:0:
183,141,52294,6,0,B|168:124|168:124|176:47,1,100,2|0,0:3|0:0,0:0:0:0:
308,201,52569,2,0,B|322:184|322:184|314:107,1,100,2|8,0:3|0:0,0:0:0:0:
101,322,52845,2,0,B|86:305|86:305|94:228,1,100,2|0,0:3|0:0,0:0:0:0:
365,357,53120,2,0,B|379:340|379:340|371:263,1,100,2|8,0:3|0:0,0:0:0:0:
103,124,53395,5,2,0:3:0:0:
103,124,53670,1,0,0:0:0:0:
103,123,53808,2,0,P|151:114|198:129,1,100,8|0,0:0|0:0,0:0:0:0:
284,310,54083,2,0,P|236:319|189:304,1,100,2|0,0:3|0:0,0:0:0:0:
303,139,54358,2,0,P|351:129|398:144,1,100,8|0,0:0|0:0,0:0:0:0:
398,144,54565,1,0,0:0:0:0:
398,144,54634,5,8,0:0:0:0:
114,240,54771,1,0,0:0:0:0:
409,261,54909,5,8,0:0:0:0:
103,123,55046,1,0,0:0:0:0:
104,323,55184,6,0,B|188:304|188:304|175:299,2,100,2|0|8,0:3|0:0|0:0,0:0:0:0:
103,123,55597,6,0,B|133:96|133:96|240:116,1,150,2|0,0:3|0:0,0:0:0:0:
188,201,55872,1,0,0:0:0:0:
262,14,56010,1,8,0:0:0:0:
317,205,56147,6,0,B|336:183|336:183|327:63,1,150,2|0,0:3|0:0,0:0:0:0:
240,116,56423,1,2,0:3:0:0:
433,163,56560,1,8,0:0:0:0:
269,279,56698,6,0,B|282:297|282:297|363:284,1,100,2|0,0:3|0:0,0:0:0:0:
401,88,56973,2,0,B|414:70|414:70|495:83,1,100,2|8,0:3|0:0,0:0:0:0:
191,48,57248,6,0,B|204:30|204:30|285:43,1,100,2|0,0:3|0:0,0:0:0:0:
107,288,57523,2,0,B|120:306|120:306|201:293,1,100,2|8,0:3|0:0,0:0:0:0:
83,126,57799,5,2,0:3:0:0:
83,126,58074,1,2,0:3:0:0:
263,212,58212,2,0,P|262:164|228:129,1,100,8|0,0:0|0:0,0:0:0:0:
107,288,58487,5,2,0:3:0:0:
107,288,58624,1,2,0:3:0:0:
290,368,58762,1,8,0:0:0:0:
195,190,58900,5,2,0:3:0:0:
195,190,59175,1,2,0:3:0:0:
375,277,59312,2,0,P|374:228|340:193,1,100,8|0,0:0|0:0,0:0:0:0:
425,140,59519,1,0,0:0:0:0:
425,140,59588,2,0,P|430:90|460:52,2,100,2|2|8,0:3|0:3|0:0,0:0:0:0:
229,95,60001,6,0,B|195:190|195:190|239:166,1,150,2|0,0:3|0:0,0:0:0:0:
272,260,60276,1,2,0:3:0:0:
93,348,60413,2,0,B|215:326|215:326|207:351,1,150,8|0,0:0|0:0,0:0:0:0:
166,258,60689,1,2,0:3:0:0:
364,243,60826,1,2,0:3:0:0:
229,95,60964,1,8,0:0:0:0:
364,243,61101,6,0,B|373:133|373:133|359:95,1,150,2|0,0:3|0:0,0:0:0:0:
275,151,61377,1,2,0:3:0:0:
471,180,61514,2,0,B|475:120|475:120|461:82,1,100,8|0,0:0|0:0,0:0:0:0:
275,151,61789,2,0,B|201:175|201:175|178:172,2,100,2|2|8,0:3|0:3|0:0,0:0:0:0:
78,289,62202,6,0,L|101:110,1,179.999994506836,4|0,0:0|0:0,0:0:0:0:
194,31,62478,1,2,0:3:0:0:
351,211,62615,1,8,0:0:0:0:
155,350,62753,6,0,L|178:171,1,179.999994506836,4|0,0:0|0:0,0:0:0:0:
271,92,63028,1,2,0:3:0:0:
428,272,63166,1,8,0:0:0:0:
335,51,63303,6,0,B|351:211|351:211|323:290,1,239.999992675781,4|2,0:0|0:3,0:0:0:0:
172,99,63716,1,8,0:0:0:0:
324,286,63854,1,0,0:0:0:0:
85,266,63991,6,0,B|165:281|165:281|198:259,2,119.999996337891,2|2|8,0:3|0:3|0:0,0:0:0:0:
46,28,64404,1,4,0:0:0:0:
46,28,64679,1,2,0:3:0:0:
85,266,64817,5,8,0:0:0:0:
157,36,64955,1,2,0:3:0:0:
256,317,65092,5,8,0:0:0:0:
328,87,65230,1,2,0:3:0:0:
427,368,65367,5,8,0:0:0:0:
499,138,65505,1,2,0:3:0:0:
499,138,65574,1,0,0:0:0:0:
499,138,65643,1,4,0:0:0:0:
498,137,66744,6,0,P|314:229|416:50,1,550
394,156,68326,1,0,0:0:0:0:
394,156,68395,5,8,0:0:0:0:
254,100,68533,1,8,0:0:0:0:
170,223,68670,1,8,0:0:0:0:
30,167,68808,1,4,0:0:0:0:
