osu file format v14

[General]
AudioFilename: nao - Toaru.mp3
AudioLeadIn: 0
PreviewTime: 50780
Countdown: 0
SampleSet: None
StackLeniency: 0.7
Mode: 0
LetterboxInBreaks: 0
WidescreenStoryboard: 1

[Editor]
DistanceSpacing: 1.8
BeatDivisor: 4
GridSize: 8
TimelineZoom: 1.4

[Metadata]
Title:Toaru Shoukoku no Ohimesama ga...
TitleUnicode:とある小国のお姫様が...
Artist:nao
ArtistUnicode:nao
Creator:Sotarks
Version:Insane
Source:姫様LOVEライフ!
Tags:Demetori Himesama Love Life Eroge Opening Atta koto mo nai Ani no Ie ni Yattekite Sumitsuita Jijou 会ったこともない兄の家にやってきて住みついた事情 Del05 Nozhomi HB24 Milan- MrSergio
BeatmapID:891442
BeatmapSetID:410742

[Difficulty]
HPDrainRate:5
CircleSize:4
OverallDifficulty:7
ApproachRate:9
SliderMultiplier:1.6
SliderTickRate:1

[Events]
//Background and Video events
0,0,"this_is_lame.jpg",0,0
//Break Periods
//Storyboard Layer 0 (Background)
//Storyboard Layer 1 (Fail)
//Storyboard Layer 2 (Pass)
//Storyboard Layer 3 (Foreground)
//Storyboard Sound Samples

[TimingPoints]
1790,275.229357798165,4,3,1,80,1,0
11560,-111.111111111111,4,3,1,70,0,0
15964,-100,4,3,1,80,0,0
20367,-111.111111111111,4,3,1,70,0,0
24771,-100,4,3,1,70,0,0
29312,-125,4,3,1,50,0,0
36881,-100,4,3,1,60,0,0
37432,-100,4,3,1,70,0,0
38120,-100,4,3,1,80,0,0
46927,-100,4,3,1,85,0,0
50780,-100,4,3,1,40,0,0
51193,-100,4,3,1,90,0,1
65643,-100,4,3,1,90,0,0
66193,-200,4,2,1,50,0,0
66675,-200,4,2,1,5,0,0
66744,-142.857142857143,4,2,1,70,0,0
68257,-142.857142857143,4,3,1,80,0,0
68808,-100,4,3,1,80,0,0
77615,-200,4,2,1,80,0,0
77753,-200,4,2,1,30,0,0
77890,-200,4,2,1,20,0,0
78028,-200,4,2,1,10,0,0

[Colours]
Combo1 : 255,242,83
Combo2 : 99,66,255
Combo3 : 131,255,108
Combo4 : 255,74,74
SliderTrackOverride : 24,32,88

[HitObjects]
140,72,1790,6,0,P|156:124|180:160,1,80,2|2,0:0|0:0,0:0:0:0:
160,237,2065,2,0,P|125:218|95:192,1,80,2|2,0:0|0:0,0:0:0:0:
278,186,2340,5,2,0:0:0:0:
220,80,2478,1,2,0:0:0:0:
340,88,2615,1,2,0:0:0:0:
407,273,2753,6,0,P|357:338|277:337,1,160,14|2,0:0|0:0,0:0:0:0:
278,186,3166,2,0,P|290:223|317:254,1,80,8|2,0:0|0:0,0:0:0:0:
453,181,3441,2,0,P|415:170|376:176,1,80,2|2,0:0|0:0,0:0:0:0:
312,28,3716,1,8,0:0:0:0:
376,176,3854,5,2,0:0:0:0:
240,96,3991,1,2,0:0:0:0:
414,80,4129,2,0,P|454:108|474:160,1,80,2|8,0:0|0:0,0:0:0:0:
217,173,4404,2,0,P|177:145|157:93,1,80,2|2,0:0|0:0,0:0:0:0:
136,104,4611,1,2,0:0:0:0:
136,124,4679,1,2,0:0:0:0:
136,144,4748,1,2,0:0:0:0:
136,164,4817,1,10,0:0:0:0:
244,308,4955,6,0,B|296:304|296:304|340:284|340:284|404:276,1,160,4|2,0:0|0:0,0:0:0:0:
264,224,5367,1,8,0:0:0:0:
384,352,5505,1,2,0:0:0:0:
348,192,5643,2,0,P|320:152|277:135,2,80,2|2|8,0:0|0:0|0:0,0:0:0:0:
156,304,6056,6,0,B|160:264|152:224|152:224|152:168|152:128,1,160,2|2,0:0|0:0,0:0:0:0:
61,189,6468,2,0,L|76:268,1,80,8|2,0:0|0:0,0:0:0:0:
232,176,6744,2,0,L|248:92,1,80,2|2,0:0|0:0,0:0:0:0:
246,97,6950,1,2,0:0:0:0:
246,97,7019,1,2,0:0:0:0:
430,222,7156,6,0,P|376:296|283:286,1,160,6|2,0:0|0:0,0:0:0:0:
339,133,7569,2,0,L|339:213,1,80,8|0,0:0|0:0,0:0:0:0:
246,97,7845,1,2,0:0:0:0:
120,204,7982,1,2,0:0:0:0:
248,204,8120,1,8,0:0:0:0:
119,113,8257,6,0,P|63:133|39:161,1,80,2|2,0:0|0:0,0:0:0:0:
248,297,8533,2,0,P|304:277|328:249,1,80,2|8,0:0|0:0,0:0:0:0:
248,204,8808,1,0,0:0:0:0:
160,260,8945,1,0,0:0:0:0:
160,280,9013,1,0,0:0:0:0:
160,300,9082,1,0,0:0:0:0:
160,320,9151,1,0,0:0:0:0:
160,340,9220,1,8,0:0:0:0:
336,184,9358,6,0,B|336:128|336:128|324:80|324:80|324:24,1,160,4|2,0:0|0:0,0:0:0:0:
249,156,9771,2,0,P|247:205|274:249,1,80,8|2,0:0|0:0,0:0:0:0:
384,300,10046,1,2,0:0:0:0:
336,184,10184,1,2,0:0:0:0:
288,304,10322,1,8,0:0:0:0:
422,222,10459,6,0,P|428:172|354:92,1,160,6|2,0:0|0:0,0:0:0:0:
214,136,10872,1,8,0:0:0:0:
336,184,11010,1,2,0:0:0:0:
265,59,11147,1,2,0:0:0:0:
236,45,11215,1,2,0:0:0:0:
204,42,11284,1,0,0:0:0:0:
173,50,11353,1,2,0:0:0:0:
147,69,11422,1,0,0:0:0:0:
68,248,11560,6,0,B|116:248|116:248|164:264|164:264|232:264,1,143.999995605469,6|0,0:0|0:0,0:0:0:0:
269,191,11973,2,0,P|244:256|289:339,1,143.999995605469,8|2,0:0|0:0,0:0:0:0:
334,257,12386,1,0,0:0:0:0:
332,120,12523,1,8,0:0:0:0:
180,180,12661,6,0,B|132:184|112:176|84:140|84:140|40:156,1,143.999995605469,0|0,0:0|0:0,0:0:0:0:
179,90,13074,2,0,P|220:96|264:200,1,143.999995605469,8|0,0:0|0:0,0:0:0:0:
224,304,13487,1,0,0:0:0:0:
224,304,13762,6,0,B|276:304|276:304|316:316|316:316|388:316,1,143.999995605469,4|2,0:0|0:0,0:0:0:0:
392,300,14106,1,0,0:0:0:0:
408,265,14175,2,0,P|390:199|324:182,1,143.999995605469,8|0,0:0|0:0,0:0:0:0:
224,100,14588,2,0,L|240:176,1,71.9999978027344,2|8,0:0|0:0,0:0:0:0:
435,147,14863,6,0,P|396:88|326:66,1,143.999995605469,2|2,0:0|0:0,0:0:0:0:
304,250,15276,2,0,P|312:206|332:174,1,71.9999978027344,8|2,0:0|0:0,0:0:0:0:
420,304,15551,1,10,0:0:0:0:
276,344,15689,1,10,0:0:0:0:
420,304,15826,1,8,0:0:0:0:
216,268,15964,6,0,P|176:268|88:176,1,160,4|2,0:0|0:0,0:0:0:0:
227,97,16377,2,0,P|217:135|192:166,1,80,8|0,0:0|0:0,0:0:0:0:
138,94,16652,1,2,0:0:0:0:
279,28,16789,2,0,L|367:28,1,80,2|8,0:0|0:0,0:0:0:0:
345,186,17065,6,0,B|345:132|345:132|359:77|359:77|359:23,1,160,2|0,0:0|0:0,0:0:0:0:
430,156,17478,2,0,P|430:216|402:252,1,80,8|0,0:0|0:0,0:0:0:0:
312,296,17753,1,2,0:0:0:0:
345,186,17890,1,2,0:0:0:0:
400,312,18028,1,8,0:0:0:0:
246,217,18166,6,0,P|249:150|319:86,1,160,2|0,0:0|0:0,0:0:0:0:
345,186,18578,2,0,P|348:235|331:278,1,80,8|0,0:0|0:0,0:0:0:0:
236,340,18854,1,2,0:0:0:0:
246,217,18991,1,0,0:0:0:0:
328,344,19129,2,0,L|416:344,1,80,8|0,0:0|0:0,0:0:0:0:
492,264,19404,2,0,L|404:264,1,80,2|2,0:0|0:0,0:0:0:0:
412,264,19611,1,2,0:0:0:0:
412,264,19679,1,8,0:0:0:0:
266,129,19817,6,0,P|208:133|156:234,2,160,0|0|4,0:0|0:0|0:0,0:0:0:0:
248,218,20643,5,2,0:0:0:0:
248,218,20712,1,0,0:0:0:0:
248,218,20780,2,0,L|412:220,1,143.999995605469,8|2,0:0|0:0,0:0:0:0:
432,120,21193,1,0,0:0:0:0:
344,60,21331,2,0,B|280:60|280:60|244:68|244:68|184:68,1,143.999995605469,8|0,0:0|0:0,0:0:0:0:
152,160,21744,1,0,0:0:0:0:
144,258,21881,2,0,P|186:300|290:305,1,143.999995605469,8|0,0:0|0:0,0:0:0:0:
247,217,22294,1,0,0:0:0:0:
247,217,22569,6,0,P|259:154|322:169,1,143.999995605469,2|0,0:0|0:0,0:0:0:0:
414,241,22982,2,0,L|434:319,1,71.9999978027344,8|0,0:0|0:0,0:0:0:0:
512,155,23257,2,0,L|492:233,2,71.9999978027344,2|0|8,0:0|0:0|0:0,0:0:0:0:
400,100,23670,2,0,P|368:76|264:84,1,143.999995605469,2|0,0:0|0:0,0:0:0:0:
322,169,24083,2,0,L|314:249,1,71.9999978027344,8|2,0:0|0:0,0:0:0:0:
224,324,24358,1,8,0:0:0:0:
360,324,24496,1,8,0:0:0:0:
228,236,24634,1,8,0:0:0:0:
421,198,24771,6,0,P|421:142|325:62,1,160,4|2,0:0|0:0,0:0:0:0:
242,169,25184,2,0,L|330:169,1,80,8|2,0:0|0:0,0:0:0:0:
260,68,25459,1,2,0:0:0:0:
260,68,25597,1,2,0:0:0:0:
316,252,25734,1,8,0:0:0:0:
184,108,25872,6,0,B|132:108|132:108|76:92|76:92|20:92,1,160,6|2,0:0|0:0,0:0:0:0:
72,256,26285,2,0,L|72:164,1,80,8|2,0:0|0:0,0:0:0:0:
148,32,26560,1,2,0:0:0:0:
148,32,26698,1,2,0:0:0:0:
228,176,26835,1,8,0:0:0:0:
336,59,26973,6,0,B|320:107|366:153|366:153|366:244,1,160,6|2,0:0|0:0,0:0:0:0:
468,130,27386,2,0,P|449:96|412:86,1,80,8|0,0:0|0:0,0:0:0:0:
280,176,27661,1,2,0:0:0:0:
280,176,27799,1,0,0:0:0:0:
456,216,27936,1,8,0:0:0:0:
336,59,28074,1,2,0:0:0:0:
366,208,28212,6,0,L|378:276,3,40,2|0|2|0,0:0|0:0|0:0|0:0,0:0:0:0:
280,260,28487,2,0,L|268:328,3,40,10|0|2|0,0:0|0:0|0:0|0:0,0:0:0:0:
280,176,28762,2,0,L|192:176,1,80,8|8,0:0|0:0,0:0:0:0:
80,256,29037,2,0,L|160:256,1,80,0|0,0:0|0:0,0:0:0:0:
280,176,29312,1,2,0:0:0:0:
304,64,29588,6,0,B|264:64|264:64|220:80|220:80|156:80,2,128,2|2|2,0:0|0:0|0:0,0:0:0:0:
305,248,30413,2,0,B|264:248|264:248|220:232|220:232|180:232,1,128,2|2,0:0|0:0,0:0:0:0:
388,160,30964,1,2,0:0:0:0:
176,152,31239,6,0,L|88:152,1,64,2|8,0:0|0:0,0:0:0:0:
360,160,31514,1,2,0:0:0:0:
360,160,31789,1,2,0:0:0:0:
360,160,32065,1,2,0:0:0:0:
360,160,32340,1,2,0:0:0:0:
296,280,32615,2,0,L|168:280,1,128,2|2,0:0|0:0,0:0:0:0:
240,68,33166,6,0,L|240:152,1,64,2|8,0:0|0:0,0:0:0:0:
136,200,33441,2,0,L|136:136,1,64,2|2,0:0|0:0,0:0:0:0:
136,120,33647,1,2,0:0:0:0:
136,104,33716,1,2,0:0:0:0:
352,164,33991,6,0,P|316:224|252:248,1,128,2|2,0:0|0:0,0:0:0:0:
294,91,34542,2,0,P|361:74|424:102,2,128,2|2|2,0:0|0:0|0:0,0:0:0:0:
391,234,35367,2,0,B|347:234|347:234|307:246|307:246|239:246,1,128,2|2,0:0|0:0,0:0:0:0:
136,88,35918,6,0,L|160:164,1,64,2|2,0:0|0:0,0:0:0:0:
92,212,36193,2,0,L|162:248,1,64,8|0,0:0|0:0,0:0:0:0:
240,88,36468,1,2,0:0:0:0:
240,244,36606,1,8,0:0:0:0:
240,244,36881,5,2,0:0:0:0:
240,244,36950,1,2,0:0:0:0:
240,244,37019,2,0,L|240:160,1,80,8|2,0:0|0:0,0:0:0:0:
344,248,37294,2,0,L|344:328,1,80,8|2,0:0|0:0,0:0:0:0:
204,328,37569,6,0,L|208:384,3,40,8|2|2|2,0:0|0:0|0:0|0:0,0:0:0:0:
120,280,37845,2,0,L|96:340,3,40,10|2|2|2,0:0|0:0|0:0|0:0,0:0:0:0:
109,243,38120,6,0,P|115:193|208:127,1,160,6|8,0:0|0:0,0:0:0:0:
278,260,38533,2,0,P|239:257|211:230,1,80,2|2,0:0|0:0,0:0:0:0:
289,100,38808,2,0,P|295:139|276:173,1,80,2|8,0:0|0:0,0:0:0:0:
216,48,39083,1,2,0:0:0:0:
356,172,39221,6,0,L|276:172,1,80,2|2,0:0|0:0,0:0:0:0:
116,128,39496,2,0,L|196:128,1,80,8|2,0:0|0:0,0:0:0:0:
360,92,39771,2,0,P|412:116|432:144,1,80,2|2,0:0|0:0,0:0:0:0:
428,300,40046,1,8,0:0:0:0:
356,172,40184,1,2,0:0:0:0:
468,228,40322,6,0,B|412:228|412:228|372:244|372:244|296:244,1,160,2|8,0:0|0:0,0:0:0:0:
176,168,40872,1,2,0:0:0:0:
311,244,41010,1,8,0:0:0:0:
205,65,41285,1,2,0:0:0:0:
205,65,41423,6,0,P|153:77|121:109,1,80,8|2,0:0|0:0,0:0:0:0:
239,272,41698,2,0,P|291:260|323:228,1,80,8|2,0:0|0:0,0:0:0:0:
128,212,41973,2,0,P|121:264|140:305,1,80,8|0,0:0|0:0,0:0:0:0:
316,120,42248,2,0,P|325:81|317:42,1,80,0|0,0:0|0:0,0:0:0:0:
228,168,42523,6,0,B|228:220|228:220|216:272|216:272|216:336,1,160,6|8,0:0|0:0,0:0:0:0:
316,200,43074,2,0,L|316:116,1,80,2|8,0:0|0:0,0:0:0:0:
128,56,43487,1,2,0:0:0:0:
128,56,43624,6,0,P|96:104|112:220,1,160,8|2,0:0|0:0,0:0:0:0:
189,294,44037,2,0,P|227:225|216:148,1,160,8|2,0:0|0:0,0:0:0:0:
101,202,44450,1,8,0:0:0:0:
300,204,44588,1,8,0:0:0:0:
111,109,44725,6,0,P|56:120|11:229,1,160,6|8,0:0|0:0,0:0:0:0:
180,201,45138,2,0,L|100:201,1,80,2|0,0:0|0:0,0:0:0:0:
144,284,45413,2,0,L|223:283,1,80,8|0,0:0|0:0,0:0:0:0:
312,192,45689,1,2,0:0:0:0:
312,192,45757,1,2,0:0:0:0:
312,192,45826,6,0,L|292:112,1,80,8|2,0:0|0:0,0:0:0:0:
416,48,46101,2,0,L|396:125,1,80,2|2,0:0|0:0,0:0:0:0:
396,125,46308,1,2,0:0:0:0:
396,125,46377,1,8,0:0:0:0:
352,276,46514,2,0,P|308:284|260:272,2,80,0|0|0,0:0|0:0|0:0,0:0:0:0:
208,80,46927,6,0,P|140:100|104:192,1,160,12|8,0:0|0:0,0:0:0:0:
164,284,47340,1,2,0:0:0:0:
274,171,47478,2,0,L|194:171,1,80,8|2,0:0|0:0,0:0:0:0:
328,84,47753,2,0,L|408:84,1,80,8|2,0:0|0:0,0:0:0:0:
392,260,48028,6,0,P|370:315|269:342,1,160,12|8,0:0|0:0,0:0:0:0:
164,284,48441,1,2,0:0:0:0:
304,176,48578,2,0,P|308:215|299:254,1,80,8|2,0:0|0:0,0:0:0:0:
171,77,48854,2,0,P|166:117|175:156,1,80,8|2,0:0|0:0,0:0:0:0:
356,80,49129,6,0,P|398:121|396:225,1,160,12|2,0:0|0:0,0:0:0:0:
126,215,49542,2,0,P|120:137|171:78,1,160,12|2,0:0|0:0,0:0:0:0:
264,224,49955,2,0,L|264:304,1,80,8|0,0:0|0:0,0:0:0:0:
264,80,50230,1,8,0:0:0:0:
372,260,50780,6,0,P|423:270|465:251,2,80,0|0|0,0:0|0:0|0:0,0:0:0:0:
373,104,51193,6,0,B|389:88|405:68|405:68|412:180,1,160,6|2,0:0|0:0,0:0:0:0:
292,36,51606,1,8,0:0:0:0:
312,212,51744,2,0,P|356:268|464:276,1,160,2|2,0:0|0:0,0:0:0:0:
373,104,52156,1,8,0:0:0:0:
220,216,52294,6,0,P|236:264|288:300,1,80,2|0,0:0|0:0,0:0:0:0:
268,140,52569,2,0,P|219:125|160:147,1,80,2|8,0:0|0:0,0:0:0:0:
312,212,52845,2,0,P|349:225|388:221,1,80,2|0,0:0|0:0,0:0:0:0:
393,78,53120,2,0,P|368:109|360:148,1,80,2|8,0:0|0:0,0:0:0:0:
457,296,53395,6,0,P|489:224|461:152,1,160,4|2,0:0|0:0,0:0:0:0:
312,212,53808,2,0,P|349:225|388:221,1,80,8|2,0:0|0:0,0:0:0:0:
360,147,54083,1,2,0:0:0:0:
360,147,54221,1,2,0:0:0:0:
328,308,54358,1,8,0:0:0:0:
212,196,54496,1,2,0:0:0:0:
392,240,54634,6,0,P|418:295|380:384,2,160,8|8|8,0:0|0:0|0:0,0:0:0:0:
328,308,55322,1,0,0:0:0:0:
485,260,55459,1,0,0:0:0:0:
315,221,55597,6,0,B|315:157|315:157|327:113|327:113|327:57,1,160,6|2,0:0|0:0,0:0:0:0:
460,172,56010,1,8,0:0:0:0:
228,214,56147,2,0,P|235:262|348:303,1,160,2|2,0:0|0:0,0:0:0:0:
364,144,56560,1,8,0:0:0:0:
136,218,56698,6,0,P|152:266|204:302,1,80,2|0,0:0|0:0,0:0:0:0:
184,142,56973,2,0,P|135:127|76:149,1,80,2|8,0:0|0:0,0:0:0:0:
228,214,57249,2,0,P|265:227|304:223,1,80,2|0,0:0|0:0,0:0:0:0:
309,80,57524,2,0,P|284:111|276:150,1,80,2|8,0:0|0:0,0:0:0:0:
383,286,57799,6,0,P|402:210|363:143,1,160,6|2,0:0|0:0,0:0:0:0:
228,214,58212,2,0,P|265:227|304:223,1,80,8|2,0:0|0:0,0:0:0:0:
276,149,58487,1,2,0:0:0:0:
384,284,58624,1,2,0:0:0:0:
362,142,58762,1,8,0:0:0:0:
240,292,58900,6,0,B|192:296|192:296|118:211,1,160,2|2,0:0|0:0,0:0:0:0:
65,124,59312,2,0,P|109:108|161:120,1,80,8|2,0:0|0:0,0:0:0:0:
336,68,59588,1,8,0:0:0:0:
236,176,59725,1,8,0:0:0:0:
236,20,59863,1,8,0:0:0:0:
337,157,60001,6,0,P|332:216|244:276,1,160,6|2,0:0|0:0,0:0:0:0:
275,108,60413,2,0,P|325:78|412:133,1,160,8|2,0:0|0:0,0:0:0:0:
474,252,60826,1,2,0:0:0:0:
337,157,60964,1,8,0:0:0:0:
324,315,61101,6,0,B|324:259|324:259|337:210|337:210|337:154,1,160,2|2,0:0|0:0,0:0:0:0:
87,250,61514,2,0,B|139:252|161:227|161:227|190:259|236:253,1,160,8|2,0:0|0:0,0:0:0:0:
224,164,61927,1,2,0:0:0:0:
158,312,62065,1,8,0:0:0:0:
136,146,62202,6,0,P|165:96|271:83,1,160,6|2,0:0|0:0,0:0:0:0:
158,312,62615,1,8,0:0:0:0:
379,180,62753,6,0,B|311:153|311:153|275:163|226:164,1,160,6|2,0:0|0:0,0:0:0:0:
158,312,63166,1,8,0:0:0:0:
378,259,63303,6,0,P|429:241|448:142,1,160,6|2,0:0|0:0,0:0:0:0:
379,180,63716,2,0,P|335:188|291:176,1,80,8|2,0:0|0:0,0:0:0:0:
264,92,63991,2,0,P|220:84|176:96,1,80,2|2,0:0|0:0,0:0:0:0:
96,176,64267,1,8,0:0:0:0:
203,326,64404,6,0,B|267:326|267:326|367:282,1,160,4|2,0:0|0:0,0:0:0:0:
226,175,64817,2,0,L|250:267,1,80,8|2,0:0|0:0,0:0:0:0:
328,144,65092,2,0,L|304:48,1,80,8|2,0:0|0:0,0:0:0:0:
401,222,65367,2,0,L|345:299,1,80,8|2,0:0|0:0,0:0:0:0:
236,84,65643,5,12,0:0:0:0:
236,84,66193,2,0,P|176:84|184:152,1,140,0|0,0:0|0:0,0:0:0:0:
180,168,66744,6,0,L|176:232,1,55.9999982910157,2|0,0:0|0:0,0:0:0:0:
252,216,67019,2,0,L|276:284,1,55.9999982910157,2|0,0:0|0:0,0:0:0:0:
336,224,67294,2,0,L|398:260,1,55.9999982910157,2|0,0:0|0:0,0:0:0:0:
412,184,67569,2,0,L|472:184,1,55.9999982910157,2|0,0:0|0:0,0:0:0:0:
460,292,67845,6,0,P|432:324|400:336,1,55.9999982910157,2|0,0:0|0:0,0:0:0:0:
336,344,68120,2,0,P|293:347|264:344,1,55.9999982910157,2|2,0:0|0:0,0:0:0:0:
280,346,68326,1,2,0:0:0:0:
280,346,68395,1,8,0:0:0:0:
200,276,68533,1,8,0:0:0:0:
280,172,68670,1,8,0:0:0:0:
200,64,68808,6,0,B|104:64|104:64|40:96,1,160,4|2,0:0|0:0,0:0:0:0:
16,216,69221,2,0,L|96:216,1,80,8|2,0:0|0:0,0:0:0:0:
260,148,69496,2,0,L|176:148,1,80,2|2,0:0|0:0,0:0:0:0:
152,276,69771,1,8,0:0:0:0:
315,221,69909,6,0,P|341:192|351:153,1,80,2|0,0:0|0:0,0:0:0:0:
296,79,70184,2,0,P|264:123|260:159,1,80,2|0,0:2|0:2,0:0:0:0:
404,225,70459,2,0,P|430:195|441:157,1,80,2|2,0:0|0:0,0:0:0:0:
476,140,70666,1,2,0:0:0:0:
476,160,70734,1,2,0:0:0:0:
476,180,70803,1,2,0:0:0:0:
476,200,70872,1,8,0:0:0:0:
335,287,71010,6,0,B|275:287|275:287|175:239,1,160,6|2,0:0|0:0,0:0:0:0:
192,152,71423,2,0,L|280:200,1,80,8|2,0:0|0:0,0:0:0:0:
360,148,71698,2,0,P|362:108|355:69,1,80,2|2,0:0|0:0,0:0:0:0:
224,36,71973,1,8,0:0:0:0:
103,131,72111,6,0,P|103:175|190:245,1,160,2|2,0:0|0:0,0:0:0:0:
262,190,72523,2,0,P|271:236|263:283,1,80,8|2,0:0|0:0,0:0:0:0:
359,326,72799,2,0,P|355:286|364:247,1,80,2|2,0:0|0:0,0:0:0:0:
364,247,73005,1,2,0:0:0:0:
364,247,73074,1,8,0:0:0:0:
456,92,73212,6,0,B|456:192|456:192|456:192|432:276,1,160,4|2,0:0|0:0,0:0:0:0:
378,92,73624,2,0,P|390:48|435:18,1,80,8|2,0:0|0:0,0:0:0:0:
492,168,73900,1,2,0:0:0:0:
364,192,74037,1,2,0:0:0:0:
456,92,74175,1,8,0:0:0:0:
440,248,74312,6,0,P|392:284|348:284,1,80,2|0,0:0|0:0,0:0:0:0:
287,140,74588,2,0,P|335:104|379:104,1,80,2|8,0:0|0:0,0:0:0:0:
368,188,74863,2,0,L|275:242,1,80,2|2,0:0|0:0,0:0:0:0:
284,240,75069,1,2,0:0:0:0:
281,259,75138,1,2,0:0:0:0:
278,275,75207,1,2,0:0:0:0:
276,291,75276,1,8,0:0:0:0:
52,152,75413,6,0,B|104:136|104:136|184:52,1,160,4|2,0:0|0:0,0:0:0:0:
168,196,75826,2,0,L|144:280,1,80,8|2,0:0|0:0,0:0:0:0:
264,320,76101,1,2,0:0:0:0:
264,320,76239,1,2,0:0:0:0:
368,248,76377,1,8,0:0:0:0:
334,69,76514,6,0,B|274:53|274:53|150:61,1,160,4|2,0:0|0:0,0:0:0:0:
296,152,76927,2,0,P|348:160|388:144,1,80,8|10,0:0|0:0,0:0:0:0:
373,152,77134,1,8,0:0:0:0:
373,152,77202,1,8,0:0:0:0:
440,48,77340,1,10,0:0:0:0:
440,216,77478,1,10,0:0:0:0:
334,69,77615,6,0,B|286:53|238:85|238:85|190:53|126:69,1,200,0|0,0:0|0:0,0:0:0:0:
