osu file format v14

[General]
AudioFilename: audio.mp3
AudioLeadIn: 0
PreviewTime: 50711
Countdown: 0
SampleSet: Normal
StackLeniency: 0.7
Mode: 1
LetterboxInBreaks: 0
WidescreenStoryboard: 1

[Editor]
Bookmarks: 1790,2753,11560,20367,29312,38120,46927,51193,60001,66744,67842,68661,68808,77615
DistanceSpacing: 2.6
BeatDivisor: 4
GridSize: 32
TimelineZoom: 3.099999

[Metadata]
Title:Toaru Shoukoku no Ohimesama ga...
TitleUnicode:とある小国のお姫様が...
Artist:nao
ArtistUnicode:nao
Creator:Slyme
Version:Kantan
Source:姫様LOVEライフ!
Tags:innocent prelude. とある小国のお姫様が、会ったこともない兄の家にやってきて住みついた事情。 Toaru Shoukoku no Ohimesama ga, Atta koto mo nai Ani no Ie ni yattekite Sumitsuita Jijou. demetori 寺前甲 maya 山下慎一狼 princess sugar himesama love life eroge visual novel op opening short ver version video game japanese metal rock jrock j-rock mari_0hara mari 0hara
BeatmapID:4270105
BeatmapSetID:2045670

[Difficulty]
HPDrainRate:8
CircleSize:5
OverallDifficulty:3
ApproachRate:5
SliderMultiplier:1.4
SliderTickRate:1

[Events]
//Background and Video events
0,0,"BG4.jpg",0,40
//Break Periods
//Storyboard Layer 0 (Background)
//Storyboard Layer 1 (Fail)
//Storyboard Layer 2 (Pass)
//Storyboard Layer 3 (Foreground)
//Storyboard Layer 4 (Overlay)
//Storyboard Sound Samples

[TimingPoints]
1791,275.229357798165,4,1,0,70,1,0
1888,-100,4,1,0,68,0,0
2026,-100,4,1,0,67,0,0
2163,-100,4,1,0,65,0,0
2301,-100,4,1,0,63,0,0
2439,-100,4,1,0,62,0,0
2576,-100,4,1,0,60,0,0
2714,-100,4,1,0,80,0,0
2891,275.229357798165,4,1,0,80,1,0
7117,-100,4,1,0,90,0,0
7409,-100,4,1,0,80,0,0
9318,-100,4,1,0,90,0,0
9611,-100,4,1,0,80,0,0
10419,-100,4,1,0,90,0,0
10695,-100,4,1,0,80,0,0
11520,-100,4,1,0,90,0,0
11933,-100,4,1,0,60,0,0
13722,-100,4,1,0,80,0,0
13997,-100,4,1,0,60,0,0
15253,-100,4,1,0,58,0,0
15373,-100,4,1,0,56,0,0
15511,-100,4,1,0,54,0,0
15666,-100,4,1,0,52,0,0
15786,-100,4,1,0,50,0,0
15941,-100,4,1,0,80,0,0
18143,-100,4,1,0,90,0,0
18401,-100,4,1,0,80,0,0
19364,-100,4,1,0,83,0,0
19433,-100,4,1,0,84,0,0
19519,-100,4,1,0,85,0,0
19639,-100,4,1,0,87,0,0
19777,-100,4,1,0,90,0,0
20052,-100,4,1,0,80,0,0
20328,-100,4,1,0,90,0,0
20620,-100,4,1,0,60,0,0
22529,-100,4,1,0,80,0,0
22822,-100,4,1,0,60,0,0
24043,-100,4,1,0,58,0,0
24198,-100,4,1,0,56,0,0
24318,-100,4,1,0,54,0,0
24456,-100,4,1,0,52,0,0
24611,-100,4,1,0,50,0,0
24731,-100,4,1,0,80,0,0
26933,-100,4,1,0,90,0,0
27208,-100,4,1,0,80,0,0
27346,-100,4,1,0,78,0,0
27432,-100,4,1,0,77,0,0
27484,-100,4,1,0,76,0,0
27621,-100,4,1,0,74,0,0
27776,-100,4,1,0,72,0,0
27896,-100,4,1,0,70,0,0
28034,-100,4,1,0,68,0,0
28189,-100,4,1,0,66,0,0
28240,-100,4,1,0,65,0,0
28309,-100,4,1,0,64,0,0
28464,-100,4,1,0,62,0,0
28533,-100,4,1,0,61,0,0
28584,-100,4,1,0,60,0,0
28722,-100,4,1,0,58,0,0
28877,-100,4,1,0,56,0,0
28997,-100,4,1,0,54,0,0
29135,-100,4,1,0,52,0,0
29273,-100,4,1,0,50,0,0
35878,-100,4,1,0,70,0,0
36033,-100,4,1,0,71,0,0
36153,-100,4,1,0,72,0,0
36428,-100,4,1,0,73,0,0
36566,-100,4,1,0,74,0,0
36721,-100,4,1,0,75,0,0
36841,-100,4,1,0,76,0,0
36979,-100,4,1,0,77,0,0
37117,-100,4,1,0,78,0,0
37529,-100,4,1,0,80,0,0
37598,-100,4,1,0,77,0,0
37667,-100,4,1,0,74,0,0
37822,-100,4,1,0,69,0,0
37873,-100,4,1,0,66,0,0
37942,-100,4,1,0,63,0,0
38097,-100,4,1,0,80,0,0
38355,-100,4,1,0,70,0,0
40299,-100,4,1,0,80,0,0
40557,-100,4,1,0,70,0,0
40695,-100,4,1,0,69,0,0
40987,-100,4,1,0,68,0,0
41245,-100,4,1,0,66,0,0
41520,-100,4,1,0,65,0,0
41675,-100,4,1,0,64,0,0
41933,-100,4,1,0,63,0,0
42088,-100,4,1,0,62,0,0
42208,-100,4,1,0,61,0,0
42484,-100,4,1,0,70,0,0
42776,-100,4,1,0,60,0,0
44685,-100,4,1,0,80,0,0
44978,-100,4,1,0,60,0,0
45786,-100,4,1,0,62,0,0
45941,-100,4,1,0,64,0,0
46062,-100,4,1,0,67,0,0
46130,-100,4,1,0,68,0,0
46199,-100,4,1,0,69,0,0
46354,-100,4,1,0,71,0,0
46474,-100,4,1,0,73,0,0
46612,-100,4,1,0,76,0,0
46750,-100,4,1,0,78,0,0
46887,-100,4,1,0,80,0,0
48951,-100,4,1,0,85,0,0
49089,-100,4,1,0,90,0,0
50740,-100,4,1,0,60,0,0
51193,-100,4,1,0,90,0,1
66744,-100,4,1,0,90,0,0
68217,-100,4,1,0,80,0,0
68286,-100,4,1,0,78,0,0
68355,-100,4,1,0,77,0,0
68510,-100,4,1,0,73,0,0
68630,-100,4,1,0,70,0,0
68768,-100,4,1,0,80,0,0

[HitObjects]
448,320,2754,5,12,1:0:0:0:
256,192,3166,1,0,1:0:0:0:
256,192,3441,1,8,1:0:0:0:
256,192,3854,1,0,1:0:0:0:
256,192,4129,1,8,1:0:0:0:
256,192,4542,1,0,1:0:0:0:
256,192,4955,1,8,1:0:0:0:
256,192,5368,1,8,1:0:0:0:
256,192,5643,1,0,1:0:0:0:
256,192,6056,1,8,1:0:0:0:
448,320,7157,1,12,1:0:0:0:
256,192,7569,1,0,1:0:0:0:
256,192,7845,1,8,1:0:0:0:
256,192,8257,1,8,1:0:0:0:
256,192,8533,1,0,1:0:0:0:
256,192,8946,1,8,1:0:0:0:
64,320,9358,1,4,1:0:0:0:
256,192,9771,1,8,1:0:0:0:
256,192,10046,1,0,1:0:0:0:
448,320,10459,1,12,1:0:0:0:
64,320,11560,1,4,1:0:0:0:
256,192,11973,1,8,1:0:0:0:
256,192,12661,1,0,1:0:0:0:
256,192,13487,1,8,1:0:0:0:
64,320,13762,1,4,1:0:0:0:
256,192,14175,1,8,1:0:0:0:
256,192,14863,1,0,1:0:0:0:
256,192,15276,1,8,1:0:0:0:
256,192,15551,1,0,1:0:0:0:
448,320,15964,1,12,1:0:0:0:
256,192,16377,1,0,1:0:0:0:
256,192,16790,1,0,1:0:0:0:
256,192,17065,1,8,1:0:0:0:
256,192,17478,1,0,1:0:0:0:
256,192,17890,1,8,1:0:0:0:
64,320,18166,1,4,1:0:0:0:
256,192,18579,1,8,1:0:0:0:
256,192,18991,1,0,1:0:0:0:
256,192,19267,1,8,1:0:0:0:
64,320,20368,1,4,1:0:0:0:
256,192,20780,1,8,1:0:0:0:
256,192,21468,1,0,1:0:0:0:
256,192,22294,1,8,1:0:0:0:
64,320,22569,1,4,1:0:0:0:
256,192,22982,1,8,1:0:0:0:
256,192,23670,1,0,1:0:0:0:
256,192,24083,1,8,1:0:0:0:
256,192,24358,1,0,1:0:0:0:
448,320,24771,1,12,1:0:0:0:
256,192,25184,1,0,1:0:0:0:
256,192,25597,1,0,1:0:0:0:
256,192,25872,1,8,1:0:0:0:
256,192,26285,1,0,1:0:0:0:
256,192,26698,1,8,1:0:0:0:
64,320,26973,1,4,1:0:0:0:
256,192,27386,1,0,1:0:0:0:
256,192,27661,1,8,1:0:0:0:
256,192,28212,1,0,1:0:0:0:
256,192,28762,1,8,1:0:0:0:
256,192,29313,1,0,1:0:0:0:
256,192,30413,1,0,1:0:0:0:
256,192,30964,1,8,1:0:0:0:
256,192,31514,1,0,1:0:0:0:
256,192,32065,1,0,1:0:0:0:
256,192,32615,1,8,1:0:0:0:
64,320,33716,1,4,1:0:0:0:
256,192,34817,1,8,1:0:0:0:
256,192,35368,1,0,1:0:0:0:
448,320,35918,1,12,1:0:0:0:
256,192,36468,1,0,1:0:0:0:
256,192,37019,1,8,1:0:0:0:
64,320,38120,1,4,1:0:0:0:
256,192,38395,1,8,1:0:0:0:
256,192,38670,1,0,1:0:0:0:
256,192,39221,1,8,1:0:0:0:
256,192,39496,1,8,1:0:0:0:
256,192,39771,1,0,1:0:0:0:
448,320,40322,1,12,1:0:0:0:
256,192,40872,1,0,1:0:0:0:
256,192,41423,1,8,1:0:0:0:
256,192,41973,1,8,1:0:0:0:
256,192,42248,1,0,1:0:0:0:
448,320,42524,1,12,1:0:0:0:
256,192,43624,1,8,1:0:0:0:
256,192,44037,1,0,1:0:0:0:
256,192,44450,1,8,1:0:0:0:
64,320,44725,1,4,1:0:0:0:
256,192,45826,1,0,1:0:0:0:
256,192,46239,1,8,1:0:0:0:
256,192,46652,1,0,1:0:0:0:
448,320,46927,1,12,1:0:0:0:
256,192,47478,1,8,1:0:0:0:
256,192,47753,1,0,1:0:0:0:
256,192,48028,1,8,1:0:0:0:
256,192,48579,1,0,1:0:0:0:
256,192,48854,1,8,1:0:0:0:
64,320,49129,1,4,1:0:0:0:
448,320,49542,1,12,1:0:0:0:
64,320,49955,1,4,1:0:0:0:
448,320,50230,1,12,1:0:0:0:
448,320,51193,1,12,1:0:0:0:
256,192,51468,1,0,1:0:0:0:
256,192,51744,1,8,1:0:0:0:
256,192,52294,1,0,1:0:0:0:
256,192,52569,1,0,1:0:0:0:
256,192,52845,1,8,1:0:0:0:
256,192,53395,1,0,1:0:0:0:
256,192,53808,1,8,1:0:0:0:
256,192,54083,1,0,1:0:0:0:
448,320,54634,1,12,1:0:0:0:
448,320,55597,1,12,1:0:0:0:
256,192,55872,1,8,1:0:0:0:
256,192,56147,1,0,1:0:0:0:
256,192,56698,1,0,1:0:0:0:
256,192,56973,1,0,1:0:0:0:
256,192,57248,1,8,1:0:0:0:
256,192,57799,1,0,1:0:0:0:
256,192,58212,1,8,1:0:0:0:
256,192,58487,1,0,1:0:0:0:
256,192,58900,1,12,1:0:0:0:
64,320,60001,1,4,1:0:0:0:
256,192,60413,1,8,1:0:0:0:
256,192,60689,1,0,1:0:0:0:
256,192,61102,1,8,1:0:0:0:
256,192,61514,1,0,1:0:0:0:
256,192,61790,1,8,1:0:0:0:
64,320,62202,1,4,1:0:0:0:
256,192,62478,1,8,1:0:0:0:
448,320,62753,1,12,1:0:0:0:
256,192,63028,1,0,1:0:0:0:
448,320,63303,1,12,1:0:0:0:
256,192,63991,1,0,1:0:0:0:
448,320,64404,1,12,1:0:0:0:
256,192,65092,1,8,1:0:0:0:
256,192,65368,1,8,1:0:0:0:
64,320,65643,1,4,1:0:0:0:
448,320,66744,1,12,1:0:0:0:
256,192,67019,12,0,68533,0:0:0:0:
448,320,68808,5,12,1:0:0:0:
256,192,69221,1,0,1:0:0:0:
256,192,69496,1,8,1:0:0:0:
256,192,69909,1,0,1:0:0:0:
256,192,70184,1,8,1:0:0:0:
256,192,70597,1,0,1:0:0:0:
256,192,71010,1,8,1:0:0:0:
256,192,71423,1,8,1:0:0:0:
256,192,71698,1,0,1:0:0:0:
256,192,72111,1,8,1:0:0:0:
448,320,73212,1,12,1:0:0:0:
256,192,73624,1,0,1:0:0:0:
256,192,73900,1,8,1:0:0:0:
256,192,74313,1,8,1:0:0:0:
256,192,74588,1,0,1:0:0:0:
256,192,75001,1,8,1:0:0:0:
64,320,75413,1,4,1:0:0:0:
256,192,75826,1,8,1:0:0:0:
256,192,76102,1,0,1:0:0:0:
448,320,76514,1,12,1:0:0:0:
64,320,77615,1,4,1:0:0:0:
