osu file format v14

[General]
AudioFilename: audio.mp3
AudioLeadIn: 0
PreviewTime: 50712
Countdown: 0
SampleSet: Soft
StackLeniency: 0.7
Mode: 0
LetterboxInBreaks: 0
WidescreenStoryboard: 1

[Editor]
Bookmarks: 38120,68808
DistanceSpacing: 2.6
BeatDivisor: 8
GridSize: 32
TimelineZoom: 3.799998

[Metadata]
Title:Toaru Shoukoku no Ohimesama ga...
TitleUnicode:とある小国のお姫様が...
Artist:nao
ArtistUnicode:nao
Creator:Enneya
Version:Princess and... Me?!
Source:姫様LOVEライフ!
Tags:een persoon aakki finnish bn dahkjdas zekk silky fuyuyu- mamayu kanau wanpachi innocent prelude. とある小国のお姫様が、会ったこともない兄の家にやってきて住みついた事情。 Toaru Shoukoku no Ohimesama ga, Atta koto mo nai Ani no Ie ni yattekite Sumitsuita Jijou. demetori 寺前甲 maya 山下慎一狼 princess sugar himesama love life eroge visual novel op opening video game japanese metal rock jrock j-rock
BeatmapID:3722146
BeatmapSetID:1814394

[Difficulty]
HPDrainRate:5
CircleSize:4
OverallDifficulty:8.4
ApproachRate:9.4
SliderMultiplier:1.6
SliderTickRate:1

[Events]
//Background and Video events
0,0,"bg.jpg",0,0
//Break Periods
//Storyboard Layer 0 (Background)
//Storyboard Layer 1 (Fail)
//Storyboard Layer 2 (Pass)
//Storyboard Layer 3 (Foreground)
//Storyboard Layer 4 (Overlay)
//Storyboard Sound Samples

[TimingPoints]
1790,275.229357798165,4,2,1,80,1,0
2753,-90.9090909090909,4,2,1,80,0,0
11560,-111.111111111111,4,2,1,80,0,0
11835,-111.111111111111,4,2,1,60,0,0
13349,-111.111111111111,4,2,1,80,0,0
14037,-111.111111111111,4,2,1,60,0,0
15964,-100,4,2,1,80,0,0
20367,-111.111111111111,4,2,1,80,0,0
20643,-111.111111111111,4,2,1,60,0,0
22156,-111.111111111111,4,2,1,80,0,0
22845,-111.111111111111,4,2,1,60,0,0
24771,-83.3333333333333,4,2,1,80,0,0
25459,-100,4,2,1,80,0,0
29312,-100,4,2,1,60,0,0
38120,-100,4,2,1,80,0,0
51193,-90.9090909090909,4,2,1,85,0,1
63303,-76.9230769230769,4,2,1,85,0,1
63716,-90.9090909090909,4,2,1,85,0,1
65643,-90.9090909090909,4,2,1,85,0,0
65780,-90.9090909090909,4,2,1,60,0,0
66193,-166.666666666667,4,2,1,60,0,0
66744,-125,4,2,1,70,0,0

[Colours]
Combo1 : 17,254,176
Combo2 : 173,255,95
Combo3 : 255,88,100
Combo4 : 255,94,55

[HitObjects]
228,171,2753,6,0,P|328:181|418:195,1,176.000005371094,6|2,1:2|1:2,0:0:0:0:
147,84,3166,2,0,P|108:91|51:96,1,88.000002685547,10|2,0:0|0:0,0:0:0:0:
85,288,3441,2,0,P|124:281|181:276,1,88.000002685547,2|2,1:2|1:2,0:0:0:0:
4,201,3716,1,10,0:0:0:0:
245,365,3854,6,0,P|282:286|256:201,1,176.000005371094,2|2,1:2|1:2,0:0:0:0:
375,24,4267,1,8,0:0:0:0:
403,192,4404,1,2,0:0:0:0:
211,89,4542,1,2,1:2:0:0:
254,92,4610,1,2,0:0:0:0:
298,97,4679,1,2,1:2:0:0:
342,103,4748,1,2,0:0:0:0:
385,110,4817,1,10,0:0:0:0:
512,328,4955,6,0,B|414:316|435:368|343:359,1,176.000005371094,2|2,1:2|1:2,0:0:0:0:
222,172,5367,1,10,0:0:0:0:
332,185,5505,1,2,0:0:0:0:
200,364,5643,1,2,1:2:0:0:
156,262,5781,1,2,1:2:0:0:
266,275,5918,1,10,0:0:0:0:
89,358,6056,6,0,P|100:272|110:183,1,176.000005371094,2|2,1:2|1:2,0:0:0:0:
30,15,6468,2,0,P|26:57|17:118,1,88.000002685547,10|2,0:0|1:2,0:0:0:0:
187,81,6744,1,2,1:2:0:0:
226,100,6812,1,2,0:0:0:0:
269,104,6881,1,2,1:2:0:0:
311,90,6950,1,2,0:0:0:0:
344,62,7019,2,0,L|336:-1,1,44.0000013427735,10|0,0:0|0:0,0:0:0:0:
506,261,7156,6,0,P|482:222|350:222,1,176.000005371094,6|2,1:2|1:2,0:0:0:0:
163,259,7569,2,0,P|170:220|175:163,1,88.000002685547,10|2,0:0|0:0,0:0:0:0:
290,353,7845,2,0,P|329:346|386:341,1,88.000002685547,2|2,1:2|1:2,0:0:0:0:
151,379,8120,1,10,0:0:0:0:
266,138,8257,6,0,P|270:181|277:225,1,88.000002685547,2|0,1:2|0:0,0:0:0:0:
335,19,8533,1,2,1:2:0:0:
161,77,8670,2,0,P|122:70|65:65,1,88.000002685547,8|2,0:0|0:0,0:0:0:0:
372,165,8945,1,2,1:2:0:0:
404,160,9014,1,2,0:0:0:0:
437,156,9083,1,2,1:2:0:0:
470,152,9152,1,2,0:0:0:0:
503,150,9220,1,10,0:0:0:0:
187,353,9358,6,0,P|150:274|176:189,1,176.000005371094,2|2,1:2|1:2,0:0:0:0:
329,92,9771,1,10,0:0:0:0:
285,194,9909,1,2,0:0:0:0:
153,15,10047,1,2,1:2:0:0:
263,2,10185,1,2,1:2:0:0:
174,192,10322,1,10,0:0:0:0:
387,369,10459,6,0,P|397:275|409:195,1,176.000005371094,6|2,1:2|1:2,0:0:0:0:
125,369,10872,2,0,P|120:321|114:281,1,88.000002685547,10|2,0:0|1:2,0:0:0:0:
278,17,11147,5,10,0:0:0:0:
271,60,11215,1,10,0:0:0:0:
265,104,11284,1,10,0:3:0:0:
260,147,11353,1,10,0:3:0:0:
255,191,11423,1,6,0:3:0:0:
250,235,11492,1,4,0:3:0:0:
245,279,11560,6,0,P|349:272|396:366,1,215.999993408203,6|8,1:2|0:0,0:0:0:0:
406,350,12523,1,8,0:0:0:0:
416,340,13074,1,8,0:0:0:0:
426,330,13349,5,0,1:2:0:0:
234,365,13487,1,10,0:0:0:0:
338,20,13762,6,0,P|324:106|310:242,1,215.999993408203,6|8,1:2|0:0,0:0:0:0:
299,225,14725,1,8,0:0:0:0:
289,215,15138,5,0,1:2:0:0:
168,258,15276,2,0,P|122:251|72:246,1,71.9999978027344,8|0,0:0|1:2,0:0:0:0:
265,20,15551,5,10,0:0:0:0:
265,20,15689,1,10,0:0:0:0:
265,20,15826,1,10,0:0:0:0:
0,98,15964,6,0,B|89:88|72:135|158:127,1,160,6|0,1:2|1:2,0:0:0:0:
289,215,16377,2,0,P|283:177|279:135,1,80,8|0,0:0|0:0,0:0:0:0:
279,135,16652,1,0,1:2:0:0:
106,327,16789,2,0,P|101:287|96:247,1,80,0|8,1:2|0:0,0:0:0:0:
251,362,17065,6,0,P|321:328|397:352,1,160,2|0,1:2|1:2,0:0:0:0:
491,181,17478,1,8,0:0:0:0:
395,204,17615,1,0,1:2:0:0:
395,204,17753,1,0,1:2:0:0:
495,362,17890,2,0,P|500:322|505:282,1,80,0|8,1:2|0:0,0:0:0:0:
364,74,18166,6,0,P|286:87|193:94,1,160,2|0,1:2|1:2,0:0:0:0:
55,106,18578,2,0,P|61:68|65:26,1,80,8|0,0:0|0:0,0:0:0:0:
65,26,18854,1,0,1:2:0:0:
193,182,18991,1,0,1:2:0:0:
42,360,19129,2,0,P|39:320|33:281,1,80,8|2,0:0|1:2,0:0:0:0:
318,196,19404,5,8,0:0:0:0:
357,203,19472,1,8,0:0:0:0:
396,209,19541,1,8,0:3:0:0:
436,213,19610,1,8,0:3:0:0:
476,215,19679,1,8,0:0:0:0:
179,307,19817,5,2,1:2:0:0:
486,205,20092,1,2,1:2:0:0:
142,0,20367,6,0,P|156:86|170:222,1,215.999993408203,6|8,1:2|0:0,0:0:0:0:
159,224,21330,1,8,0:0:0:0:
149,234,21881,1,8,0:0:0:0:
139,244,22156,5,0,1:2:0:0:
13,95,22294,1,10,0:0:0:0:
400,38,22569,6,0,P|350:127|248:119,1,215.999993408203,6|8,1:2|0:0,0:0:0:0:
258,109,23533,1,8,0:0:0:0:
268,99,23946,5,0,1:2:0:0:
268,99,24014,1,0,1:2:0:0:
268,99,24084,2,0,P|303:103|339:108,1,71.9999978027344,8|0,0:0|1:2,0:0:0:0:
139,244,24358,5,10,0:0:0:0:
139,244,24496,1,10,0:0:0:0:
139,244,24634,1,10,0:0:0:0:
491,343,24771,6,2,P|411:250|357:359,1,287.999991210938,6|8,1:2|0:0,0:1:0:0:
356,358,25459,5,0,1:2:0:0:
474,243,25597,2,0,P|468:205|464:163,1,80,0|8,1:2|0:0,0:0:0:0:
247,378,25872,6,0,P|240:298|227:219,1,160,2|0,1:2|1:2,0:0:0:0:
342,73,26285,2,0,P|336:111|332:153,1,80,8|0,0:0|1:2,0:0:0:0:
332,152,26560,1,0,1:2:0:0:
184,29,26698,2,0,P|178:67|174:109,1,80,0|8,1:2|0:0,0:0:0:0:
41,384,26973,6,0,P|7:314|31:238,1,160,6|0,1:2|1:2,0:0:0:0:
195,313,27386,2,0,P|155:306|115:303,1,80,8|0,0:0|0:0,0:0:0:0:
11,121,27661,2,0,P|89:133|169:140,1,160,2|8,1:2|0:0,0:0:0:0:
169,140,28212,5,10,0:0:0:0:
189,137,28280,1,8,0:3:0:0:
209,135,28349,1,8,0:3:0:0:
229,132,28418,1,8,0:3:0:0:
253,100,28487,5,8,0:0:0:0:
273,103,28555,1,8,0:3:0:0:
293,105,28624,1,8,0:3:0:0:
313,108,28693,1,8,0:3:0:0:
333,111,28762,5,10,0:0:0:0:
512,30,28900,1,8,0:0:0:0:
499,129,29037,5,0,1:2:0:0:
320,12,29175,1,8,0:0:0:0:
353,260,29312,5,0,1:2:0:0:
353,260,29588,1,2,1:2:0:0:
353,260,29863,1,2,1:2:0:0:
353,260,30139,1,2,1:2:0:0:
292,180,30413,5,2,1:2:0:0:
313,352,30689,1,2,1:2:0:0:
452,247,30964,1,2,1:2:0:0:
452,247,31239,5,0,1:2:0:0:
254,273,31377,1,8,0:0:0:0:
96,291,31514,5,2,1:2:0:0:
96,291,31789,1,2,1:2:0:0:
96,291,32065,1,2,1:2:0:0:
96,291,32340,1,2,1:2:0:0:
166,205,32615,5,2,1:2:0:0:
184,359,32891,1,0,1:2:0:0:
166,205,33166,1,2,1:2:0:0:
86,370,33303,6,0,L|6:360,1,80,8|0,0:0|1:2,0:0:0:0:
32,115,33579,5,4,0:3:0:0:
71,119,33647,1,4,0:3:0:0:
111,124,33716,1,4,1:2:0:0:
192,69,33991,1,2,1:2:0:0:
103,26,34267,1,2,1:2:0:0:
200,167,34542,1,2,1:2:0:0:
274,13,34817,5,2,1:2:0:0:
289,210,35092,1,2,1:2:0:0:
92,225,35367,1,2,1:2:0:0:
77,28,35643,2,0,P|116:32|156:38,1,80,0|0,1:2|0:0,0:0:0:0:
332,209,35918,6,0,P|366:139|342:63,1,160,6|10,1:2|0:0,0:0:0:0:
342,64,36468,1,2,1:2:0:0:
431,221,36606,2,0,P|470:225|510:231,1,80,8|2,0:0|1:2,0:0:0:0:
249,355,36881,5,8,0:3:0:0:
249,355,36950,1,8,0:3:0:0:
249,355,37019,1,10,0:0:0:0:
160,198,37156,1,0,1:2:0:0:
340,288,37294,1,8,0:0:0:0:
105,340,37432,2,0,L|101:292,1,40,8|8,0:3|0:3,0:0:0:0:
275,33,37569,5,8,0:0:0:0:
269,72,37637,1,8,0:0:0:0:
264,112,37706,1,8,0:3:0:0:
259,152,37775,1,8,0:3:0:0:
256,191,37845,2,0,L|261:238,1,40,4|4,0:3|0:3,0:0:0:0:
457,65,37982,2,0,L|452:25,1,40,4|4,0:3|0:3,0:0:0:0:
512,154,38120,6,0,B|473:148|473:148|441:156|441:156|412:129|360:124,1,160,4|10,1:2|0:0,0:0:0:0:
256,191,38533,1,2,0:0:0:0:
167,41,38670,2,0,P|207:47|247:50,1,80,2|0,1:2|1:2,0:0:0:0:
150,257,38945,2,0,P|110:251|70:248,1,80,10|0,0:0|0:0,0:0:0:0:
389,384,39221,6,0,P|412:309|378:239,1,160,2|10,1:2|0:0,0:0:0:0:
232,325,39634,2,0,P|271:319|311:316,1,80,0|2,1:2|0:0,0:0:0:0:
378,239,39909,1,0,1:2:0:0:
247,111,40046,2,0,P|252:150|255:190,1,80,10|2,0:0|0:0,0:0:0:0:
39,376,40322,5,6,1:2:0:0:
131,58,40597,1,10,0:0:0:0:
100,297,40872,5,2,1:2:0:0:
21,236,41010,1,10,0:0:0:0:
82,158,41147,2,0,P|121:163|161:166,1,80,2|0,0:0|1:2,0:0:0:0:
403,297,41423,5,10,0:0:0:0:
318,373,41560,1,0,1:2:0:0:
278,367,41629,1,0,1:2:0:0:
238,364,41698,2,0,P|235:324|229:284,1,80,10|0,0:0|1:2,0:0:0:0:
309,97,41973,5,10,0:0:0:0:
320,188,42110,1,8,0:3:0:0:
309,97,42248,1,6,0:3:0:0:
320,188,42385,1,4,0:3:0:0:
512,58,42523,6,0,P|437:76|382:23,1,160,6|8,1:2|0:0,0:0:0:0:
382,23,43074,1,0,1:2:0:0:
221,145,43212,2,0,P|203:70|256:15,1,160,8|0,0:0|1:2,0:0:0:0:
320,188,43624,6,0,P|393:177|478:168,1,160,10|0,0:0|1:2,0:0:0:0:
307,295,44037,1,10,0:0:0:0:
307,295,44175,2,0,P|266:288|227:285,1,80,0|0,1:2|1:2,0:0:0:0:
395,347,44450,1,10,0:0:0:0:
409,226,44588,1,8,0:0:0:0:
168,363,44725,6,0,P|134:293|158:217,1,160,6|8,1:2|0:0,0:0:0:0:
157,218,45276,1,0,1:2:0:0:
290,97,45413,2,0,P|220:131|144:107,1,160,8|0,0:0|1:2,0:0:0:0:
135,97,45757,1,0,1:2:0:0:
124,86,45826,1,10,0:0:0:0:
227,285,45964,1,0,1:2:0:0:
227,285,46033,1,0,1:2:0:0:
227,285,46101,1,8,0:0:0:0:
4,275,46239,1,10,0:3:0:0:
43,267,46307,1,8,0:3:0:0:
82,258,46377,6,0,P|85:218|93:163,1,80,0|8,1:2|0:3,0:0:0:0:
247,182,46652,2,0,P|241:142|238:102,1,80,6|4,0:3|0:3,0:0:0:0:
476,299,46927,5,6,1:2:0:0:
500,141,47202,1,8,0:0:0:0:
319,325,47478,5,8,0:0:0:0:
247,182,47615,1,0,1:2:0:0:
380,204,47753,5,10,0:0:0:0:
357,69,47890,1,0,1:2:0:0:
94,336,48028,5,10,0:0:0:0:
220,284,48303,1,8,0:0:0:0:
94,48,48578,5,8,0:0:0:0:
220,100,48715,1,0,1:2:0:0:
26,198,48854,6,0,P|62:192|114:187,1,80,10|0,0:0|1:2,0:0:0:0:
470,219,49129,5,10,0:0:0:0:
276,172,49267,1,0,1:2:0:0:
413,28,49404,1,0,1:2:0:0:
359,251,49542,5,10,0:0:0:0:
303,60,49680,1,0,1:2:0:0:
496,106,49817,1,0,1:2:0:0:
220,100,49955,6,0,P|180:96|140:89,1,80,10|0,0:0|1:2,0:0:0:0:
15,316,50230,2,0,B|102:329|167:285|167:285|218:347|307:351,1,320,6|2,1:2|0:0,0:0:0:0:
308,352,51193,6,0,P|312:305|319:256,1,88.000002685547,6|0,1:2|0:0,0:0:0:0:
219,110,51468,2,0,P|224:153|228:197,1,88.000002685547,2|8,1:2|0:0,0:0:0:0:
423,74,51744,1,2,0:0:0:0:
302,4,51881,1,0,1:2:0:0:
402,175,52019,2,0,P|445:169|489:165,1,88.000002685547,2|10,1:2|0:0,0:0:0:0:
214,346,52294,6,0,P|159:315|97:338,1,132.00000402832,2|0,1:2|0:0,0:0:0:0:
87,347,52569,2,0,P|43:350|-1:357,1,88.000002685547,2|8,1:2|0:0,0:0:0:0:
117,123,52845,1,2,0:0:0:0:
187,208,52982,1,0,1:2:0:0:
13,263,53120,2,0,P|19:219|22:175,1,88.000002685547,2|8,1:2|0:0,0:0:0:0:
221,63,53395,6,0,B|276:56|276:56|320:88|391:82,1,176.000005371094,2|0,1:2|1:2,0:0:0:0:
488,183,53808,5,8,0:0:0:0:
512,33,53945,1,0,1:2:0:0:
385,231,54083,5,0,1:2:0:0:
298,163,54221,1,0,1:2:0:0:
357,331,54358,5,8,0:0:0:0:
171,363,54496,1,0,1:2:0:0:
171,363,54565,1,0,1:2:0:0:
171,363,54634,1,8,0:0:0:0:
457,305,54771,1,0,1:2:0:0:
158,246,54909,5,8,0:0:0:0:
444,188,55046,1,0,1:2:0:0:
145,129,55184,5,10,0:0:0:0:
288,100,55322,1,10,0:3:0:0:
431,71,55459,1,10,0:3:0:0:
155,119,55597,6,0,P|92:76|2:108,1,176.000005371094,6|2,1:2|1:2,0:0:0:0:
221,206,56010,1,10,0:0:0:0:
329,43,56147,2,0,P|285:48|241:52,1,88.000002685547,2|0,0:0|1:2,0:0:0:0:
386,212,56423,1,2,1:2:0:0:
438,125,56560,1,10,0:0:0:0:
231,196,56698,6,0,P|200:251|223:313,1,132.00000402832,2|0,1:2|0:0,0:0:0:0:
232,323,56973,2,0,P|188:326|144:333,1,88.000002685547,2|8,1:2|0:0,0:0:0:0:
11,195,57248,1,2,0:0:0:0:
11,195,57317,1,2,0:0:0:0:
11,195,57386,1,0,1:2:0:0:
131,95,57523,2,0,P|124:138|121:182,1,88.000002685547,2|8,1:2|0:0,0:0:0:0:
319,360,57799,6,0,P|323:276|335:169,1,176.000005371094,2|0,1:2|1:2,0:0:0:0:
479,67,58212,5,8,0:0:0:0:
463,199,58349,1,0,1:2:0:0:
296,40,58487,5,0,1:2:0:0:
392,53,58624,1,0,1:2:0:0:
217,188,58762,1,8,0:0:0:0:
382,43,58900,6,0,B|284:31|305:83|213:74,1,176.000005371094,4|0,1:2|1:2,0:0:0:0:
37,164,59312,1,8,0:0:0:0:
96,11,59450,5,8,0:3:0:0:
96,11,59519,1,8,0:3:0:0:
96,11,59588,1,10,0:0:0:0:
128,176,59725,1,10,0:0:0:0:
159,341,59863,2,0,L|115:346,1,44.0000013427735,10|0,0:0|0:0,0:0:0:0:
104,0,60001,6,0,B|177:52|177:52|260:28,1,176.000005371094,6|2,1:2|1:2,0:0:0:0:
423,183,60413,2,0,P|351:173|291:167,1,132.00000402832,10|0,0:0|0:0,0:0:0:0:
281,177,60689,1,2,1:2:0:0:
494,26,60826,2,0,P|496:65|505:121,1,88.000002685547,2|8,1:2|0:0,0:0:0:0:
299,351,61101,6,0,P|297:312|288:256,1,88.000002685547,2|0,1:2|0:0,0:0:0:0:
194,168,61377,1,2,1:2:0:0:
45,268,61514,2,0,P|129:256|188:317,1,176.000005371094,10|2,0:0|1:2,0:0:0:0:
301,157,61927,1,2,1:2:0:0:
238,70,62065,1,8,0:0:0:0:
99,359,62202,5,6,1:2:0:0:
99,359,62478,2,0,P|138:361|194:370,1,88.000002685547,2|8,1:2|0:0,0:0:0:0:
475,103,62753,5,6,1:2:0:0:
475,103,63029,2,0,P|436:101|380:92,1,88.000002685547,2|8,1:2|0:0,0:0:0:0:
0,203,63303,6,2,B|121:187|121:187|177:224|177:224|299:209,1,311.999985717774,6|8,1:2|0:0,0:1:0:0:
298,209,63854,1,4,1:2:0:0:
409,181,63991,6,0,P|403:225|400:269,1,88.000002685547,2|0,1:2|1:2,0:0:0:0:
298,328,64267,1,10,0:0:0:0:
60,37,64404,6,0,B|90:77|147:83|147:83|170:56|216:55,1,176.000005371094,6|0,1:2|1:2,0:0:0:0:
60,347,64817,1,8,0:0:0:0:
9,133,64955,1,0,1:2:0:0:
179,338,65092,5,10,0:0:0:0:
214,55,65230,1,0,1:2:0:0:
357,324,65367,5,10,0:0:0:0:
333,35,65505,1,0,1:2:0:0:
333,35,65574,1,0,1:2:0:0:
333,35,65643,1,10,0:0:0:0:
333,35,66193,2,0,P|384:94|468:87,1,167.999994873047,2|0,0:0|0:0,0:0:0:0:
478,78,66744,6,2,B|186:42|283:245|4:205|4:205|4:135|72:100,1,640,6|0,1:2|1:2,0:1:0:0:
344,349,68257,5,8,0:3:0:0:
344,349,68326,1,8,0:3:0:0:
344,349,68395,1,8,0:0:0:0:
464,189,68533,1,8,0:0:0:0:
265,164,68670,1,8,0:0:0:0:
483,329,68808,5,6,1:2:0:0:
