osu file format v14

[General]
AudioFilename: nekopara.mp3
AudioLeadIn: 0
PreviewTime: 68160
Countdown: 0
SampleSet: Soft
StackLeniency: 0.7
Mode: 3
LetterboxInBreaks: 0
SpecialStyle: 0
WidescreenStoryboard: 0

[Editor]
DistanceSpacing: 0.9
BeatDivisor: 4
GridSize: 4
TimelineZoom: 1

[Metadata]
Title:Taiyou Paradise
TitleUnicode:タイヨウパラダイス
Artist:nao
ArtistUnicode:nao
Creator:Muu-chan
Version:Azuki [4K NM]
Source:ネコぱら vol.1 ソレイユ開店しました!
Tags:NEKO WORKs さより 雪仁 水城新人 KIZAWA Studio Sayori Yuki Jin Mizuki Shinjin Nekopara Soreiyu Kaiten Shimashita eroge VN galgame visual novel sun opening Eternalie
BeatmapID:667140
BeatmapSetID:297170

[Difficulty]
HPDrainRate:7
CircleSize:4
OverallDifficulty:7
ApproachRate:5
SliderMultiplier:1.4
SliderTickRate:1

[Events]
//Background and Video events
0,0,"2015-02-05-708830_1024x768.png",0,0
//Break Periods
//Storyboard Layer 0 (Background)
//Storyboard Layer 1 (Fail)
//Storyboard Layer 2 (Pass)
//Storyboard Layer 3 (Foreground)
//Storyboard Sound Samples

[TimingPoints]
1630,408.163265306122,4,2,1,30,1,0
68568,-100,4,2,1,30,0,1
94691,-100,4,2,1,30,0,0

[HitObjects]
64,192,1630,128,2,2446:0:0:0:0:
320,192,1630,1,4,0:0:0:0:
192,192,2446,128,2,3262:0:0:0:0:
448,192,3262,128,2,4078:0:0:0:0:
320,192,4078,128,2,4895:0:0:0:0:
64,192,4895,128,2,5711:0:0:0:0:
448,192,5711,128,2,6527:0:0:0:0:
192,192,6527,128,2,7344:0:0:0:0:
64,192,7344,128,2,8160:0:0:0:0:
448,192,8160,128,2,8976:0:0:0:0:
320,192,8976,128,2,9589:0:0:0:0:
64,192,8976,1,0,0:0:0:0:
192,192,9589,128,2,10405:0:0:0:0:
448,192,9589,1,4,0:0:0:0:
320,192,10405,1,4,0:0:0:0:
64,192,10405,128,2,11017:0:0:0:0:
192,192,11017,1,4,0:0:0:0:
448,192,11017,128,0,11425:0:0:0:0:
320,192,11425,1,2,0:0:0:0:
320,192,11629,1,2,0:0:0:0:
448,192,12242,1,2,0:0:0:0:
448,192,12446,1,2,0:0:0:0:
64,192,12854,128,2,14691:0:0:0:0:
192,192,12854,1,4,0:0:0:0:
320,192,14691,1,4,0:0:0:0:
448,192,14691,128,2,15507:0:0:0:0:
192,192,15099,1,8,0:0:0:0:
64,192,15507,128,2,15711:0:0:0:0:
192,192,15711,128,0,15915:0:0:0:0:
320,192,15915,128,8,16119:0:0:0:0:
448,192,16119,128,0,16527:0:0:0:0:
320,192,16527,128,0,16732:0:0:0:0:
64,192,16732,128,8,16936:0:0:0:0:
192,192,16936,128,0,17140:0:0:0:0:
448,192,17140,128,2,17548:0:0:0:0:
320,192,17344,1,8,0:0:0:0:
64,192,17548,128,8,17956:0:0:0:0:
192,192,17956,128,2,18772:0:0:0:0:
320,192,18364,1,8,0:0:0:0:
448,192,18772,128,2,18976:0:0:0:0:
320,192,18976,128,0,19181:0:0:0:0:
64,192,19181,128,8,19385:0:0:0:0:
192,192,19385,128,0,19793:0:0:0:0:
448,192,19793,128,0,19997:0:0:0:0:
320,192,19997,128,8,20201:0:0:0:0:
192,192,20201,128,0,20405:0:0:0:0:
64,192,20405,128,2,20813:0:0:0:0:
192,192,20609,1,8,0:0:0:0:
320,192,20813,128,8,21221:0:0:0:0:
64,192,21221,1,4,0:0:0:0:
448,192,21221,128,2,22038:0:0:0:0:
192,192,21629,1,8,0:0:0:0:
64,192,22038,128,2,22242:0:0:0:0:
192,192,22242,128,0,22446:0:0:0:0:
448,192,22446,128,8,22650:0:0:0:0:
320,192,22650,128,0,23058:0:0:0:0:
64,192,23058,128,0,23262:0:0:0:0:
192,192,23262,128,8,23466:0:0:0:0:
320,192,23466,128,0,23670:0:0:0:0:
448,192,23670,128,2,24078:0:0:0:0:
64,192,23670,1,0,0:0:0:0:
192,192,24078,128,2,24487:0:0:0:0:
64,192,24487,128,2,25099:0:0:0:0:
448,192,25099,1,2,0:0:0:0:
320,192,25201,1,2,0:0:0:0:
192,192,25303,1,2,0:0:0:0:
64,192,25507,1,2,0:0:0:0:
64,192,25915,1,2,0:0:0:0:
448,192,26323,1,8,0:0:0:0:
192,192,26323,1,4,0:0:0:0:
448,192,26527,1,8,0:0:0:0:
192,192,26527,1,4,0:0:0:0:
320,192,26936,1,8,0:0:0:0:
192,192,27140,1,0,0:0:0:0:
64,192,27344,1,0,0:0:0:0:
448,192,27344,1,4,0:0:0:0:
192,192,27752,1,4,0:0:0:0:
320,192,27752,1,0,0:0:0:0:
448,192,27956,1,0,0:0:0:0:
64,192,28160,1,0,0:0:0:0:
192,192,28364,1,0,0:0:0:0:
320,192,28568,1,0,0:0:0:0:
64,192,28772,1,0,0:0:0:0:
448,192,28976,1,0,0:0:0:0:
320,192,29181,1,0,0:0:0:0:
192,192,29385,1,0,0:0:0:0:
448,192,29589,1,0,0:0:0:0:
64,192,29793,1,0,0:0:0:0:
192,192,29997,1,0,0:0:0:0:
320,192,30201,1,0,0:0:0:0:
64,192,30405,1,0,0:0:0:0:
448,192,30609,1,0,0:0:0:0:
320,192,30813,1,0,0:0:0:0:
64,192,31017,1,0,0:0:0:0:
448,192,31221,1,0,0:0:0:0:
192,192,31425,1,0,0:0:0:0:
320,192,31629,1,0,0:0:0:0:
64,192,31834,1,0,0:0:0:0:
448,192,32038,1,0,0:0:0:0:
64,192,32242,1,0,0:0:0:0:
320,192,32446,1,0,0:0:0:0:
192,192,32650,1,0,0:0:0:0:
448,192,32854,1,0,0:0:0:0:
64,192,33058,1,0,0:0:0:0:
448,192,33262,1,0,0:0:0:0:
192,192,33466,1,0,0:0:0:0:
320,192,33670,1,0,0:0:0:0:
64,192,33874,1,0,0:0:0:0:
448,192,34078,1,0,0:0:0:0:
64,192,34283,1,4,0:0:0:0:
320,192,34283,1,0,0:0:0:0:
192,192,34487,1,0,0:0:0:0:
448,192,34691,1,0,0:0:0:0:
320,192,34895,1,0,0:0:0:0:
64,192,35099,1,0,0:0:0:0:
320,192,35303,1,0,0:0:0:0:
192,192,35507,1,0,0:0:0:0:
448,192,35711,1,0,0:0:0:0:
192,192,35915,1,0,0:0:0:0:
320,192,36119,1,0,0:0:0:0:
64,192,36323,1,0,0:0:0:0:
192,192,36527,1,0,0:0:0:0:
448,192,36732,1,0,0:0:0:0:
192,192,36936,1,0,0:0:0:0:
320,192,37140,1,0,0:0:0:0:
64,192,37344,1,0,0:0:0:0:
192,192,37548,1,0,0:0:0:0:
448,192,37752,1,0,0:0:0:0:
192,192,37956,1,0,0:0:0:0:
320,192,38160,1,0,0:0:0:0:
64,192,38364,1,0,0:0:0:0:
192,192,38568,1,0,0:0:0:0:
448,192,38772,1,0,0:0:0:0:
64,192,38976,1,2,0:0:0:0:
320,192,38976,1,4,0:0:0:0:
192,192,39385,1,2,0:0:0:0:
448,192,39793,1,2,0:0:0:0:
320,192,40201,1,2,0:0:0:0:
192,192,40405,1,8,0:0:0:0:
64,192,40609,1,4,0:0:0:0:
448,192,40609,1,2,0:0:0:0:
320,192,41017,1,0,0:0:0:0:
64,192,41221,1,0,0:0:0:0:
192,192,41221,1,8,0:0:0:0:
448,192,41629,1,0,0:0:0:0:
320,192,42038,1,8,0:0:0:0:
64,192,42038,1,0,0:0:0:0:
192,192,42446,1,0,0:0:0:0:
320,192,42854,1,8,0:0:0:0:
448,192,42854,1,0,0:0:0:0:
64,192,43262,1,0,0:0:0:0:
192,192,43670,1,8,0:0:0:0:
448,192,43670,1,0,0:0:0:0:
320,192,44078,1,0,0:0:0:0:
192,192,44487,1,8,0:0:0:0:
64,192,44487,1,0,0:0:0:0:
448,192,44895,1,0,0:0:0:0:
320,192,45303,1,0,0:0:0:0:
64,192,45303,1,8,0:0:0:0:
192,192,45711,1,0,0:0:0:0:
320,192,46119,1,8,0:0:0:0:
448,192,46119,1,0,0:0:0:0:
64,192,46527,1,8,0:0:0:0:
192,192,46629,1,8,0:0:0:0:
320,192,46732,1,8,0:0:0:0:
64,192,46936,1,0,0:0:0:0:
448,192,46936,1,8,0:0:0:0:
192,192,47344,1,4,0:0:0:0:
448,192,47344,1,0,0:0:0:0:
320,192,47752,1,8,0:0:0:0:
64,192,47752,1,0,0:0:0:0:
192,192,48160,1,0,0:0:0:0:
320,192,48568,1,0,0:0:0:0:
448,192,48568,1,8,0:0:0:0:
64,192,48976,1,0,0:0:0:0:
192,192,49385,1,0,0:0:0:0:
448,192,49385,1,8,0:0:0:0:
320,192,49793,1,0,0:0:0:0:
192,192,50201,1,8,0:0:0:0:
64,192,50201,1,0,0:0:0:0:
448,192,50609,1,0,0:0:0:0:
320,192,51017,1,8,0:0:0:0:
64,192,51017,1,0,0:0:0:0:
192,192,51425,1,0,0:0:0:0:
320,192,51834,1,8,0:0:0:0:
448,192,51834,1,4,0:0:0:0:
192,192,52038,1,8,0:0:0:0:
64,192,52038,1,4,0:0:0:0:
448,192,52446,128,2,52854:0:0:0:0:
320,192,52854,128,2,53262:0:0:0:0:
192,192,53262,1,2,0:0:0:0:
448,192,53466,1,4,0:0:0:0:
64,192,53466,1,2,0:0:0:0:
192,192,53874,1,8,0:0:0:0:
64,192,53874,1,2,0:0:0:0:
320,192,54283,1,8,0:0:0:0:
64,192,54283,1,2,0:0:0:0:
192,192,54691,1,2,0:0:0:0:
448,192,54691,1,8,0:0:0:0:
448,192,55099,1,8,0:0:0:0:
320,192,55099,1,2,0:0:0:0:
192,192,55507,1,2,0:0:0:0:
64,192,55507,1,8,0:0:0:0:
320,192,55915,1,2,0:0:0:0:
64,192,55915,1,8,0:0:0:0:
192,192,56323,1,8,0:0:0:0:
448,192,56323,1,2,0:0:0:0:
320,192,56732,1,8,0:0:0:0:
448,192,56732,1,2,0:0:0:0:
192,192,57140,1,8,0:0:0:0:
64,192,57140,1,2,0:0:0:0:
320,192,57548,1,2,0:0:0:0:
192,192,57548,1,8,0:0:0:0:
320,192,57956,1,8,0:0:0:0:
448,192,57956,1,2,0:0:0:0:
192,192,58364,1,8,0:0:0:0:
64,192,58364,1,2,0:0:0:0:
320,192,58772,1,8,0:0:0:0:
448,192,58772,1,2,0:0:0:0:
192,192,59181,1,8,0:0:0:0:
320,192,59181,1,2,0:0:0:0:
192,192,59589,1,8,0:0:0:0:
64,192,59589,1,2,0:0:0:0:
320,192,59997,1,8,0:0:0:0:
448,192,59997,1,2,0:0:0:0:
64,192,60405,1,0,0:0:0:40:LR_Tom Hit 3.wav
64,192,60609,1,0,0:0:0:40:LR_Tom Hit 3.wav
320,192,60813,1,8,0:0:0:0:
448,192,60813,1,4,0:0:0:0:
192,192,61221,1,0,0:0:0:40:LR_Tom Hit 3.wav
192,192,61425,1,0,0:0:0:40:LR_Tom Hit 3.wav
448,192,61629,1,8,0:0:0:0:
64,192,61629,1,4,0:0:0:0:
320,192,62038,1,0,0:0:0:40:LR_Tom Hit 3.wav
320,192,62242,1,0,0:0:0:40:LR_Tom Hit 3.wav
192,192,62446,1,8,0:0:0:0:
64,192,62446,1,4,0:0:0:0:
448,192,62854,1,0,0:0:0:40:LR_Tom Hit 3.wav
448,192,63058,1,0,0:0:0:40:LR_Tom Hit 3.wav
320,192,63262,1,4,0:0:0:0:
64,192,63262,1,8,0:0:0:0:
192,192,63670,1,0,0:0:0:0:
320,192,63670,1,4,0:0:0:0:
448,192,64078,1,8,0:0:0:0:
192,192,64283,1,0,0:0:0:0:
64,192,64487,1,8,0:0:0:0:
320,192,64691,1,0,0:0:0:0:
192,192,64895,1,8,0:0:0:0:
448,192,65099,128,2,66732:0:0:0:0:
64,192,65303,1,0,0:0:0:0:
192,192,65507,1,0,0:0:0:0:
320,192,65711,1,0,0:0:0:0:
64,192,65915,1,0,0:0:0:0:
192,192,66119,1,0,0:0:0:0:
320,192,66323,1,0,0:0:0:0:
64,192,66527,1,0,0:0:0:0:
320,192,66732,128,2,67140:0:0:0:0:
64,192,67140,128,2,67548:0:0:0:0:
448,192,67548,128,2,67956:0:0:0:0:
192,192,67956,128,2,68568:0:0:0:0:
320,192,68568,1,4,0:0:0:0:
64,192,68568,1,0,0:0:0:0:
448,192,68976,1,8,0:0:0:0:
192,192,68976,1,0,0:0:0:0:
64,192,69385,1,0,0:0:0:0:
320,192,69793,1,8,0:0:0:0:
192,192,69793,1,0,0:0:0:0:
448,192,70201,1,0,0:0:0:0:
320,192,70609,1,8,0:0:0:0:
64,192,70609,1,0,0:0:0:0:
192,192,71017,1,0,0:0:0:0:
320,192,71221,1,8,0:0:0:0:
448,192,71221,1,0,0:0:0:0:
192,192,71425,1,8,0:0:0:0:
64,192,71425,1,4,0:0:0:0:
320,192,71834,1,0,0:0:0:0:
448,192,71834,1,4,0:0:0:0:
192,192,72242,1,8,0:0:0:0:
64,192,72242,1,0,0:0:0:0:
448,192,72650,1,0,0:0:0:0:
320,192,73058,1,8,0:0:0:0:
64,192,73058,1,0,0:0:0:0:
192,192,73466,1,0,0:0:0:0:
320,192,73874,1,8,0:0:0:0:
448,192,73874,1,0,0:0:0:0:
64,192,74283,1,0,0:0:0:0:
448,192,74487,1,0,0:0:0:0:
192,192,74487,1,8,0:0:0:0:
64,192,74691,1,0,0:0:0:0:
320,192,74691,1,8,0:0:0:0:
192,192,75099,1,0,0:0:0:0:
448,192,75099,1,4,0:0:0:0:
320,192,75507,1,8,0:0:0:0:
64,192,75507,1,0,0:0:0:0:
192,192,75915,1,0,0:0:0:0:
320,192,76323,1,0,0:0:0:0:
448,192,76323,1,8,0:0:0:0:
64,192,76732,1,0,0:0:0:0:
192,192,77140,1,0,0:0:0:0:
448,192,77140,1,8,0:0:0:0:
320,192,77548,1,0,0:0:0:0:
192,192,77752,1,8,0:0:0:0:
64,192,77752,1,0,0:0:0:0:
448,192,77956,1,0,0:0:0:0:
320,192,77956,1,8,0:0:0:0:
64,192,78364,1,0,0:0:0:0:
192,192,78772,1,8,0:0:0:0:
448,192,78772,1,0,0:0:0:0:
320,192,79181,1,0,0:0:0:0:
192,192,79589,1,8,0:0:0:0:
64,192,79589,1,0,0:0:0:0:
320,192,79793,1,4,0:0:0:0:
448,192,79793,128,2,80813:0:0:0:0:
64,192,80813,128,2,81425:0:0:0:0:
448,192,81425,1,0,0:0:0:0:
320,192,81629,1,0,0:0:0:0:
192,192,81629,1,4,0:0:0:0:
64,192,82038,1,0,0:0:0:0:
448,192,82038,1,8,0:0:0:0:
192,192,82446,1,0,0:0:0:0:
320,192,82854,1,0,0:0:0:0:
448,192,82854,1,8,0:0:0:0:
64,192,83262,1,0,0:0:0:0:
192,192,83670,1,0,0:0:0:0:
448,192,83670,1,8,0:0:0:0:
320,192,84078,1,0,0:0:0:0:
192,192,84283,1,8,0:0:0:0:
64,192,84283,1,0,0:0:0:0:
320,192,84487,1,8,0:0:0:0:
448,192,84487,1,4,0:0:0:0:
64,192,84895,1,0,0:0:0:0:
448,192,84895,1,4,0:0:0:0:
320,192,85303,1,8,0:0:0:0:
192,192,85303,1,0,0:0:0:0:
64,192,85711,1,0,0:0:0:0:
192,192,86119,1,0,0:0:0:0:
448,192,86119,1,8,0:0:0:0:
320,192,86527,1,0,0:0:0:0:
192,192,86936,1,8,0:0:0:0:
64,192,86936,1,0,0:0:0:0:
448,192,87344,1,0,0:0:0:0:
320,192,87548,1,8,0:0:0:0:
64,192,87548,1,0,0:0:0:0:
192,192,87752,1,4,0:0:0:0:
448,192,87752,1,8,0:0:0:0:
320,192,88160,1,4,0:0:0:0:
64,192,88160,1,0,0:0:0:0:
192,192,88568,1,8,0:0:0:0:
64,192,88772,1,0,0:0:0:0:
448,192,88772,1,4,0:0:0:0:
320,192,89181,1,0,0:0:0:0:
192,192,89385,1,8,0:0:0:0:
448,192,89385,1,0,0:0:0:0:
64,192,89793,1,0,0:0:0:0:
192,192,89997,1,0,0:0:0:0:
448,192,90201,1,8,0:0:0:0:
320,192,90405,1,4,0:0:0:0:
64,192,90405,1,0,0:0:0:0:
192,192,90813,1,4,0:0:0:0:
448,192,90813,1,8,0:0:0:0:
320,192,91017,1,8,0:0:0:0:
64,192,91017,1,4,0:0:0:0:
192,192,91425,1,4,0:0:0:0:
448,192,91425,1,0,0:0:0:0:
320,192,91834,1,8,0:0:0:0:
64,192,92038,1,0,0:0:0:0:
448,192,92242,1,8,0:0:0:0:
192,192,92446,1,0,0:0:0:0:
320,192,92650,1,8,0:0:0:0:
448,192,92854,1,0,0:0:0:0:
64,192,93058,128,2,94283:0:0:0:0:
320,192,93058,1,8,0:0:0:0:
192,192,93466,1,8,0:0:0:0:
320,192,93874,1,8,0:0:0:0:
448,192,94283,1,8,0:0:0:0:
192,192,94691,1,2,0:0:0:0:
320,192,94691,1,4,0:0:0:0:
64,192,95099,1,8,0:0:0:0:
192,192,95099,1,2,0:0:0:0:
320,192,95507,1,2,0:0:0:0:
64,192,95507,1,8,0:0:0:0:
192,192,95915,1,2,0:0:0:0:
448,192,95915,1,8,0:0:0:0:
320,192,96323,1,2,0:0:0:0:
448,192,96323,1,8,0:0:0:0:
64,192,96732,1,8,0:0:0:0:
192,192,96732,1,2,0:0:0:0:
320,192,97140,1,2,0:0:0:0:
192,192,97140,1,8,0:0:0:0:
64,192,97344,1,8,0:0:0:0:
448,192,97344,1,2,0:0:0:0:
192,192,97548,1,8,0:0:0:0:
320,192,97548,1,2,0:0:0:0:
448,192,97956,1,12,0:0:0:0:
320,192,97956,1,2,0:0:0:0:
320,192,98364,1,2,0:0:0:0:
192,192,98364,1,8,0:0:0:0:
192,192,98772,1,2,0:0:0:0:
64,192,98772,1,8,0:0:0:0:
320,192,99181,1,2,0:0:0:0:
448,192,99181,1,8,0:0:0:0:
192,192,99589,1,2,0:0:0:0:
64,192,99589,1,8,0:0:0:0:
192,192,99997,1,8,0:0:0:0:
320,192,99997,1,2,0:0:0:0:
320,192,100405,1,8,0:0:0:0:
448,192,100405,1,2,0:0:0:0:
192,192,100609,1,2,0:0:0:0:
64,192,100609,1,8,0:0:0:0:
320,192,100813,1,8,0:0:0:0:
448,192,100813,1,2,0:0:0:0:
64,192,101221,1,12,0:0:0:0:
192,192,101221,1,2,0:0:0:0:
448,192,101629,1,2,0:0:0:0:
320,192,101629,1,8,0:0:0:0:
64,192,102038,1,8,0:0:0:0:
192,192,102038,1,2,0:0:0:0:
448,192,102446,1,2,0:0:0:0:
64,192,102446,1,8,0:0:0:0:
448,192,102854,1,2,0:0:0:0:
320,192,102854,1,8,0:0:0:0:
192,192,103058,1,0,0:0:0:0:
448,192,103262,1,2,0:0:0:0:
64,192,103262,1,8,0:0:0:0:
320,192,103466,1,12,0:0:0:0:
192,192,103466,128,2,103874:0:0:0:0:
448,192,103874,1,2,0:0:0:0:
320,192,104078,1,2,0:0:0:0:
64,192,104487,1,8,0:0:0:0:
192,192,104487,1,2,0:0:0:0:
320,192,104691,1,8,0:0:0:0:
448,192,104691,1,2,0:0:0:0:
320,192,105303,1,8,0:0:0:0:
192,192,105303,1,2,0:0:0:0:
64,192,105507,1,8,0:0:0:0:
448,192,105507,1,2,0:0:0:0:
192,192,105915,1,12,0:0:0:0:
320,192,105915,128,2,107752:0:0:0:0:
64,192,107752,128,2,108568:0:0:0:0:
192,192,107752,1,4,0:0:0:0:
320,192,108160,1,8,0:0:0:0:
448,192,108568,128,2,108772:0:0:0:0:
320,192,108772,128,0,108976:0:0:0:0:
192,192,108976,128,8,109181:0:0:0:0:
64,192,109181,128,0,109589:0:0:0:0:
320,192,109589,128,0,109793:0:0:0:0:
192,192,109793,128,8,109997:0:0:0:0:
448,192,109997,128,0,110201:0:0:0:0:
320,192,110201,128,2,110609:0:0:0:0:
64,192,110405,1,8,0:0:0:0:
192,192,110609,128,8,111017:0:0:0:0:
64,192,111017,128,2,111834:0:0:0:0:
320,192,111425,1,8,0:0:0:0:
192,192,111834,128,2,112038:0:0:0:0:
448,192,112038,128,0,112242:0:0:0:0:
64,192,112242,128,8,112446:0:0:0:0:
320,192,112446,128,0,112854:0:0:0:0:
192,192,112854,128,0,113058:0:0:0:0:
64,192,113058,128,8,113262:0:0:0:0:
448,192,113262,128,0,113466:0:0:0:0:
320,192,113466,128,2,113874:0:0:0:0:
192,192,113670,1,8,0:0:0:0:
64,192,113874,128,8,114283:0:0:0:0:
192,192,114283,1,4,0:0:0:0:
448,192,114283,128,2,115099:0:0:0:0:
320,192,114691,1,8,0:0:0:0:
192,192,115099,128,2,115303:0:0:0:0:
320,192,115303,128,0,115507:0:0:0:0:
64,192,115507,128,8,115711:0:0:0:0:
192,192,115711,128,0,116119:0:0:0:0:
448,192,116119,128,0,116323:0:0:0:0:
320,192,116323,128,8,116527:0:0:0:0:
192,192,116527,128,0,116732:0:0:0:0:
64,192,116732,128,2,117140:0:0:0:0:
448,192,116732,1,0,0:0:0:0:
192,192,117140,128,2,117548:0:0:0:0:
448,192,117548,128,2,118058:0:0:0:0:
64,192,118058,1,2,0:0:0:0:
192,192,118160,1,2,0:0:0:0:
320,192,118262,1,2,0:0:0:0:
448,192,118364,1,2,0:0:0:0:
192,192,118568,1,2,0:0:0:0:
192,192,118976,1,2,0:0:0:0:
64,192,119385,1,4,0:0:0:0:
448,192,119385,1,8,0:0:0:0:
448,192,119589,1,8,0:0:0:0:
64,192,119589,1,4,0:0:0:0:
320,192,119997,1,8,0:0:0:0:
192,192,119997,1,4,0:0:0:0:
320,192,120405,1,8,0:0:0:0:
192,192,120405,1,4,0:0:0:0:
448,192,120813,1,0,0:0:0:0:
192,192,121017,1,8,0:0:0:0:
64,192,121017,1,4,0:0:0:0:
320,192,121425,1,8,0:0:0:0:
64,192,121425,1,0,0:0:0:0:
448,192,121629,1,8,0:0:0:0:
192,192,121629,1,0,0:0:0:0:
320,192,122038,1,8,0:0:0:0:
448,192,122038,1,0,0:0:0:0:
64,192,122242,128,2,123262:0:0:0:0:
192,192,122242,1,12,0:0:0:0:
320,192,123262,128,2,123874:0:0:0:0:
