osu file format v14

[General]
AudioFilename: audio.ogg
AudioLeadIn: 0
PreviewTime: 66732
Countdown: 0
SampleSet: Soft
StackLeniency: 0.4
Mode: 0
LetterboxInBreaks: 0
WidescreenStoryboard: 1

[Editor]
Bookmarks: 123262
DistanceSpacing: 1
BeatDivisor: 2
GridSize: 8
TimelineZoom: 0.6999999

[Metadata]
Title:Taiyou Paradise
TitleUnicode:タイヨウパラダイス
Artist:nao
ArtistUnicode:nao
Creator:Momochikun
Version:Easy
Source:ネコぱら vol.1 ソレイユ開店しました!
Tags:NEKO WORKs さより 雪仁 水城新人 KIZAWA Studio Sayori Yuki Jin Mizuki Shinjin Nekopara Soreiyu Kaiten Shimashita eroge VN galgame visual novel opening pop japanese
BeatmapID:4492665
BeatmapSetID:2135141

[Difficulty]
HPDrainRate:3
CircleSize:3
OverallDifficulty:3
ApproachRate:4
SliderMultiplier:1
SliderTickRate:1

[Events]
//Background and Video events
0,0,"BG.png",0,0
//Break Periods
//Storyboard Layer 0 (Background)
//Storyboard Layer 1 (Fail)
//Storyboard Layer 2 (Pass)
//Storyboard Layer 3 (Foreground)
//Storyboard Layer 4 (Overlay)
//Storyboard Sound Samples

[TimingPoints]
1630,408.163265306122,4,2,1,55,1,0
1630,-100,4,2,1,55,0,0
8976,-100,4,2,1,40,0,0
9589,-100,4,2,1,60,0,0
12446,-100,4,2,1,60,0,0
12854,-100,4,2,1,60,0,0
14691,-100,4,2,1,65,0,0
23874,-100,4,2,1,50,0,0
24487,-100,4,2,1,55,0,0
27752,-100,4,2,1,55,0,0
38976,-100,4,2,1,60,0,0
40609,-100,4,2,1,60,0,0
53058,-100,4,2,1,55,0,0
53874,-100,4,2,1,65,0,0
60405,-100,4,2,1,55,0,0
60813,-100,4,2,1,65,0,0
61221,-100,4,2,1,55,0,0
61629,-100,4,2,1,65,0,0
62038,-100,4,2,1,55,0,0
62446,-100,4,2,1,65,0,0
62854,-100,4,2,1,60,0,0
63670,-100,4,2,1,65,0,0
65507,-100,4,2,1,50,0,0
65915,-100,4,2,1,55,0,0
66323,-100,4,2,1,60,0,0
68262,-100,4,2,1,55,0,0
68568,-100,4,2,1,70,0,1
80405,-100,4,2,1,60,0,1
80813,-100,4,2,1,70,0,1
81425,-100,4,2,1,70,0,0
81629,-100,4,2,1,70,0,1
89793,-100,4,2,1,60,0,1
90201,-100,4,2,1,70,0,1
94181,-100,4,2,1,65,0,1
94487,-100,4,2,1,70,0,0
94691,-100,4,2,1,75,0,1
105507,-100,4,2,1,70,0,1
105915,-100,4,2,1,70,0,1
107242,-100,4,2,1,60,0,1
107752,-100,4,2,1,65,0,0
116936,-100,4,2,1,50,0,0
117548,-100,4,2,1,55,0,0
119385,-100,4,2,1,60,0,0
122344,-100,4,2,1,30,0,0

[Colours]
Combo1 : 128,191,255
Combo2 : 168,168,255
Combo3 : 207,207,231
Combo4 : 196,136,255

[HitObjects]
427,258,1630,5,4,0:0:0:0:
338,304,2038,1,2,0:0:0:0:
245,265,2446,2,0,L|215:117,2,150,2|2|0,0:0|0:0|0:0,0:0:0:0:
169,330,4078,2,0,P|113:344|58:326,1,100,0|2,0:0|0:0,0:0:0:0:
30,243,4895,5,2,0:0:0:0:
80,156,5303,1,0,0:0:0:0:
121,64,5711,2,0,P|179:33|268:45,1,150,2|2,0:0|0:0,0:0:0:0:
403,86,6936,2,0,L|390:174,1,50,0|2,0:0|0:0,0:0:0:0:
406,234,7548,1,2,0:0:0:0:
281,322,8160,6,0,P|221:342|163:326,1,100,2|0,0:0|0:0,0:0:0:0:
96,291,8976,2,0,P|66:233|83:142,1,150,8|4,0:0|0:0,0:0:0:0:
119,60,9997,1,0,0:0:0:0:
216,38,10405,2,0,L|387:82,1,150,4|8,0:0|0:0,0:0:0:0:
446,128,11425,5,8,0:0:0:0:
382,317,12242,2,0,L|325:335,1,50,8|8,0:0|0:0,0:0:0:0:
240,296,12854,2,0,B|185:278|185:278|120:307|56:256,1,150,4|8,0:0|0:0,0:0:0:0:
33,201,13874,1,10,0:0:0:0:
79,112,14283,1,8,0:0:0:0:
153,45,14691,6,0,P|245:24|350:100,1,200,4|2,0:0|0:0,0:0:0:0:
408,138,15915,1,8,0:0:0:0:
478,209,16323,2,0,L|461:318,1,100,0|8,0:0|0:0,0:0:0:0:
368,343,17140,1,2,0:0:0:0:
308,262,17548,1,8,0:0:0:0:
214,298,17956,6,0,P|144:311|43:214,1,200,2|2,0:0|0:0,0:0:0:0:
125,170,19181,1,8,0:0:0:0:
48,105,19589,2,0,P|104:74|145:78,1,100,0|8,0:0|0:0,0:0:0:0:
222,130,20405,1,2,0:0:0:0:
281,49,20813,1,8,0:0:0:0:
379,63,21221,6,0,L|394:164,1,100,4|8,0:0|0:0,0:0:0:0:
371,259,22038,2,0,P|431:289|513:276,2,150,2|2|10,0:0|0:0|0:0,0:0:0:0:
277,222,23670,2,0,P|230:237|194:281,1,100,4|8,0:0|0:0,0:0:0:0:
120,338,24487,6,0,P|52:295|35:209,1,150,8|2,0:0|0:0,0:0:0:0:
271,38,26323,2,0,L|344:55,1,50,4|4,0:0|0:0,0:0:0:0:
417,27,26936,1,12,0:0:0:0:
461,116,27344,1,8,0:0:0:0:
400,195,27752,5,4,0:0:0:0:
365,288,28160,2,0,B|313:304|263:255|263:255|215:276|179:263,1,200,0|0,1:0|1:0,0:0:0:0:
87,220,29385,2,0,P|50:170|54:126,1,100,0|0,1:0|1:0,0:0:0:0:
102,48,30201,1,0,1:0:0:0:
193,88,30609,1,0,1:0:0:0:
280,39,31017,6,0,B|405:15|405:15|470:53,1,200,0|2,1:0|1:0,0:0:0:0:
509,142,32242,1,0,1:0:0:0:
422,191,32650,2,0,L|402:307,1,100,0|0,1:0|1:0,0:0:0:0:
307,310,33466,2,0,L|323:211,1,100,0|0,1:0|1:0,0:0:0:0:
295,115,34283,6,0,P|221:57|120:86,1,200,4|0,0:0|1:0,0:0:0:0:
66,143,35507,1,0,1:0:0:0:
13,228,35915,2,0,L|24:348,1,100,0|0,1:0|1:0,0:0:0:0:
117,356,36732,1,2,1:0:0:0:
181,279,37140,1,0,1:0:0:0:
272,319,37548,6,0,L|370:297,1,100,0|0,1:0|1:0,0:0:0:0:
467,317,38364,2,0,P|506:251|494:168,1,150,0|4,1:0|0:0,0:0:0:0:
435,103,39385,1,8,0:3:0:0:
338,77,39793,2,0,L|227:102,1,100,0|4,0:0|0:3,0:0:0:0:
150,55,40609,6,0,B|108:98|108:98|135:208,1,150,4|8,0:0|0:0,0:0:0:0:
71,266,41629,2,0,P|122:287|176:278,1,100,2|8,0:0|0:0,0:0:0:0:
253,330,42446,2,0,P|304:309|358:318,1,100,0|8,0:0|0:0,0:0:0:0:
443,341,43262,1,2,0:0:0:0:
424,242,43670,1,8,0:0:0:0:
490,167,44078,6,0,B|492:104|429:70|429:70|398:101|357:103,1,200,2|0,0:0|0:0,0:0:0:0:
271,54,45303,1,8,0:0:0:0:
177,18,45711,2,0,L|81:47,1,100,0|8,0:0|0:0,0:0:0:0:
31,133,46527,1,0,0:0:0:0:
128,156,46936,1,8,0:0:0:0:
102,252,47344,6,0,P|157:326|269:317,1,200,4|2,0:0|0:0,0:0:0:0:
348,284,48568,1,8,0:0:0:0:
446,264,48976,2,0,L|462:151,1,100,2|8,0:0|0:0,0:0:0:0:
362,141,49793,2,0,L|376:41,1,100,2|8,0:0|0:0,0:0:0:0:
277,22,50609,6,0,P|232:43|199:97,1,100,2|8,0:0|0:0,0:0:0:0:
145,164,51425,2,0,L|-5:135,2,150,2|12|8,0:0|0:0|0:0,0:0:0:0:
215,234,53058,1,8,0:0:0:0:
306,194,53466,1,12,0:0:0:0:
393,242,53874,6,0,L|415:351,2,100,4|8|8,0:0|0:0|0:0,0:0:0:0:
478,190,55099,1,8,0:0:0:0:
439,97,55507,2,0,L|327:74,1,100,8|8,0:0|0:0,0:0:0:0:
249,35,56323,2,0,L|148:86,1,100,10|8,0:0|0:0,0:0:0:0:
177,178,57140,5,10,0:0:0:0:
87,222,57548,1,8,0:0:0:0:
59,318,57956,2,0,P|118:350|171:342,1,100,8|8,0:0|0:0,0:0:0:0:
237,302,58772,1,8,0:0:0:0:
323,351,59181,1,8,0:0:0:0:
357,257,59589,2,0,L|370:153,1,100,10|8,0:0|0:0,0:0:0:0:
467,138,60405,6,0,L|454:237,1,100,8|12,0:3|0:0,0:0:0:0:
488,331,61221,2,0,L|385:358,1,100,8|12,0:3|0:0,0:0:0:0:
305,304,62038,2,0,L|203:280,1,100,8|12,0:3|0:0,0:0:0:0:
112,310,62854,2,0,P|63:278|49:226,1,100,4|12,0:3|0:0,0:0:0:0:
126,177,63670,5,4,0:0:0:0:
198,108,64078,1,8,0:0:0:0:
154,17,64487,2,0,L|5:51,2,150,8|4|8,0:0|0:0|0:0,0:0:0:0:
234,76,66119,2,0,L|380:42,1,150,8|4,0:0|0:0,0:0:0:0:
452,112,67140,5,4,0:0:0:0:
378,179,67548,2,0,P|349:242|357:325,1,150,4|8,0:0|0:0,0:0:0:0:
266,365,68568,6,0,P|213:367|174:339,1,100,4|8,0:0|0:0,0:0:0:0:
112,263,69385,2,0,P|49:242|4:249,1,100,0|8,0:0|0:0,0:0:0:0:
5,145,70201,2,0,L|37:44,1,100,2|8,0:0|0:0,0:0:0:0:
127,10,71017,1,0,0:0:0:0:
188,89,71425,1,8,0:0:0:0:
281,53,71834,6,0,P|366:49|455:129,1,200,4|2,0:0|0:0,0:0:0:0:
504,203,73058,1,8,0:0:0:0:
411,241,73466,2,0,P|352:264|332:295,1,100,2|8,0:0|0:0,0:0:0:0:
234,312,74283,1,0,0:0:0:0:
195,219,74691,1,8,0:0:0:0:
102,257,75099,6,0,P|70:218|72:167,1,100,4|8,0:0|0:0,0:0:0:0:
21,83,75915,2,0,L|125:49,1,100,2|8,0:0|0:0,0:0:0:0:
213,29,76732,2,0,L|376:62,2,150,2|2|8,0:0|0:0|0:0,0:0:0:0:
195,127,78364,5,2,0:0:0:0:
277,183,78772,1,8,0:0:0:0:
195,241,79181,2,0,P|137:255|72:317,1,150,2|12,0:0|0:0,0:0:0:0:
151,377,80201,2,0,P|209:363|274:301,1,150,8|8,0:0|0:0,0:0:0:0:
366,266,81221,1,12,0:0:0:0:
451,213,81629,6,0,L|480:109,1,100,4|8,0:0|0:0,0:0:0:0:
407,45,82446,2,0,L|312:79,1,100,0|8,0:0|0:0,0:0:0:0:
217,48,83262,2,0,P|138:43|50:142,1,200,0|0,0:0|0:0,0:0:0:0:
12,212,84487,1,8,0:0:0:0:
81,284,84895,5,4,0:0:0:0:
162,226,85303,1,8,0:0:0:0:
245,281,85711,2,0,L|340:314,1,100,0|8,0:0|0:0,0:0:0:0:
412,245,86527,2,0,L|317:212,2,100,2|8|0,0:0|0:0|0:0,0:0:0:0:
502,201,87752,1,8,0:0:0:0:
478,103,88160,6,0,P|423:60|345:66,1,150,4|4,0:0|0:0,0:0:0:0:
221,148,89385,1,8,0:0:0:0:
133,99,89793,2,0,P|75:100|-1:54,2,150,8|4|8,0:3|0:0|0:0,0:0:0:0:
132,198,91425,6,0,L|125:300,1,100,4|8,0:0|0:0,0:0:0:0:
219,265,92242,2,0,L|212:367,1,100,8|8,0:0|0:0,0:0:0:0:
307,334,93058,2,0,L|313:234,1,100,4|8,0:0|0:0,0:0:0:0:
405,194,93874,1,10,0:0:0:0:
440,100,94283,1,8,0:0:0:0:
360,39,94691,5,4,0:0:0:0:
261,24,95099,2,0,L|145:53,1,100,8|8,0:0|0:0,0:0:0:0:
169,148,95915,1,8,0:0:0:0:
81,195,96323,2,0,P|57:241|56:300,2,100,8|8|8,0:0|0:0|0:0,0:0:0:0:
168,243,97548,1,8,0:0:0:0:
248,301,97956,6,0,L|351:284,1,100,12|8,0:0|0:0,0:0:0:0:
442,313,98772,2,0,P|459:256|446:209,1,100,10|8,0:0|0:0,0:0:0:0:
370,157,99589,1,10,0:0:0:0:
422,71,99997,1,8,0:0:0:0:
326,41,100405,2,0,L|216:67,1,100,8|8,0:0|0:0,0:0:0:0:
136,103,101221,6,0,L|42:69,2,100,12|10|10,0:0|0:0|0:0,0:0:0:0:
199,180,102446,1,8,0:0:0:0:
111,228,102854,2,0,P|83:279|87:371,1,150,8|4,0:0|0:0,0:0:0:0:
232,336,104078,1,8,0:0:0:0:
330,315,104487,6,0,L|399:329,2,50,4|8|0,0:0|0:0|0:0,0:0:0:0:
305,218,105303,2,0,L|255:208,1,50,8|8,0:0|0:0,0:0:0:0:
162,244,105915,2,0,P|102:240|54:135,1,150,4|8,0:0|0:0,0:0:0:0:
108,89,106936,1,10,0:0:0:0:
198,46,107344,1,8,0:0:0:0:
297,54,107752,6,0,B|359:38|359:38|439:71|422:151,1,200,4|2,0:0|0:0,0:0:0:0:
450,240,108976,1,8,0:0:0:0:
371,303,109385,2,0,L|266:333,1,100,0|10,0:0|0:0,0:0:0:0:
185,284,110201,2,0,L|75:264,1,100,2|8,0:0|0:0,0:0:0:0:
16,195,111017,6,0,B|38:124|-13:59|-13:59|57:33,1,200,2|2,0:0|0:0,0:0:0:0:
137,24,112242,1,8,0:0:0:0:
196,103,112650,2,0,P|247:123|294:113,1,100,0|8,0:0|0:0,0:0:0:0:
382,77,113466,1,2,0:0:0:0:
445,154,113874,1,8,0:0:0:0:
381,231,114283,6,0,L|361:329,1,100,4|8,0:0|0:0,0:0:0:0:
265,358,115099,2,0,P|201:332|112:344,2,150,2|2|8,0:0|0:0|0:0,0:0:0:0:
280,258,116732,1,4,0:0:0:0:
338,176,117140,1,8,0:0:0:0:
274,98,117548,6,0,P|208:93|126:109,1,150,8|2,0:0|0:0,0:0:0:0:
301,348,119384,2,0,L|374:331,1,50,4|4,0:0|0:0,0:0:0:0:
448,356,119997,1,4,0:0:0:0:
464,257,120405,1,8,0:0:0:0:
481,158,120813,6,0,L|465:95,1,50,8|4,0:0|0:0,0:0:0:0:
389,47,121425,2,0,L|325:38,1,50,8|4,0:0|0:0,0:0:0:0:
246,76,122038,1,8,0:0:0:0:
200,97,122242,2,0,B|150:118|92:95|92:95|29:144|66:231,1,250,4|0,0:0|1:0,0:0:0:0:
