osu file format v14

[General]
AudioFilename: rave tech new world.mp3
AudioLeadIn: 0
PreviewTime: 57196
Countdown: 1
SampleSet: Soft
StackLeniency: 0.7
Mode: 0
LetterboxInBreaks: 1
WidescreenStoryboard: 1

[Editor]
DistanceSpacing: 1.2
BeatDivisor: 4
GridSize: 4
TimelineZoom: 0.6000001

[Metadata]
Title:Rave:tech(^_^)New;world
TitleUnicode:Rave:tech(^_^)New;world
Artist:nao
ArtistUnicode:nao
Creator:captin1
Version:Normal
Source:神次次元ゲイム ネプテューヌRe;Birth3 V CENTURY
Tags:hyperdimension neptunia choujigen game neptune RYU(BLOOD STAIN CHILD) 山下慎一狼 yamashita sinichirou 寺前甲 demetori delis amamiya yuko skystar
BeatmapID:539810
BeatmapSetID:232518

[Difficulty]
HPDrainRate:4
CircleSize:3.5
OverallDifficulty:4
ApproachRate:5
SliderMultiplier:1.3
SliderTickRate:1

[Events]
//Background and Video events
0,0,"rebirth-3.jpg",0,0
Video,0,"centurydnoise.avi"
//Break Periods
//Storyboard Layer 0 (Background)
//Storyboard Layer 1 (Fail)
//Storyboard Layer 2 (Pass)
//Storyboard Layer 3 (Foreground)
//Storyboard Sound Samples
Sample,62496,1,"drum-hitwhistle.wav",75

[TimingPoints]
1296,400,4,2,1,55,1,0
7696,-100,4,1,1,45,0,0
12496,-100,4,2,1,35,0,0
14096,-100,4,1,1,65,0,0
20796,-100,4,1,1,60,0,0
21096,-100,4,1,1,55,0,0
21396,-100,4,1,1,50,0,0
21696,-100,4,1,1,45,0,0
22096,-100,4,1,1,65,0,0
26896,-100,4,1,1,35,0,0
28496,400,4,2,1,45,1,0
28496,-125,4,2,1,45,0,0
34096,-100,4,1,1,65,0,0
52496,400,4,1,1,75,1,0
52496,-100,4,1,1,75,0,0
57296,400,4,2,2,75,1,1
57296,-100,4,2,2,75,0,1
57396,-100,4,1,1,75,0,1
63696,-100,4,2,2,75,0,1
63796,-100,4,1,1,75,0,1
66896,-100,4,2,2,75,0,1
66996,-100,4,1,1,75,0,1
67696,-100,4,2,2,75,0,1
67796,-100,4,1,1,75,0,1
70096,-100,4,2,2,75,0,1
70196,-100,4,1,1,75,0,1
76496,-100,4,2,2,75,0,1
76597,-100,4,1,1,75,0,1
82896,-100,4,1,1,65,0,0
89596,-100,4,1,1,60,0,0
89896,-100,4,1,1,55,0,0
90196,-100,4,1,1,50,0,0
90496,-100,4,1,1,45,0,0
90896,-100,4,1,1,65,0,0
95696,-100,4,2,1,45,0,0
99496,-100,4,2,1,5,0,0

[Colours]
Combo1 : 99,0,198
Combo2 : 0,255,128
Combo3 : 43,149,255
Combo4 : 0,0,183
Combo5 : 255,79,255

[HitObjects]
50,259,1296,6,0,P|110:243|190:259,1,130,4|0,1:0|0:0,0:0:0:0:
313,327,2096,2,0,P|361:333|408:322,1,97.5,0|0,0:0|0:0,0:0:0:0:
487,143,2896,2,0,L|486:12,1,130,0|0,0:0|0:0,0:0:0:0:
335,53,3696,2,0,P|298:53|238:35,2,97.4999999999999,2|2|2,0:0|0:0|0:0,0:0:0:0:
377,118,4496,6,0,P|387:160|372:252,1,130,0|0,0:0|0:0,0:0:0:0:
222,277,5296,2,0,P|219:228|230:180,1,97.5,0|0,0:0|0:0,0:0:0:0:
65,75,6096,2,0,L|70:210,1,130,0|0,0:0|0:0,0:0:0:0:
216,254,6896,2,0,P|223:299|214:361,2,97.4999999999999,2|2|0,0:0|0:0|1:0,0:0:0:0:
176,186,7696,6,0,L|168:87,2,97.5,0|0|0,1:0|0:0|0:0,0:0:0:0:
309,104,8696,2,0,P|351:124|432:114,1,130,0|0,0:0|0:0,0:0:0:0:
455,188,9296,2,0,L|465:291,2,97.4999999999999,0|0|0,1:0|0:0|0:0,0:0:0:0:
507,130,10096,1,0,1:0:0:0:
377,43,10496,1,0,1:0:0:0:
231,99,10896,6,0,L|128:104,2,97.4999999999999,0|0|0,1:0|0:0|0:0,0:0:0:0:
345,205,11896,2,0,P|350:249|317:331,1,130,0|0,1:0|1:0,0:0:0:0:
242,333,12496,6,0,L|86:337,1,130,2|8,1:2|0:0,0:0:0:0:
46,194,13296,2,0,L|202:190,1,130,2|0,1:2|0:0,0:0:0:0:
323,141,14096,6,0,P|347:80|349:43,2,97.4999999999999,4|0|2,1:2|0:0|0:2,0:0:0:0:
388,282,15096,2,0,P|353:295|256:283,1,130,2|2,0:2|0:2,0:0:0:0:
199,240,15696,2,0,P|138:233|83:239,2,97.4999999999999,0|0|2,1:0|0:0|0:2,0:0:0:0:
270,208,16496,1,0,1:0:0:0:
286,52,16896,1,12,1:2:0:0:
142,115,17296,6,0,P|100:117|41:95,2,97.4999999999999,4|0|2,1:0|0:0|0:2,0:0:0:0:
297,97,18296,2,0,P|317:143|323:226,1,130,2|2,0:2|0:2,0:0:0:0:
298,296,18896,2,0,P|351:257|420:270,1,130,4|8,1:2|0:0,0:0:0:0:
484,126,19696,1,4,1:0:0:0:
344,55,20096,1,8,2:0:0:0:
230,162,20496,6,0,L|124:150,1,97.4999999999999,12|12,0:0|0:0,0:0:0:0:
53,66,21096,2,0,L|159:78,1,97.4999999999999,12|12,0:0|0:0,0:0:0:0:
213,6,21696,1,0,0:0:0:0:
350,79,22096,2,0,P|363:136|336:204,1,130,0|8,1:0|1:0,0:0:0:0:
207,287,22896,2,0,P|249:285|283:286,1,65
347,303,23296,1,8,0:0:0:0:
468,202,23696,6,0,P|480:144|474:79,2,97.5,4|0|2,1:2|0:0|0:2,0:0:0:0:
429,269,24496,1,4,1:2:0:0:
429,269,24696,2,0,P|376:253|303:271,1,130,2|2,0:2|0:2,0:0:0:0:
242,316,25296,2,0,P|195:326|155:325,1,65,4|0,1:2|1:0,0:0:0:0:
57,226,25896,1,0,1:0:0:0:
57,226,26096,2,0,L|53:95,1,130,4|4,1:2|1:2,0:0:0:0:
202,53,26896,6,0,P|257:68|363:30,1,162.5,0|0,1:0|1:0,0:0:0:0:
433,123,27696,2,0,L|439:226,2,97.5,0|0|0,1:0|1:0|1:0,0:0:0:0:
361,155,28496,6,0,P|330:165|240:164,1,104,2|0,0:0|0:0,0:0:0:0:
157,241,29296,2,0,P|126:231|36:232,1,104,2|0,0:0|0:0,0:0:0:0:
92,347,30096,1,2,1:2:0:0:
212,312,30496,1,0,0:0:0:0:
329,354,30896,2,0,L|437:362,1,104,2|0,0:0|0:0,0:0:0:0:
474,244,31696,6,0,P|483:190|478:135,2,104,0|2|2,1:0|0:0|0:0,0:0:0:0:
349,234,32896,1,0,0:0:0:0:
229,269,33296,2,0,L|102:261,1,104,0|0,1:0|0:0,0:0:0:0:
33,135,34096,2,0,L|23:55,2,65,0|0|8,1:0|1:0|0:0,0:0:0:0:
96,181,34696,1,0,1:0:0:0:
164,143,34896,6,0,P|214:124|299:146,1,130,4|0,1:2|1:0,0:0:0:0:
315,292,35696,2,0,P|365:311|450:289,1,130,0|2,1:0|1:2,0:0:0:0:
456,220,36296,1,0,0:0:0:0:
456,220,36496,2,0,L|452:118,2,97.5,2|2|2,1:2|0:2|0:2,0:0:0:0:
379,201,37296,2,0,L|234:195,1,130,0|2,1:0|1:2,0:0:0:0:
180,158,37896,1,0,0:0:0:0:
114,199,38096,6,0,P|103:251|117:337,1,130,4|0,1:2|1:0,0:0:0:0:
255,263,38896,2,0,P|266:211|252:125,1,130,4|2,1:0|1:2,0:0:0:0:
211,71,39496,1,0,0:0:0:0:
211,71,39696,2,0,L|110:81,2,97.5,2|2|2,1:2|0:2|0:2,0:0:0:0:
280,34,40496,2,0,L|352:39,1,65,0|0,1:0|1:0,0:0:0:0:
358,115,40896,2,0,L|430:110,1,65,8|0,0:0|1:0,0:0:0:0:
479,164,41296,6,0,P|494:220|486:273,2,97.5,4|2|2,1:2|0:2|0:2,0:0:0:0:
403,185,42096,2,0,P|356:198|279:146,1,130,0|8,1:0|0:0,0:0:0:0:
203,30,42896,2,0,P|156:30|107:46,2,97.5,2|2|2,1:2|0:2|0:2,0:0:0:0:
234,101,43696,2,0,L|241:243,1,130,2|8,1:2|0:0,0:0:0:0:
231,308,44296,1,0,0:0:0:0:
231,308,44496,6,0,P|281:313|336:290,2,97.5,2|2|2,1:2|0:2|0:2,0:0:0:0:
158,278,45296,2,0,P|108:273|53:296,2,97.5,0|2|2,1:0|0:2|0:2,0:0:0:0:
219,229,46096,2,0,L|219:131,2,97.5,2|2|2,1:2|0:2|0:2,0:0:0:0:
292,254,46896,1,2,1:2:0:0:
411,155,47296,1,10,1:2:0:0:
275,79,47696,6,0,P|230:78|170:53,2,97.5,4|2|2,1:2|0:2|0:2,0:0:0:0:
343,41,48496,2,0,P|412:34|471:78,1,130,0|10,1:0|1:3,0:0:0:0:
443,141,49096,1,0,0:0:0:0:
443,141,49296,2,0,L|452:258,2,97.5,2|2|2,1:2|0:2|0:2,0:0:0:0:
369,167,50096,2,0,L|229:169,1,130,0|10,1:0|1:3,0:0:0:0:
137,50,50896,6,0,P|101:40|41:169,1,195,0|0,0:0|0:0,0:0:0:0:
80,208,51696,2,0,P|116:218|176:89,1,195,0|0,0:0|1:0,0:0:0:0:
249,58,52496,6,0,P|306:35|355:40,1,97.5,4|4,1:0|1:0,0:0:0:0:
430,111,53096,2,0,L|437:187,1,65,0|0,1:0|1:0,0:0:0:0:
359,312,53696,1,8,0:0:0:0:
233,218,54096,2,0,L|126:217,1,97.5,12|12,1:0|1:0,0:0:0:0:
40,285,54696,2,0,P|21:246|19:218,1,65,0|0,1:0|0:0,0:0:0:0:
64,75,55296,1,0,0:0:0:0:
218,52,55696,6,0,L|315:42,2,97.5,0|0|0,1:0|1:0|1:0,0:0:0:0:
190,125,56496,2,0,B|206:176|190:235|190:235|203:257|242:261|261:233|255:194,1,195,4|0,1:3|2:0,0:0:0:0:
305,163,57296,6,0,P|348:159|390:165,1,65,6|0,1:2|1:0,0:0:0:0:
447,149,57696,2,0,P|461:191|465:218,1,65,10|0,1:3|1:0,0:0:0:0:
430,281,58096,1,2,1:3:0:0:
280,327,58496,2,0,L|208:324,1,65,10|0,1:3|1:0,0:0:0:0:
141,350,58896,2,0,L|69:353,1,65,2|0,1:3|0:0,0:0:0:0:
18,299,59296,1,10,1:3:0:0:
56,147,59696,2,0,L|51:73,2,65,2|0|10,1:3|1:0|1:3,0:0:0:0:
115,197,60296,1,0,1:0:0:0:
187,167,60496,6,0,P|246:147|321:185,1,130,2|10,1:3|1:3,0:0:0:0:
380,308,61296,1,2,1:3:0:0:
246,227,61696,1,2,1:3:0:0:
338,101,62096,2,0,L|332:3,2,97.5,2|0|0,1:3|1:0|1:0,0:0:0:0:
411,128,62896,2,0,L|480:126,2,65,2|0|8,1:3|1:0|0:0,0:0:0:0:
377,198,63496,1,0,1:0:0:0:
418,263,63696,6,0,P|424:302|425:332,1,65,6|0,1:2|1:0,0:0:0:0:
347,332,64096,2,0,P|341:293|340:263,1,65,10|0,1:3|1:0,0:0:0:0:
270,234,64496,1,2,1:3:0:0:
321,86,64896,2,0,L|346:144,1,65,10|0,1:3|1:0,0:0:0:0:
408,98,65296,2,0,L|433:156,1,65,2|0,1:3|0:0,0:0:0:0:
466,229,65696,1,10,1:3:0:0:
356,341,66096,2,0,P|320:345|287:342,1,65,2|0,1:3|1:0,0:0:0:0:
224,303,66496,1,10,1:3:0:0:
146,314,66696,1,0,1:0:0:0:
146,314,66896,6,0,P|139:265|145:183,1,130,6|10,1:2|1:3,0:0:0:0:
267,88,67696,2,0,P|270:45|275:17,2,65,6|8|2,1:2|1:0|1:3,0:0:0:0:
321,144,68296,1,8,1:0:0:0:
306,220,68496,2,0,L|310:321,2,97.5,4|4|4,1:0|1:0|1:0,0:0:0:0:
384,222,69296,2,0,P|418:231|448:251,2,65,4|0|8,1:0|1:0|0:0,0:0:0:0:
386,299,69896,1,0,1:0:0:0:
310,317,70096,6,0,P|272:332|168:290,1,130,6|0,1:2|1:0,0:0:0:0:
34,339,70896,2,0,L|39:195,1,130,0|8,1:0|1:0,0:0:0:0:
76,141,71496,1,0,0:0:0:0:
141,99,71696,2,0,P|89:64|27:79,2,130,2|2|2,1:3|1:3|1:3,0:0:0:0:
256,205,72896,1,8,1:2:0:0:
370,99,73296,6,0,P|422:64|484:79,1,130,6|2,1:2|1:2,0:0:0:0:
453,232,74096,2,0,L|451:330,2,97.5,2|2|2,1:2|1:2|1:2,0:0:0:0:
387,189,74896,1,0,1:0:0:0:
387,189,75096,2,0,P|336:194|302:192,1,65,2|0,0:2|1:0,0:0:0:0:
185,117,75696,2,0,P|139:86|77:86,2,97.5,2|2|2,1:2|0:2|1:2,0:0:0:0:
161,191,76496,6,0,L|166:350,1,130,6|0,1:2|1:0,0:0:0:0:
305,253,77296,2,0,P|350:255|376:261,1,65,0|0,1:0|0:0,0:0:0:0:
423,315,77696,2,0,P|468:313|494:307,1,65,8|0,1:0|0:0,0:0:0:0:
495,231,78096,2,0,L|501:99,2,130,4|0|0,1:2|1:0|1:0,0:0:0:0:
349,174,79296,1,10,0:3:0:0:
283,131,79496,1,0,1:0:0:0:
209,156,79696,5,2,1:3:0:0:
64,97,80096,1,0,1:0:0:0:
86,251,80496,1,0,1:0:0:0:
209,156,80896,1,0,1:0:0:0:
256,192,81296,12,4,82896,1:2:0:0:
192,131,83696,6,0,P|201:165|199:263,1,130,0|8,1:0|1:0,0:0:0:0:
179,334,84296,1,0,0:2:0:0:
179,334,84496,2,0,L|300:329,2,97.5,2|0|2,1:2|0:0|0:2,0:0:0:0:
104,312,85296,1,0,1:0:0:0:
46,166,85696,1,12,1:2:0:0:
192,131,86096,6,0,P|241:139|317:129,2,97.5,6|0|2,1:2|0:0|0:2,0:0:0:0:
49,67,87096,2,0,P|60:128|46:204,1,130,2|2,0:2|0:2,0:0:0:0:
0,256,87696,2,0,P|86:221|143:238,1,130,6|8,1:2|0:0,0:0:0:0:
219,347,88496,1,6,1:2:0:0:
327,235,88896,1,8,2:0:0:0:
194,152,89296,6,0,L|97:141,1,97.5,4|12,0:2|0:0,0:0:0:0:
19,51,89896,2,0,L|116:62,1,97.5,4|12,0:2|0:0,0:0:0:0:
195,4,90496,1,0,0:0:0:0:
331,78,90896,2,0,P|374:64|456:88,1,130,6|8,1:2|1:0,0:0:0:0:
383,226,91696,1,0,1:0:0:0:
477,350,92096,1,8,0:0:0:0:
383,226,92496,6,0,P|326:226|274:255,2,97.5,6|0|2,1:2|0:0|0:2,0:0:0:0:
461,254,93296,1,4,1:2:0:0:
461,254,93496,2,0,L|463:116,1,130,2|2,0:2|0:2,0:0:0:0:
420,58,94096,2,0,P|379:49|318:23,2,97.5,6|0|0,1:2|0:0|1:0,0:0:0:0:
382,126,94896,2,0,P|358:156|252:152,1,130,6|6,1:2|1:2,0:0:0:0:
126,106,95696,6,0,P|119:148|133:250,1,130,0|0,1:0|0:0,0:0:0:0:
240,343,96496,2,0,P|249:295|247:246,1,97.5,0|2,0:0|0:0,0:0:0:0:
308,61,97296,2,0,L|316:190,1,130
183,108,98096,2,0,P|134:114|86:113,2,97.5,2|2|2,0:0|0:0|0:0,0:0:0:0:
401,192,99296,5,4,1:0:0:0:
256,192,99396,12,0,104946,0:0:0:0:
