osu file format v14

[General]
AudioFilename: audio.mp3
AudioLeadIn: 1000
PreviewTime: 47506
Countdown: 0
SampleSet: Soft
StackLeniency: 0.7
Mode: 0
LetterboxInBreaks: 0
WidescreenStoryboard: 1

[Editor]
Bookmarks: 121142,132960
DistanceSpacing: 1.5
BeatDivisor: 4
GridSize: 4
TimelineZoom: 1.1

[Metadata]
Title:Piece of Time
TitleUnicode:Piece of Time
Artist:nao
ArtistUnicode:nao
Creator:Terakomari
Version:Insane
Source:Timepiece Ensemble
Tags:lafayla eroge galgame vn visual novel japanese jp jpop j-pop pop video game GLace タイムピース アンサンブル opening op
BeatmapID:4155735
BeatmapSetID:1999090

[Difficulty]
HPDrainRate:6
CircleSize:4
OverallDifficulty:7
ApproachRate:8
SliderMultiplier:1.8
SliderTickRate:1

[Events]
//Background and Video events
Video,-50,"Piece of Time.mp4"
0,0,"Piece of Time.jpg",0,0
//Break Periods
//Storyboard Layer 0 (Background)
//Storyboard Layer 1 (Fail)
//Storyboard Layer 2 (Pass)
//Storyboard Layer 3 (Foreground)
//Storyboard Layer 4 (Overlay)
//Storyboard Sound Samples

[TimingPoints]
597,363.636363636364,4,2,0,50,1,0
960,-100,4,2,0,50,0,0
12051,-100,4,2,0,50,0,0
13324,-133.333333333333,4,2,0,60,0,0
13597,-100,4,2,0,65,0,0
25324,-125,4,2,0,55,0,0
36778,-111.111111111111,4,2,0,60,0,0
36960,-111.111111111111,4,2,0,60,0,0
47415,-100,4,2,0,40,0,0
48597,-100,4,2,0,80,0,1
86415,-100,4,2,0,70,0,0
118415,-133.333333333333,4,2,0,55,0,0
121142,-100,4,2,0,50,0,0
121324,-100,4,2,0,45,0,0
122778,-100,4,2,0,40,0,0
124233,-100,4,2,0,35,0,0
125687,-100,4,2,0,30,0,0

[Colours]
Combo1 : 223,73,73
Combo2 : 134,234,255
Combo3 : 102,118,90
Combo4 : 233,175,151
Combo5 : 236,109,172

[HitObjects]
256,192,2051,12,2,4960,0:0:0:0:
256,192,5142,12,2,7869,0:0:0:0:
256,192,8051,12,2,10779,0:0:0:0:
256,192,10960,12,0,11869,0:0:0:0:
323,119,12233,5,2,1:2:0:0:
287,121,12324,1,0,1:0:0:0:
251,119,12415,1,0,1:0:0:0:
215,114,12506,1,0,1:0:0:0:
181,101,12597,1,2,1:2:0:0:
147,89,12687,1,0,1:0:0:0:
110,89,12778,1,0,1:0:0:0:
76,103,12869,1,0,1:0:0:0:
58,134,12960,1,2,1:2:0:0:
53,169,13051,1,0,1:0:0:0:
61,203,13142,1,0,1:0:0:0:
90,223,13233,1,0,1:0:0:0:
125,232,13324,2,0,L|140:321,1,67.5000025749208,8|0,0:0|0:0,0:0:0:0:
318,377,13687,6,0,B|395:318|353:203,1,180,14|0,0:0|1:0,0:0:0:0:
239,292,14233,1,2,0:0:0:0:
402,345,14415,1,10,0:0:0:0:
356,214,14597,1,0,3:0:0:0:
193,212,14778,2,0,P|148:209|91:219,1,90,0|0,1:0|0:0,0:0:0:0:
331,305,15142,2,0,B|402:318|454:261|438:186,1,180,10|0,0:0|1:0,0:0:0:0:
339,121,15687,1,2,0:0:0:0:
421,12,15869,2,0,P|429:55|425:100,1,90,10|0,0:0|3:0,0:0:0:0:
242,197,16233,2,0,P|240:152|252:108,1,90,0|0,1:0|0:0,0:0:0:0:
200,39,16597,6,0,P|119:28|14:30,1,180,10|0,0:0|1:0,0:0:0:0:
103,116,17142,1,2,0:0:0:0:
0,252,17324,1,10,0:0:0:0:
7,138,17506,1,0,3:0:0:0:
180,240,17687,1,0,1:0:0:0:
95,229,17869,1,0,1:0:0:0:
95,229,17960,1,0,1:0:0:0:
95,229,18051,2,0,B|79:274|91:322,1,90,2|0,1:2|0:0,0:0:0:0:
269,279,18415,1,8,0:0:0:0:
357,282,18597,2,0,B|401:279|443:302,1,90,2|8,1:2|0:0,0:0:0:0:
184,325,18960,5,0,1:0:0:0:
177,303,19051,1,0,1:0:0:0:
173,280,19142,1,0,1:0:0:0:
170,257,19233,1,0,1:0:0:0:
170,234,19324,1,0,1:0:0:0:
171,211,19415,1,0,1:0:0:0:
174,188,19506,2,0,L|182:98,1,90,14|0,0:0|0:0,0:0:0:0:
345,200,19869,2,0,L|252:243,1,90,0|0,1:0|0:0,0:0:0:0:
275,43,20233,2,0,L|348:94,1,90,10|0,0:0|3:0,0:0:0:0:
174,188,20597,1,0,1:0:0:0:
86,203,20778,5,0,1:0:0:0:
86,203,20869,1,0,1:0:0:0:
86,203,20960,2,0,B|-23:261|67:388,1,180,10|0,0:0|1:0,0:0:0:0:
174,188,21506,2,0,B|184:143|182:98,1,90,2|8,0:0|0:0,0:0:0:0:
101,123,21869,1,0,3:0:0:0:
146,268,22051,2,0,B|184:291|228:303,1,90,2|0,1:2|0:0,0:0:0:0:
420,196,22415,1,14,0:0:0:0:
329,66,22597,1,8,0:0:0:0:
336,211,22778,5,0,1:0:0:0:
339,233,22869,1,0,1:0:0:0:
339,255,22960,1,0,1:0:0:0:
339,277,23051,1,0,1:0:0:0:
338,299,23142,1,8,0:0:0:0:
128,359,23324,1,0,1:0:0:0:
114,325,23415,1,0,1:0:0:0:
111,289,23506,1,0,1:0:0:0:
119,253,23597,1,0,1:0:0:0:
141,224,23687,1,8,0:0:0:0:
236,325,23869,1,0,3:0:0:0:
236,325,23960,1,0,3:0:0:0:
236,325,24051,1,0,3:0:0:0:
409,356,24233,5,0,1:0:0:0:
446,331,24324,1,0,1:0:0:0:
469,293,24415,1,0,1:0:0:0:
480,248,24506,1,0,1:0:0:0:
475,203,24597,2,0,L|429:196,1,45,2|0,1:0|0:0,0:0:0:0:
342,128,24778,2,0,L|386:130,1,45,2|0,1:0|0:0,0:0:0:0:
512,74,24960,2,0,L|467:71,1,45,2|0,1:0|0:0,0:0:0:0:
336,45,25142,1,2,0:0:0:0:
336,45,25324,6,0,B|252:72|204:-9,1,144,14|0,0:0|3:0,0:0:0:0:
158,79,25869,1,2,0:0:0:0:
226,126,26051,2,0,P|226:164|220:198,1,72,10|0,0:0|0:0,0:0:0:0:
158,79,26415,2,0,P|119:79|85:84,1,72,0|0,3:0|0:0,0:0:0:0:
1,207,26778,2,0,B|38:240|103:238|131:180,1,144,10|0,0:0|3:0,0:0:0:0:
220,197,27324,1,2,0:0:0:0:
279,268,27506,2,0,L|350:258,1,72,10|0,0:0|0:0,0:0:0:0:
197,277,27869,2,0,L|125:286,1,72,0|0,3:0|0:0,0:0:0:0:
16,232,28233,6,0,B|12:270|48:313,1,72,10|0,0:0|0:0,0:0:0:0:
110,185,28597,2,0,B|113:146|77:103,1,72,2|0,3:2|0:0,0:0:0:0:
197,222,28960,2,0,B|232:205|251:153,1,72,10|0,0:0|0:0,0:0:0:0:
128,269,29324,2,0,B|108:301|118:338,1,72,2|0,3:2|0:0,0:0:0:0:
283,274,29687,2,0,B|357:244|445:258,1,144,10|0,0:0|3:0,0:0:0:0:
495,143,30233,1,0,0:0:0:0:
414,166,30415,2,0,P|418:127|426:87,1,72,8|0,0:0|0:0,0:0:0:0:
268,121,30778,2,0,P|299:143|329:171,1,72,0|0,3:0|0:0,0:0:0:0:
343,32,31142,6,0,B|171:45,1,144,10|0,0:0|3:0,0:0:0:0:
156,118,31687,1,2,0:0:0:0:
12,104,31869,2,0,B|156:118,1,144,10|0,0:0|3:0,0:0:0:0:
187,204,32415,1,0,0:0:0:0:
125,265,32597,2,0,B|125:301|137:351,1,72,10|0,0:0|0:0,0:0:0:0:
286,213,32960,2,0,B|294:178|295:141,1,72,2|0,3:2|0:0,0:0:0:0:
288,294,33324,2,0,B|252:296|216:290,1,72,10|0,0:0|0:0,0:0:0:0:
137,180,33687,2,0,B|166:159|200:146,1,72,2|0,3:2|0:0,0:0:0:0:
336,135,34051,1,10,0:0:0:0:
336,135,34415,6,0,B|341:99|339:63,1,72,2|0,3:2|0:0,0:0:0:0:
512,183,34778,2,0,B|464:266|372:220,1,144,10|0,0:0|3:0,0:0:0:0:
258,306,35324,2,0,B|252:270|254:234,1,72,2|8,0:0|0:0,0:0:0:0:
59,56,36051,2,0,L|12:54,2,36,0|0|0,3:0|3:0|3:0,0:0:0:0:
225,61,36415,1,0,1:0:0:0:
157,231,36597,1,0,1:0:0:0:
141,147,36778,5,0,1:0:0:0:
141,147,36869,1,0,1:0:0:0:
141,147,36960,2,0,B|209:150|228:138|313:142,1,161.999995056153,14|0,0:0|1:0,0:0:0:0:
397,93,37506,1,2,0:0:0:0:
303,10,37687,1,10,0:0:0:0:
397,93,37869,1,0,3:0:0:0:
495,74,38051,2,0,B|501:116|493:155,1,80.9999975280763,0|0,1:0|0:0,0:0:0:0:
336,261,38415,2,0,B|295:184|312:74,1,161.999995056153,10|0,0:0|1:0,0:0:0:0:
336,261,38960,1,2,0:0:0:0:
418,203,39142,2,0,B|445:285|409:391,1,161.999995056153,10|0,0:0|1:0,0:0:0:0:
258,352,39687,1,0,0:0:0:0:
245,272,39869,6,0,P|195:255|137:245,1,80.9999975280763,10|0,0:0|0:0,0:0:0:0:
13,136,40233,2,0,P|23:187|43:243,1,80.9999975280763,2|0,1:2|0:0,0:0:0:0:
178,159,40597,2,0,P|186:106|185:47,1,80.9999975280763,10|0,0:0|3:0,0:0:0:0:
99,109,40960,2,0,P|94:68|94:28,1,80.9999975280763,2|0,1:2|0:0,0:0:0:0:
272,84,41324,2,0,B|327:121|392:105|431:32,1,161.999995056153,10|0,0:0|1:0,0:0:0:0:
379,183,41869,1,2,0:0:0:0:
386,263,42051,2,0,L|395:343,1,80.9999975280763,10|0,0:0|3:0,0:0:0:0:
465,223,42415,2,0,L|470:142,1,80.9999975280763,2|0,1:2|0:0,0:0:0:0:
379,183,42778,6,0,B|296:190|292:162|205:170,1,161.999995056153,10|0,0:0|1:0,0:0:0:0:
103,175,43324,1,0,0:0:0:0:
18,212,43506,2,0,P|3:177|0:133,1,80.9999975280763,10|0,0:0|3:0,0:0:0:0:
186,233,43869,2,0,P|190:273|181:312,1,80.9999975280763,2|0,1:2|0:0,0:0:0:0:
100,272,44233,2,0,B|98:200|103:87,1,161.999995056153,10|0,0:0|1:0,0:0:0:0:
171,45,44778,1,0,0:0:0:0:
34,70,44960,1,10,0:0:0:0:
138,202,45142,1,0,3:0:0:0:
100,272,45324,2,0,P|100:315|105:356,1,80.9999975280763,2|0,1:2|0:0,0:0:0:0:
297,368,45687,6,0,B|343:327|346:251|273:211,1,161.999995056153,10|0,0:0|1:0,0:0:0:0:
162,190,46233,1,2,0:0:0:0:
297,368,46415,1,0,1:0:0:0:
336,219,46597,1,0,1:0:0:0:
336,219,46687,1,0,1:0:0:0:
336,219,46778,1,0,1:0:0:0:
163,288,46960,1,8,0:0:0:0:
226,71,47142,1,0,1:0:0:0:
336,219,47324,1,0,1:0:0:0:
256,192,47415,12,2,48233,0:0:0:0:
182,183,48597,6,0,B|-1:224,1,180,14|0,0:0|1:0,0:0:0:0:
172,95,49142,1,2,0:0:0:0:
254,119,49324,2,0,L|269:26,1,90,8|0,0:0|3:0,0:0:0:0:
264,215,49687,2,0,L|347:260,1,90,0|0,1:0|0:0,0:0:0:0:
512,104,50051,2,0,B|493:38|409:17|350:87,1,180,10|0,0:0|1:0,0:0:0:0:
310,139,50597,1,2,0:0:0:0:
506,216,50778,1,10,0:0:0:0:
417,68,50960,1,0,3:0:0:0:
376,231,51142,2,0,B|374:282|381:340,1,90,2|0,1:2|0:0,0:0:0:0:
297,309,51506,6,0,B|292:217|298:129,1,180,10|0,0:0|1:0,0:0:0:0:
212,244,52051,1,2,0:0:0:0:
130,280,52233,2,0,B|80:300|12:300,1,90,8|0,0:0|3:0,0:0:0:0:
59,162,52597,2,0,B|66:108|100:49,1,90,0|0,1:0|0:0,0:0:0:0:
212,244,52960,2,0,B|213:297|190:361,1,90,10|0,0:0|0:0,0:0:0:0:
169,148,53324,2,0,B|219:127|287:127,1,90,0|0,1:0|0:0,0:0:0:0:
366,94,53687,1,8,0:0:0:0:
289,203,53869,1,0,3:0:0:0:
350,273,54051,2,0,B|354:319|354:383,1,90,2|0,1:2|0:0,0:0:0:0:
180,354,54415,6,0,B|99:267|7:352,1,180,14|0,0:0|1:0,0:0:0:0:
25,153,54960,1,2,0:0:0:0:
100,193,55142,2,0,B|187:112|102:20,1,180,10|0,0:0|1:0,0:0:0:0:
232,156,55687,1,2,0:0:0:0:
313,175,55869,2,0,B|350:133|337:67,1,90,10|0,0:0|0:0,0:0:0:0:
207,5,56233,1,0,1:0:0:0:
232,156,56415,1,2,0:0:0:0:
340,91,56597,1,8,0:0:0:0:
207,5,56778,1,0,3:0:0:0:
139,70,56960,2,0,B|131:115|144:158,1,90,0|0,1:0|0:0,0:0:0:0:
356,309,57324,2,0,B|377:263|366:220,1,90,10|0,0:0|0:0,0:0:0:0:
282,261,57687,6,0,B|195:332|109:243,1,180,2|8,1:2|0:0,0:0:0:0:
291,150,58233,1,0,3:0:0:0:
381,143,58415,2,0,B|428:141|468:163,1,90,0|0,1:0|0:0,0:0:0:0:
370,265,58778,2,0,B|323:274|280:260,1,90,10|0,0:0|0:0,0:0:0:0:
42,167,59142,5,0,1:0:0:0:
31,205,59233,1,0,1:0:0:0:
26,245,59324,1,0,1:0:0:0:
23,284,59415,1,0,1:0:0:0:
25,324,59506,1,0,1:0:0:0:
198,247,59687,1,8,0:0:0:0:
42,167,59869,1,0,1:0:0:0:
114,303,60051,1,2,1:2:0:0:
281,201,60233,6,0,B|285:104|255:23,1,180,14|0,0:0|1:0,0:0:0:0:
281,201,60778,1,2,0:0:0:0:
390,186,60960,2,0,B|419:266|415:363,1,180,8|0,0:0|1:0,0:0:0:0:
329,329,61506,1,0,0:0:0:0:
390,186,61687,1,10,0:0:0:0:
486,241,61869,1,0,0:0:0:0:
329,329,62051,2,0,B|277:340|222:302,1,90,2|0,1:2|0:0,0:0:0:0:
241,146,62415,2,0,B|276:184|271:251,1,90,10|0,0:0|3:0,0:0:0:0:
134,384,62778,2,0,B|105:339|122:274,1,90,2|0,1:2|0:0,0:0:0:0:
174,230,63142,6,0,B|171:152|95:110|22:162,1,180,10|0,0:0|1:0,0:0:0:0:
0,211,63687,1,2,0:0:0:0:
207,310,63869,2,0,B|280:334|346:276|322:190,1,180,10|0,0:0|1:0,0:0:0:0:
250,118,64415,1,0,0:0:0:0:
334,25,64597,2,0,B|357:74|333:135,1,90,10|0,0:0|0:0,0:0:0:0:
250,118,64960,2,0,B|165:76|67:124,1,180,0|8,1:0|0:0,0:0:0:0:
130,193,65506,1,0,3:0:0:0:
40,252,65687,2,0,B|38:299|35:341,1,90,2|0,1:2|0:0,0:0:0:0:
312,364,66051,6,0,B|395:266|265:195,1,180,14|0,0:0|1:0,0:0:0:0:
113,150,66597,1,2,0:0:0:0:
37,193,66778,2,0,B|-46:95|83:24,1,180,10|0,0:0|1:0,0:0:0:0:
213,127,67324,1,0,0:0:0:0:
171,210,67506,2,0,L|182:299,1,90,10|0,0:0|0:0,0:0:0:0:
293,168,67869,1,0,1:0:0:0:
213,127,68051,2,0,L|216:37,1,90,2|8,0:0|0:0,0:0:0:0:
216,37,68597,1,0,1:0:0:0:
299,77,68778,1,2,0:0:0:0:
379,52,68960,6,0,B|416:54|468:47,1,90,10|0,0:0|0:0,0:0:0:0:
388,227,69324,2,0,B|278:176|216:286,1,180,2|8,1:2|0:0,0:0:0:0:
102,377,69869,1,0,3:0:0:0:
20,369,70051,2,0,B|0:325|0:281,1,90,0|0,1:0|0:0,0:0:0:0:
164,122,70415,2,0,B|176:168|168:211,1,90,10|0,0:0|0:0,0:0:0:0:
145,299,70778,1,2,1:2:0:0:
67,209,70960,1,0,0:0:0:0:
249,145,71142,1,10,0:0:0:0:
168,211,71324,1,0,3:0:0:0:
95,51,71506,1,2,1:2:0:0:
164,122,71687,1,0,1:0:0:0:
323,92,71869,6,0,B|384:101|425:66|425:66|455:92|500:89,2,180,14|0|8,0:0|1:0|0:0,0:0:0:0:
240,52,72778,1,0,3:0:0:0:
341,210,72960,1,0,1:0:0:0:
391,123,73142,1,0,0:0:0:0:
230,150,73324,2,0,B|189:145|141:132,1,90,10|0,0:0|0:0,0:0:0:0:
230,262,73687,2,0,B|239:302|243:351,1,90,2|0,1:2|0:0,0:0:0:0:
74,216,74051,2,0,B|46:117|71:20,1,180,10|0,0:2|1:0,0:0:0:0:
74,216,74597,1,0,0:0:0:0:
141,132,74778,6,0,B|220:131|243:144|321:136,1,180,10|0,0:0|1:0,0:0:0:0:
439,293,75324,1,2,0:0:0:0:
512,219,75506,2,0,B|433:220|410:207|332:215,1,180,10|0,0:0|1:0,0:0:0:0:
193,299,76051,1,0,0:0:0:0:
257,378,76233,2,0,B|278:337|273:290,1,90,10|0,0:0|0:0,0:0:0:0:
90,142,76597,2,0,B|75:185|88:231,1,90,2|0,1:2|0:0,0:0:0:0:
303,194,76960,2,0,B|264:169|217:169,1,90,10|0,0:0|3:0,0:0:0:0:
6,306,77324,2,0,B|47:323|94:314,1,90,2|0,1:2|0:0,0:0:0:0:
186,354,77687,6,0,B|170:236|178:174,1,180,14|0,0:0|1:0,0:0:0:0:
267,206,78233,1,2,0:0:0:0:
279,122,78415,2,0,B|285:81|284:32,1,90,8|0,0:0|3:0,0:0:0:0:
104,98,78778,2,0,B|94:146|93:187,1,90,0|0,1:0|3:0,0:0:0:0:
93,187,79051,1,0,3:0:0:0:
93,187,79142,1,8,0:0:0:0:
191,97,79324,1,0,0:0:0:0:
267,244,79506,1,2,1:2:0:0:
149,285,79687,2,0,L|48:275,1,90,2|8,0:0|0:0,0:0:0:0:
181,205,80051,1,2,3:2:0:0:
321,329,80233,2,0,B|427:279|368:160,1,180,2|10,1:2|0:0,0:0:0:0:
305,114,80778,5,2,0:0:0:0:
214,111,80960,2,0,B|209:65|212:22,1,90,0|0,1:0|0:0,0:0:0:0:
197,212,81324,1,8,0:0:0:0:
115,60,81506,1,0,3:0:0:0:
290,1,81687,1,0,1:0:0:0:
214,111,81869,1,0,0:0:0:0:
367,182,82051,2,0,B|456:180,1,90,10|0,0:0|0:0,0:0:0:0:
303,286,82415,2,0,B|217:309,1,90,2|0,1:2|0:0,0:0:0:0:
405,273,82778,2,0,B|430:358,1,90,10|0,0:0|3:0,0:0:0:0:
250,181,83142,2,0,B|239:92,1,90,2|0,1:2|0:0,0:0:0:0:
159,70,83506,6,0,B|80:77|44:153|101:230,1,180,14|0,0:0|1:0,0:0:0:0:
164,265,84051,1,2,0:0:0:0:
159,70,84233,1,8,0:0:0:0:
96,176,84415,1,0,3:0:0:0:
243,234,84597,1,0,1:0:0:0:
96,176,84778,1,0,1:0:0:0:
96,176,84869,1,0,1:0:0:0:
96,176,84960,2,0,B|49:171|7:175,1,90,10|0,0:0|0:0,0:0:0:0:
75,271,85324,1,0,1:0:0:0:
240,226,85506,2,0,B|251:266|254:313,1,90,2|8,0:0|0:0,0:0:0:0:
385,354,85869,5,0,1:0:0:0:
393,323,85960,1,0,1:0:0:0:
398,291,86051,1,0,1:0:0:0:
399,259,86142,1,0,1:0:0:0:
399,227,86233,1,0,1:0:0:0:
396,195,86324,1,0,1:0:0:0:
388,164,86415,2,0,B|319:75|208:151,1,180,14|0,0:0|1:0,0:0:0:0:
167,210,86960,1,2,0:0:0:0:
309,153,87142,1,10,0:0:0:0:
246,38,87324,1,0,3:0:0:0:
90,133,87506,2,0,P|82:182|84:225,1,90,0|0,1:0|0:0,0:0:0:0:
167,210,87869,6,0,B|340:255,1,180,10|0,0:0|1:0,0:0:0:0:
426,223,88415,1,2,0:0:0:0:
356,171,88597,2,0,L|396:90,1,90,10|0,0:0|3:0,0:0:0:0:
507,160,88960,2,0,L|512:249,1,90,0|0,1:0|0:0,0:0:0:0:
351,345,89324,2,0,P|342:300|340:255,1,90,10|0,0:0|0:0,0:0:0:0:
426,223,89687,2,0,P|434:267|436:311,1,90,0|0,1:0|0:0,0:0:0:0:
260,262,90051,5,10,0:0:0:0:
356,171,90233,1,0,3:0:0:0:
351,345,90415,1,0,1:0:0:0:
205,338,90597,1,0,1:0:0:0:
205,338,90687,1,0,1:0:0:0:
205,338,90778,2,0,B|126:338|83:276|112:208,1,180,10|0,0:0|1:0,0:0:0:0:
255,34,91324,2,0,B|278:76|266:123,1,90,2|8,0:0|0:0,0:0:0:0:
172,130,91687,5,0,1:0:0:0:
151,105,91778,1,0,1:0:0:0:
126,85,91869,1,0,1:0:0:0:
97,72,91960,1,0,1:0:0:0:
65,69,92051,1,0,1:0:0:0:
34,77,92142,1,0,1:0:0:0:
8,95,92233,2,0,L|-1:193,1,90,14|0,0:0|0:0,0:0:0:0:
163,275,92597,2,0,L|170:364,1,90,0|0,1:0|0:0,0:0:0:0:
76,252,92960,2,0,L|84:162,1,90,10|0,0:0|3:0,0:0:0:0:
251,295,93324,1,0,1:0:0:0:
355,252,93506,5,0,1:0:0:0:
355,252,93597,1,0,1:0:0:0:
355,252,93687,2,0,B|380:163|341:66,1,180,10|0,0:0|1:0,0:0:0:0:
168,195,94233,2,0,B|157:241|162:285,1,90,2|8,0:0|0:0,0:0:0:0:
251,295,94597,2,0,B|291:211|269:109,1,180,2|0,3:2|0:0,0:0:0:0:
96,160,95142,6,0,L|6:148,1,90,10|0,0:0|0:0,0:0:0:0:
78,241,95506,1,0,1:0:0:0:
185,147,95687,2,0,L|151:64,1,90,2|8,0:0|0:0,0:0:0:0:
64,72,96051,1,0,3:0:0:0:
165,237,96233,2,0,L|254:225,1,90,0|0,1:0|0:0,0:0:0:0:
459,132,96597,2,0,B|426:64|354:53|302:107,1,180,10|0,0:0|1:0,0:0:0:0:
239,199,97142,1,2,0:0:0:0:
366,104,97324,1,8,0:0:0:0:
345,272,97506,1,0,3:0:0:0:
179,300,97687,5,0,1:0:0:0:
147,303,97778,1,0,1:0:0:0:
115,299,97869,1,0,1:0:0:0:
84,290,97960,1,0,1:0:0:0:
54,278,98051,2,0,B|-6:195|61:110,1,180,14|0,0:0|1:0,0:0:0:0:
269,159,98597,1,2,0:0:0:0:
299,244,98778,2,0,B|381:304|466:236,1,180,10|0,0:0|1:0,0:0:0:0:
269,159,99324,1,2,0:0:0:0:
349,107,99506,2,0,B|441:61|510:141,2,180,10|0|8,0:0|1:0|0:0,0:0:0:0:
382,183,100415,5,0,3:0:0:0:
360,263,100597,1,0,1:0:0:0:
432,338,100778,2,0,B|330:360|253:356,1,180,2|0,0:0|0:0,0:0:0:0:
270,223,101324,2,0,B|262:169|240:137,1,90,0|0,1:0|0:0,0:0:0:0:
23,263,101687,2,0,B|125:285|202:281,1,180,10|0,0:0|1:0,0:0:0:0:
241,138,102233,1,0,0:0:0:0:
157,109,102415,2,0,L|168:19,1,90,10|0,0:0|0:0,0:0:0:0:
241,138,102778,1,0,1:0:0:0:
128,204,102960,1,2,0:0:0:0:
18,22,103142,1,8,0:0:0:0:
15,126,103324,5,0,1:0:0:0:
16,148,103415,1,0,1:0:0:0:
16,170,103506,1,0,1:0:0:0:
16,192,103597,1,0,1:0:0:0:
18,214,103687,1,0,1:0:0:0:
19,236,103778,1,0,1:0:0:0:
23,258,103869,2,0,B|65:318|131:315|177:259,1,180,14|0,0:0|1:0,0:0:0:0:
325,317,104415,1,2,0:0:0:0:
406,288,104597,2,0,B|437:221|401:165|330:153,1,180,10|0,0:0|1:0,0:0:0:0:
207,1,105142,1,2,0:0:0:0:
128,46,105324,2,0,B|96:112|132:168|203:180,1,180,10|0,0:0|1:0,0:0:0:0:
296,162,105869,5,2,0:0:0:0:
364,200,106051,2,0,L|453:192,1,90,8|0,0:0|3:0,0:0:0:0:
260,247,106415,1,2,1:2:0:0:
349,96,106597,1,2,0:0:0:0:
452,278,106778,1,10,0:0:0:0:
364,200,106960,1,8,0:0:0:0:
446,114,107142,5,0,1:0:0:0:
446,84,107233,1,0,1:0:0:0:
446,56,107324,1,0,1:0:0:0:
445,28,107415,1,0,1:0:0:0:
445,0,107506,1,0,1:0:0:0:
220,6,107687,5,8,0:0:0:0:
185,35,107778,1,8,0:0:0:0:
166,77,107869,1,8,0:0:0:0:
165,121,107960,1,8,0:0:0:0:
184,161,108051,2,0,L|241:187,1,45,2|0,1:0|0:0,0:0:0:0:
278,280,108233,2,0,L|237:261,1,45,2|0,1:0|0:0,0:0:0:0:
105,258,108415,2,0,L|145:276,1,45,2|0,1:0|0:0,0:0:0:0:
229,355,108597,5,0,1:0:0:0:
229,355,108687,1,0,1:0:0:0:
229,355,108778,1,0,1:0:0:0:
229,355,108869,1,0,1:0:0:0:
229,355,108960,1,0,1:0:0:0:
21,247,109142,5,0,1:0:0:0:
8,218,109233,1,0,1:0:0:0:
3,186,109324,1,0,1:0:0:0:
4,154,109415,1,0,1:0:0:0:
9,123,109506,1,0,1:0:0:0:
20,93,109597,1,0,1:0:0:0:
43,71,109687,2,0,B|134:24|237:78,1,180,14|0,0:0|1:0,0:0:0:0:
400,215,110233,1,2,0:0:0:0:
435,298,110415,2,0,B|337:328|245:257,1,180,10|0,0:0|1:0,0:0:0:0:
302,184,110960,1,2,0:0:0:0:
456,127,111142,6,0,B|468:83|462:37,1,90,10|0,0:0|0:0,0:0:0:0:
332,95,111506,2,0,B|286:85|251:58,1,90,0|0,1:0|0:0,0:0:0:0:
384,25,111869,1,8,0:0:0:0:
375,167,112051,1,0,3:0:0:0:
278,193,112233,2,0,B|266:237|272:283,1,90,2|0,1:2|0:0,0:0:0:0:
483,376,112597,2,0,B|530:284|451:209,1,180,10|0,0:0|1:0,0:0:0:0:
271,282,113142,1,2,0:0:0:0:
374,340,113324,1,8,0:0:0:0:
375,167,113506,1,0,3:0:0:0:
214,201,113687,6,0,B|124:189,1,90,0|0,1:0|0:0,0:0:0:0:
58,293,114051,1,10,0:0:0:0:
214,201,114233,1,2,0:0:0:0:
271,282,114415,2,0,B|360:269,1,90,2|0,1:2|0:0,0:0:0:0:
210,355,114778,1,8,0:0:0:0:
284,195,114960,5,0,1:0:0:0:
287,177,115051,1,0,1:0:0:0:
289,159,115142,1,0,1:0:0:0:
292,141,115233,1,0,1:0:0:0:
295,123,115324,1,0,1:0:0:0:
298,105,115415,1,0,1:0:0:0:
298,87,115506,2,0,B|228:-15|119:69,1,180,14|0,0:0|1:0,0:0:0:0:
88,125,116051,1,2,0:0:0:0:
284,195,116233,2,0,B|405:217|423:81,1,180,10|0,0:0|1:0,0:0:0:0:
186,195,116778,1,2,0:0:0:0:
151,279,116960,2,0,B|39:332|-13:205,1,180,10|0,0:0|1:0,0:0:0:0:
102,191,117506,5,2,0:0:0:0:
186,195,117687,2,0,B|233:195|275:204,1,90,8|0,0:0|3:0,0:0:0:0:
102,191,118051,1,2,1:2:0:0:
220,94,118233,1,2,0:0:0:0:
410,192,118415,6,0,B|442:237|418:295|355:312,1,135.000005149842,6|0,3:2|0:0,0:0:0:0:
289,310,118960,2,0,L|265:380,1,67.5000025749208,2|0,0:0|0:0,0:0:0:0:
218,267,119324,2,0,L|228:200,1,67.5000025749208,2|0,0:0|0:0,0:0:0:0:
146,164,119687,2,0,B|78:235|0:163,1,135.000005149842,2|0,0:0|0:0,0:0:0:0:
220,40,120415,2,0,P|257:34|288:34,1,67.5000025749208,2|0,0:0|0:0,0:0:0:0:
268,124,120778,2,0,P|274:157|285:188,1,67.5000025749208,2|0,0:0|0:0,0:0:0:0:
336,271,121142,1,2,0:0:0:0:
256,192,121233,12,2,127687,0:0:0:0:
