osu file format v14

[General]
AudioFilename: audio.mp3
AudioLeadIn: 0
PreviewTime: 75601
Countdown: 0
SampleSet: Soft
StackLeniency: 0.4
Mode: 0
LetterboxInBreaks: 0
EpilepsyWarning: 1
WidescreenStoryboard: 1

[Editor]
Bookmarks: 894,11803,13361,25829,38296,50764,63231,94010
DistanceSpacing: 0.4
BeatDivisor: 9
GridSize: 8
TimelineZoom: 3.299999

[Metadata]
Title:N.O.S (Short Ver.)
TitleUnicode:N.O.S (Short Ver.)
Artist:nao
ArtistUnicode:nao
Creator:tomatas95
Version:Saturnalize's Insane
Source:LAMUNATION!
Tags:ラムネーション! cittan* スーパースィープ eroge visual novel Sho5 to the terminus japanese vn white powder cittan kepposhi studiokpc video game electronic opening op galgame saturnalize rolni rolniczy contagious vergil chair syph Neonight Overdrive Sparking crarity Neonlight Sparkling Clarity NOS SuperSweep pop jpop j-pop trance electropop version
BeatmapID:3359866
BeatmapSetID:1570130

[Difficulty]
HPDrainRate:5
CircleSize:3.5
OverallDifficulty:7.5
ApproachRate:9
SliderMultiplier:1.8
SliderTickRate:1

[Events]
//Background and Video events
Video,0,"ILoveLAMUNATION.mp4"
0,0,"Kissudesuuu.jpg",0,0
//Break Periods
//Storyboard Layer 0 (Background)
//Storyboard Layer 1 (Fail)
//Storyboard Layer 2 (Pass)
//Storyboard Layer 3 (Foreground)
//Storyboard Layer 4 (Overlay)
//Storyboard Sound Samples

[TimingPoints]
894,389.61038961039,4,2,53,50,1,0
6153,-100,4,2,53,50,0,0
6738,-133.333333333333,4,2,53,50,0,0
7127,-133.333333333333,4,2,53,50,0,0
11803,-133.333333333333,4,2,53,50,0,0
12971,-133.333333333333,4,2,53,30,0,0
13020,-133.333333333333,4,2,53,32,0,0
13069,-133.333333333333,4,2,53,35,0,0
13118,-133.333333333333,4,2,53,38,0,0
13166,-133.333333333333,4,2,53,41,0,0
13215,-133.333333333333,4,2,53,44,0,0
13264,-133.333333333333,4,2,53,47,0,0
13312,-133.333333333333,4,2,53,50,0,0
13361,-76.9230769230769,4,2,53,80,0,0
25829,-133.333333333333,4,2,53,80,0,0
38296,-133.333333333333,4,2,53,60,0,0
50764,-100,4,2,53,70,0,0
63231,-76.9230769230769,4,2,53,80,0,0
74140,-76.9230769230769,4,2,0,80,0,0
75309,-57.1428571428571,4,2,0,80,0,0
75699,-66.6666666666667,4,2,53,90,0,1
94205,-100,4,2,53,90,0,0
94595,-100,4,2,53,5,0,0
94790,-66.6666666666667,4,2,53,90,0,1
100634,-100,4,2,53,90,0,0
104140,-200,4,2,53,90,0,0
104238,-200,4,2,53,50,0,0
104530,-76.9230769230769,4,2,53,90,0,0
104919,-100,4,2,53,90,0,0
109205,-66.6666666666667,4,2,53,90,0,0
109790,-66.6666666666667,4,2,53,90,0,0
109984,-100,4,2,53,90,0,0
110374,-76.9230769230769,4,2,53,90,0,0
110764,-66.6666666666667,4,2,53,90,0,0
111153,-100,4,2,53,90,0,0
112517,-67.1140939597315,4,2,53,90,0,0
113101,-100,4,2,53,90,0,0
116218,-100,4,2,53,75,0,0

[Colours]
Combo1 : 235,20,74
Combo2 : 128,255,255
Combo3 : 255,128,255
Combo4 : 0,128,192

[HitObjects]
256,192,894,12,0,3621,0:0:0:0:
256,192,4010,12,0,5958,0:0:0:0:
274,245,6153,6,0,P|317:213|360:196,2,90,2|2|2,0:1|0:1|0:1,0:0:0:0:
171,265,6738,6,0,P|190:300|203:334,1,67.5000025749208,0|2,0:0|0:1,0:0:0:0:
206,160,7127,6,2,B|140:188|106:125|130:124|100:63|32:86,2,202.500007724762,2|2|2,0:1|0:2|0:1,0:1:0:0:
214,171,8491,1,2,0:2:0:0:
176,280,8686,6,0,P|178:208|198:51,2,202.500007724762,0|0|2,2:2|2:0|2:2,2:1:0:0:
338,255,10244,6,0,B|404:283|438:220|414:219|444:158|512:181,2,202.500007724762,2|2|2,0:2|0:2|0:2,0:1:0:0:
213,193,11803,6,2,P|187:57|338:120,1,371.250014162064,0|0,0:0|0:0,0:1:0:0:
261,128,12971,6,0,L|252:114,7,16.8750006437302,2|2|2|2|2|2|2|2,0:3|0:3|0:3|0:3|0:3|0:3|0:3|0:3,0:0:0:0:
266,139,13361,6,0,B|196:136|186:160|176:193|102:188,1,175.499991966248,6|0,1:2|0:2,0:0:0:0:
18,213,13751,2,0,B|-13:159|-13:159|10:109,1,116.999994644165,8|2,1:2|3:2,0:0:0:0:
256,231,14140,1,0,1:0:0:0:
270,241,14238,2,0,L|257:362,1,116.999994644165,0|0,0:2|0:0,0:0:0:0:
152,384,14530,2,0,L|268:371,1,116.999994644165,10|0,1:2|3:0,0:0:0:0:
458,173,14919,6,0,L|342:160,1,116.999994644165,2|0,1:2|3:0,0:0:0:0:
252,153,15212,2,0,B|247:134|247:134|257:93,1,58.4999973220826,2|8,0:2|1:2,0:0:0:0:
350,270,15504,6,0,L|234:257,1,116.999994644165,2|0,3:2|1:0,0:0:0:0:
144,249,15797,2,0,B|139:230|139:230|149:189,1,58.4999973220826,2|0,0:2|3:2,0:0:0:0:
242,367,16088,6,0,L|126:354,1,116.999994644165,10|0,1:2|3:0,0:0:0:0:
17,195,16478,6,0,P|93:187|151:106,1,175.499991966248,2|0,1:2|0:0,0:0:0:0:
137,24,16868,1,8,1:2:0:0:
248,156,17062,1,2,3:2:0:0:
248,156,17160,1,0,0:0:0:0:
248,156,17257,2,0,P|303:175|360:164,1,116.999994644165,0|0,1:0|3:2,0:0:0:0:
512,124,17647,2,0,P|468:162|449:217,1,116.999994644165,10|0,1:2|3:0,0:0:0:0:
439,355,18036,6,0,B|350:289|350:289|226:305,1,233.999989288331,2|8,1:2|1:2,0:0:0:0:
53,331,18621,1,2,3:2:0:0:
108,164,18816,2,0,L|133:290,1,116.999994644165,0|0,1:2|3:0,0:0:0:0:
210,259,19108,1,0,1:0:0:0:
213,243,19205,2,0,L|224:185,1,58.4999973220826,8|0,0:2|0:0,0:0:0:0:
313,215,19400,2,0,L|380:224,1,58.4999973220826,0|0,1:0|0:0,0:0:0:0:
472,199,19595,6,0,L|276:215,1,175.499991966248,6|0,1:2|0:0,0:0:0:0:
299,125,19984,2,0,L|277:7,1,116.999994644165,8|2,1:2|3:2,0:0:0:0:
106,53,20374,1,0,1:2:0:0:
90,61,20471,2,0,L|68:176,1,116.999994644165,0|0,0:2|0:2,0:0:0:0:
126,272,20764,2,0,P|100:220|52:189,1,116.999994644165,10|0,1:2|3:0,0:0:0:0:
180,84,21153,6,0,L|296:71,1,116.999994644165,2|0,1:2|3:0,0:0:0:0:
386,64,21446,2,0,B|391:45|391:45|381:4,1,58.4999973220826,2|8,0:2|1:2,0:0:0:0:
288,181,21738,6,0,L|404:168,1,116.999994644165,2|0,3:2|1:0,0:0:0:0:
494,160,22031,2,0,B|499:141|499:141|489:100,1,58.4999973220826,2|0,0:2|3:2,0:0:0:0:
396,278,22322,5,10,1:2:0:0:
512,264,22516,1,2,3:2:0:0:
323,377,22712,6,0,P|242:345|203:269,1,175.499991966248,6|0,1:2|0:0,0:0:0:0:
232,187,23101,1,8,1:2:0:0:
121,324,23296,1,2,3:2:0:0:
121,324,23394,1,0,0:0:0:0:
121,324,23491,2,0,P|90:285|26:248,1,116.999994644165,0|0,1:0|3:0,0:0:0:0:
144,113,23881,2,0,P|175:152|239:189,1,116.999994644165,10|0,1:2|3:0,0:0:0:0:
370,90,24270,5,4,1:2:0:0:
352,264,24465,1,0,1:0:0:0:
512,193,24660,1,8,1:2:0:0:
512,193,24757,1,0,1:2:0:0:
512,193,24855,1,0,1:2:0:0:
251,169,25049,5,4,1:2:0:0:
233,379,25244,1,0,1:0:0:0:
187,375,25342,1,0,1:0:0:0:
141,371,25439,1,12,0:2:0:0:
95,367,25536,1,0,1:0:0:0:
49,364,25634,1,0,1:0:0:0:
67,154,25829,6,0,L|207:136,1,135.000005149842,4|0,1:2|1:0,0:0:0:0:
206,291,26413,6,0,B|260:58|260:58|383:314|383:314|431:101,1,742.500028324128,2|0,0:2|1:0,0:0:0:0:
431,100,28945,6,0,P|379:142|299:152,1,135.000005149842,2|0,1:2|1:0,0:0:0:0:
322,280,29530,6,0,B|416:221|374:1|223:-18|91:56|134:276|236:297,1,607.500023174287,2|0,0:2|1:0,0:0:0:0:
235,296,31673,5,0,1:2:0:0:
155,227,31868,1,2,0:2:0:0:
189,75,32062,2,0,P|250:105|317:110,1,135.000005149842,2|0,1:2|1:0,0:0:0:0:
479,82,32647,6,0,B|431:25|304:32|274:153|299:264|450:188|585:149|523:395|400:420|308:323,1,607.500023174287,2|0,0:2|1:0,0:0:0:0:
324,338,34790,6,0,B|332:305|332:305|321:272,1,67.5000025749208,0|0,1:0|0:0,0:0:0:0:
202,376,35179,6,0,L|340:365,1,135.000005149842,2|0,1:2|1:0,0:0:0:0:
392,235,35764,6,0,B|347:187|347:187|200:210|200:210|161:165,1,270.000010299683,2|0,0:2|0:0,0:0:0:0:
171,78,36738,6,0,L|126:85,1,33.7500012874604
344,77,37127,6,0,L|389:70,1,33.7500012874604
256,57,37614,5,0,1:0:0:0:
255,86,37712,1,0,1:0:0:0:
157,259,37906,5,0,1:0:0:0:
210,255,38004,1,0,1:0:0:0:
262,252,38101,1,0,1:0:0:0:
314,249,38199,1,0,1:0:0:0:
366,246,38296,6,0,L|201:239,2,135.000005149842,4|0|0,1:2|1:0|1:0,0:0:0:0:
471,251,39270,1,2,0:2:0:0:
471,251,39465,1,0,1:0:0:0:
416,336,39660,1,2,0:2:0:0:
314,330,39855,2,0,P|294:302|286:270,1,67.5000025749208,2|0,1:2|0:0,0:0:0:0:
310,171,40244,1,2,1:2:0:0:
155,203,40439,2,0,P|185:215|219:216,1,67.5000025749208,2|0,0:2|1:0,0:0:0:0:
310,171,40828,1,2,0:2:0:0:
310,171,41023,1,2,1:2:0:0:
329,71,41218,1,2,0:2:0:0:
249,6,41413,6,0,L|85:21,4,135.000005149842,2|0|0|0|0,1:2|1:0|1:0|1:0|1:0,0:0:0:0:
249,6,43361,5,2,1:2:0:0:
158,50,43556,2,0,P|159:94|182:123,1,67.5000025749208,2|0,0:2|1:0,0:0:0:0:
308,80,43945,1,2,0:2:0:0:
399,124,44140,2,0,P|398:168|375:197,1,67.5000025749208,2|0,1:2|0:0,0:0:0:0:
237,206,44530,6,0,P|246:274|248:340,2,135.000005149842,0|0|0,1:0|1:0|1:0,0:0:0:0:
212,107,45504,1,2,0:2:0:0:
212,107,45699,1,0,1:0:0:0:
130,167,45894,1,2,0:2:0:0:
180,254,46088,2,0,P|228:261|268:246,1,67.5000025749208,2|0,1:2|0:0,0:0:0:0:
309,177,46478,1,2,1:2:0:0:
383,309,46673,2,0,P|337:291|310:258,1,67.5000025749208,2|0,0:2|1:0,0:0:0:0:
309,177,47062,2,0,P|302:128|317:89,1,67.5000025749208,2|0,0:2|1:0,0:0:0:0:
396,38,47452,1,2,0:2:0:0:
396,38,47647,6,0,L|259:27,2,135.000005149842,2|0|0,1:2|1:0|1:0,0:0:0:0:
396,38,48816,1,2,1:2:0:0:
342,122,49010,2,0,P|342:156|354:187,1,67.5000025749208,2|0,0:2|1:0,0:0:0:0:
440,241,49400,1,2,0:2:0:0:
344,207,49595,1,2,1:2:0:0:
267,274,49790,1,2,0:2:0:0:
287,375,49984,5,0,1:0:0:0:
169,240,50179,1,2,1:2:0:0:
165,263,50277,1,0,1:0:0:0:
24,333,50471,1,0,1:0:0:0:
17,279,50569,1,0,1:0:0:0:
10,225,50666,1,0,1:0:0:0:
4,170,50764,6,0,P|102:165|180:130,2,180,4|0|0,1:2|1:0|1:0,0:0:0:0:
73,77,51738,1,2,0:2:0:0:
73,77,51932,1,0,1:0:0:0:
190,79,52127,1,2,0:2:0:0:
276,158,52322,2,0,P|285:201|277:245,1,90,2|0,1:2|0:0,0:0:0:0:
198,333,52712,1,2,1:2:0:0:
85,177,52906,2,0,P|118:147|160:131,1,90,2|0,0:2|1:0,0:0:0:0:
277,245,53296,2,0,P|310:274|352:290,1,90,2|0,0:2|1:0,0:0:0:0:
484,183,53686,1,2,0:2:0:0:
484,182,53881,6,0,P|475:249|469:370,2,180,2|0|0,1:2|1:0|1:0,0:0:0:0:
484,182,55049,5,2,1:2:0:0:
410,92,55244,2,0,P|377:127|334:148,2,90,2|0|0,0:2|1:0|0:0,0:0:0:0:
229,95,55829,5,2,1:2:0:0:
155,185,56023,2,0,P|122:150|79:129,1,90,2|0,0:2|1:0,0:0:0:0:
267,212,56413,5,2,0:2:0:0:
303,323,56608,1,0,1:0:0:0:
386,240,56803,1,2,0:2:0:0:
386,240,56900,1,0,0:0:0:0:
386,240,56997,6,0,B|288:240|315:266|209:267,1,180,4|0,1:2|1:0,0:0:0:0:
97,231,57582,1,2,0:2:0:0:
4,302,57777,1,2,1:2:0:0:
103,241,57971,1,2,0:2:0:0:
141,130,58166,1,2,1:2:0:0:
95,22,58361,1,2,0:2:0:0:
53,153,58556,2,0,L|243:144,1,180,2|0,1:2|1:0,0:0:0:0:
349,138,59140,1,2,0:2:0:0:
349,138,59335,2,0,P|362:96|357:48,1,90,0|0,1:0|0:0,0:0:0:0:
221,162,59725,1,0,1:0:0:0:
236,277,59919,1,0,0:0:0:0:
236,277,60017,1,0,0:0:0:0:
236,276,60114,6,0,P|317:239|406:229,1,180,4|2,1:2|1:2,0:0:0:0:
491,310,60699,1,2,0:2:0:0:
399,382,60894,2,0,L|298:374,1,90,0|0,1:0|0:0,0:0:0:0:
236,276,61283,2,0,L|146:283,1,90,0|0,1:0|0:0,0:0:0:0:
73,375,61673,5,4,1:2:0:0:
25,146,62062,1,0,1:0:0:0:
42,171,62160,1,0,1:0:0:0:
61,196,62257,2,0,L|60:228,4,22.5,0|0|0|0|0,1:0|1:0|1:0|1:0|1:0,0:0:0:0:
213,130,62647,5,0,1:0:0:0:
219,104,62744,1,0,1:0:0:0:
367,165,62939,5,0,1:0:0:0:
373,191,63036,1,0,1:0:0:0:
204,315,63231,6,0,P|176:269|179:201,1,116.999994644165,6|0,1:2|3:0,0:0:0:0:
217,135,63523,1,2,0:2:0:0:
217,135,63621,1,8,1:2:0:0:
369,132,63816,1,2,3:2:0:0:
431,269,64010,1,0,1:0:0:0:
422,284,64108,2,0,L|291:280,1,116.999994644165,2|0,0:2|0:0,0:0:0:0:
233,332,64400,2,0,L|102:336,1,116.999994644165,10|2,1:2|3:2,0:0:0:0:
107,350,64692,1,0,0:0:0:0:
98,365,64790,5,0,1:2:0:0:
66,193,64984,1,2,3:2:0:0:
116,335,65179,1,8,1:2:0:0:
288,303,65373,1,2,3:2:0:0:
460,271,65569,5,0,1:2:0:0:
448,283,65666,2,0,P|391:279|357:233,1,116.999994644165,2|0,0:2|0:0,0:0:0:0:
278,194,65958,2,0,P|274:165|282:137,1,58.4999973220826,10|0,1:2|0:0,0:0:0:0:
248,54,66153,2,0,P|271:36|299:29,1,58.4999973220826,2|0,3:2|0:0,0:0:0:0:
382,55,66348,5,2,1:2:0:0:
162,39,66543,1,2,3:2:0:0:
162,39,66640,1,0,0:0:0:0:
162,39,66738,1,10,1:2:0:0:
51,199,66932,1,2,3:2:0:0:
260,221,67127,1,0,1:2:0:0:
283,223,67225,2,0,P|291:288|270:349,1,116.999994644165,2|0,0:2|0:0,0:0:0:0:
195,371,67517,2,0,L|91:359,1,58.4999973220826,10|0,1:2|0:0,0:0:0:0:
49,353,67712,1,2,3:2:0:0:
49,353,67809,1,0,0:0:0:0:
49,353,67906,5,0,1:2:0:0:
205,279,68101,1,2,3:2:0:0:
376,365,68296,2,0,L|499:351,1,116.999994644165,10|0,1:2|3:0,0:0:0:0:
511,176,68686,1,0,1:2:0:0:
485,161,68783,1,2,0:2:0:0:
459,145,68881,2,0,P|430:151|404:165,1,58.4999973220826,0|0,3:0|0:0,0:0:0:0:
314,152,69075,2,0,P|304:179|303:208,1,58.4999973220826,10|0,1:2|0:0,0:0:0:0:
246,280,69270,2,0,P|265:302|290:317,1,58.4999973220826,2|0,3:2|0:0,0:0:0:0:
376,365,69465,6,0,L|253:351,1,116.999994644165,6|0,1:2|3:0,0:0:0:0:
173,330,69757,1,2,0:2:0:0:
173,330,69855,2,0,L|296:316,1,116.999994644165,8|2,1:2|3:2,0:0:0:0:
419,221,70244,6,0,L|296:207,1,116.999994644165,2|0,1:2|3:0,0:0:0:0:
216,186,70536,1,2,0:2:0:0:
216,186,70634,2,0,L|339:172,1,116.999994644165,8|2,1:2|3:2,0:0:0:0:
498,50,71023,6,0,P|425:22|369:34,1,116.999994644165,2|0,1:2|3:0,0:0:0:0:
311,71,71316,1,2,0:2:0:0:
311,71,71413,2,0,P|238:43|182:55,1,116.999994644165,8|2,1:2|3:2,0:0:0:0:
0,189,71803,6,0,P|73:161|129:173,1,116.999994644165,2|0,1:2|3:0,0:0:0:0:
187,210,72096,1,2,0:2:0:0:
187,210,72193,2,0,P|260:182|316:194,1,116.999994644165,8|2,1:2|3:2,0:0:0:0:
488,234,72582,6,0,L|478:360,1,116.999994644165,6|0,1:2|3:0,0:0:0:0:
464,361,72874,1,2,0:2:0:0:
450,371,72971,1,8,1:2:0:0:
294,288,73166,1,2,3:2:0:0:
425,170,73361,1,0,1:2:0:0:
440,161,73458,2,0,L|449:44,1,116.999994644165,2|0,0:2|0:2,0:0:0:0:
354,86,73751,2,0,L|360:6,1,58.4999973220826,10|0,1:2|0:2,0:0:0:0:
264,66,73945,2,0,L|270:-13,1,58.4999973220826,2|0,3:2|0:2,0:0:0:0:
174,43,74140,5,0,3:0:0:0:
185,135,74335,1,0,3:0:0:0:
180,151,74432,1,0,3:3:0:0:
172,169,74530,1,2,1:3:0:0:
107,249,74725,1,0,3:0:0:0:
123,253,74822,1,0,3:0:0:0:
155,285,74919,1,2,3:2:0:0:
171,281,75016,1,0,3:0:0:0:
210,255,75114,1,0,1:0:0:0:
226,259,75211,1,0,1:3:0:0:
260,291,75309,6,0,B|287:288|287:288|307:308|307:308|295:259|344:250|344:200|344:200|369:227|369:227|396:221,1,236.250002253056,4|0,1:3|0:3,0:3:0:0:
476,203,75699,6,0,L|489:59,1,135.000005149842,4|0,1:2|3:0,0:0:0:0:
471,56,75991,1,0,0:0:0:0:
454,44,76088,1,10,1:2:0:0:
305,138,76283,1,2,3:2:0:0:
354,306,76478,2,0,P|395:314|429:307,1,67.5000025749208,0|0,1:0|0:0,0:0:0:0:
451,297,76673,1,2,3:2:0:0:
259,236,76868,2,0,L|118:257,1,135.000005149842,8|2,1:2|3:2,0:0:0:0:
109,268,77160,1,0,0:0:0:0:
92,279,77257,6,0,P|52:236|69:168,1,135.000005149842,2|0,1:2|3:0,0:0:0:0:
221,77,77647,1,10,1:2:0:0:
375,161,77842,2,0,L|364:281,1,67.5000025749208,2|0,3:2|0:0,0:0:0:0:
362,315,78036,1,0,1:2:0:0:
371,333,78134,1,0,0:0:0:0:
380,350,78231,1,2,3:2:0:0:
283,261,78426,2,0,P|216:257|164:297,1,135.000005149842,8|0,1:2|3:0,0:0:0:0:
116,371,78718,1,0,0:0:0:0:
101,356,78816,5,2,1:2:0:0:
99,181,79010,1,2,3:2:0:0:
222,56,79205,1,10,1:2:0:0:
397,55,79400,1,2,3:2:0:0:
406,72,79497,1,0,0:2:0:0:
415,90,79595,6,0,P|357:110|331:132,1,67.5000025749208,0|0,1:0|0:0,0:0:0:0:
265,128,79790,2,0,P|253:188|259:221,1,67.5000025749208,2|0,3:2|0:0,0:0:0:0:
207,268,79984,2,0,P|253:308|285:319,1,67.5000025749208,10|0,1:2|0:0,0:0:0:0:
315,378,80179,2,0,P|373:358|399:336,1,67.5000025749208,2|0,3:2|0:0,0:0:0:0:
449,303,80374,6,0,L|456:151,2,135.000005149842,2|2|10,1:2|3:2|1:2,0:0:0:0:
289,376,80958,1,2,3:2:0:0:
281,357,81056,1,0,0:0:0:0:
274,338,81153,1,0,1:0:0:0:
152,211,81348,1,2,3:2:0:0:
319,159,81543,2,0,L|239:173,1,67.5000025749208,10|0,1:2|0:0,0:0:0:0:
156,194,81738,2,0,L|76:208,1,67.5000025749208,0|0,1:0|0:0,0:0:0:0:
5,224,81932,6,0,P|93:240|217:271,1,202.500007724762,4|0,1:2|0:0,0:0:0:0:
320,292,82322,2,0,P|311:225|319:156,1,135.000005149842,10|0,1:2|3:0,0:0:0:0:
339,72,82614,1,0,0:0:0:0:
355,84,82712,1,2,1:2:0:0:
512,11,82906,1,2,3:2:0:0:
370,94,83101,1,10,1:2:0:0:
210,19,83296,1,2,3:2:0:0:
54,100,83491,6,0,L|43:236,1,135.000005149842,2|0,1:2|3:0,0:0:0:0:
37,322,83783,1,0,0:0:0:0:
51,335,83881,1,10,1:2:0:0:
223,251,84075,1,2,3:2:0:0:
158,78,84270,1,0,1:0:0:0:
145,94,84368,2,0,L|134:230,1,135.000005149842,2|0,0:2|0:0,0:0:0:0:
237,94,84660,2,0,L|229:187,1,67.5000025749208,10|0,1:2|0:0,0:0:0:0:
230,259,84855,1,2,3:2:0:0:
230,259,84952,1,0,0:2:0:0:
230,259,85049,5,4,1:2:0:0:
393,322,85244,1,0,3:0:0:0:
369,147,85439,1,8,1:2:0:0:
369,147,85634,1,0,3:0:0:0:
177,182,85829,5,0,1:2:0:0:
14,245,86024,1,0,3:0:0:0:
38,70,86219,1,8,1:2:0:0:
38,70,86414,1,0,3:0:0:0:
242,123,86608,6,0,P|264:186|237:246,1,135.000005149842,4|0,1:2|0:0,0:0:0:0:
173,307,86900,1,0,1:0:0:0:
111,240,86997,2,0,P|89:177|116:117,1,135.000005149842,8|0,1:2|1:2,0:0:0:0:
253,4,87387,5,4,0:2:0:0:
286,9,87484,1,0,1:0:0:0:
319,14,87582,1,0,1:0:0:0:
352,19,87679,1,0,0:0:0:0:
379,73,87777,5,14,1:2:0:0:
329,80,87874,1,2,0:2:0:0:
281,88,87972,1,2,1:2:0:0:
232,95,88069,1,2,1:2:0:0:
200,146,88166,6,0,L|407:177,1,202.500007724762,4|0,1:2|0:0,0:0:0:0:
453,246,88556,2,0,P|407:296|342:301,1,135.000005149842,8|2,1:2|3:2,0:0:0:0:
193,213,88945,2,0,L|200:142,1,67.5000025749208,0|0,1:0|0:0,0:0:0:0:
202,112,89140,1,2,3:2:0:0:
27,93,89335,2,0,L|40:227,1,135.000005149842,8|2,1:2|3:2,0:0:0:0:
107,284,89627,1,0,0:2:0:0:
102,303,89725,6,0,P|162:324|232:290,1,135.000005149842,2|0,1:2|3:0,0:0:0:0:
338,163,90114,1,10,1:2:0:0:
497,236,90309,2,0,L|488:312,1,67.5000025749208,2|0,3:2|0:0,0:0:0:0:
422,360,90504,1,0,1:2:0:0:
401,357,90601,1,0,0:0:0:0:
380,354,90699,1,2,3:2:0:0:
281,179,90894,2,0,L|459:162,1,135.000005149842,8|0,1:2|3:0,0:0:0:0:
503,157,91186,1,0,0:0:0:0:
506,137,91283,5,2,1:2:0:0:
381,13,91478,1,2,3:2:0:0:
206,35,91673,1,10,1:2:0:0:
115,186,91868,1,2,3:2:0:0:
128,201,91965,1,0,0:0:0:0:
139,216,92062,6,0,P|162:188|193:170,1,67.5000025749208,0|0,1:0|0:0,0:0:0:0:
254,112,92257,2,0,P|289:117|320:134,1,67.5000025749208,2|0,3:2|0:0,0:0:0:0:
401,158,92452,2,0,P|414:191|414:226,1,67.5000025749208,10|0,1:2|0:0,0:0:0:0:
434,309,92647,2,0,P|411:337|380:355,1,67.5000025749208,2|0,3:2|0:0,0:0:0:0:
299,333,92842,6,0,L|141:360,1,135.000005149842,2|2,1:2|3:2,0:0:0:0:
46,227,93231,1,10,1:2:0:0:
46,227,93426,1,2,3:2:0:0:
164,97,93621,2,0,P|237:105|288:156,1,135.000005149842,0|2,1:0|3:2,0:0:0:0:
299,230,93913,1,0,1:0:0:0:
293,249,94010,1,8,1:2:0:0:
101,335,94205,6,0,L|70:107,1,225,0|0,1:3|0:2,0:2:0:0:
0,58,94790,5,12,1:2:0:0:
173,77,94984,1,2,3:2:0:0:
347,99,95179,1,2,1:2:0:0:
512,92,95374,2,0,P|467:111|444:156,1,67.5000025749208,2|0,3:2|0:0,0:0:0:0:
339,111,95569,2,0,P|294:130|271:175,1,67.5000025749208,10|0,1:2|0:0,0:0:0:0:
165,133,95764,2,0,P|120:152|97:197,1,67.5000025749208,2|0,3:2|0:0,0:0:0:0:
80,276,95958,6,0,L|214:286,1,135.000005149842,2|0,1:2|3:0,0:0:0:0:
303,294,96251,1,0,0:0:0:0:
314,310,96348,1,10,1:2:0:0:
150,373,96543,1,2,3:2:0:0:
51,200,96738,1,0,1:0:0:0:
69,189,96835,2,0,L|203:199,1,135.000005149842,2|0,0:2|0:0,0:0:0:0:
58,102,97127,2,0,L|179:111,1,67.5000025749208,10|0,1:2|0:0,0:0:0:0:
213,113,97322,1,2,3:2:0:0:
233,115,97419,1,2,0:2:0:0:
253,116,97517,6,0,P|304:57|299:1,1,135.000005149842,4|0,1:2|3:0,0:0:0:0:
124,1,97906,1,10,1:2:0:0:
23,145,98101,1,2,3:2:0:0:
43,146,98199,1,0,0:0:0:0:
62,152,98296,2,0,P|124:190|158:245,1,135.000005149842,0|0,1:0|3:0,0:0:0:0:
355,241,98686,2,0,P|392:185|450:152,1,135.000005149842,8|0,1:2|3:0,0:0:0:0:
469,146,98977,1,0,0:0:0:0:
489,145,99075,5,6,1:2:0:0:
463,318,99270,1,0,1:0:0:0:
290,292,99465,1,8,1:2:0:0:
290,292,99562,1,0,1:0:0:0:
290,292,99660,1,0,1:0:0:0:
316,119,99855,5,4,1:2:0:0:
62,83,100049,1,0,1:2:0:0:
54,147,100147,1,0,1:0:0:0:
45,209,100244,1,12,0:2:0:0:
35,273,100342,1,0,1:0:0:0:
26,337,100439,1,0,1:2:0:0:
280,373,100634,6,0,L|309:182,1,180,4|0,1:2|0:0,0:0:0:0:
379,293,101218,1,0,1:0:0:0:
379,293,101413,2,0,P|421:308|466:302,1,90,2|0,0:3|0:0,0:0:0:0:
307,195,101803,2,0,P|262:189|220:204,1,90,0|0,0:3|1:0,0:0:0:0:
117,316,102192,6,0,L|23:301,1,90,2|0,1:2|0:0,0:0:0:0:
19,148,102582,1,2,0:2:0:0:
40,140,102679,2,0,L|84:147,1,45,0|0,1:2|0:0,0:0:0:0:
231,114,102971,6,0,L|246:224,1,90,2|0,0:3|0:0,0:0:0:0:
382,293,103361,2,0,L|394:203,1,90,2|0,0:2|0:0,0:0:0:0:
415,33,103751,5,0,0:0:0:0:
415,33,104140,6,0,B|412:72,3,22.5,2|2|2|2,0:2|0:3|0:3|0:3,0:0:0:0:
458,134,104530,6,0,B|402:154|402:154|349:121,1,116.999994644165,8|0,0:1|0:0,0:0:0:0:
203,29,104919,2,0,B|208:97|208:97|228:129|228:129|234:205,1,180,2|0,1:2|0:0,0:0:0:0:
245,292,105504,1,0,1:0:0:0:
318,239,105699,1,0,1:0:0:0:
162,252,105894,2,0,L|104:245,1,45
169,261,106088,1,8,0:1:0:0:
314,231,106283,2,0,L|405:219,1,90,0|0,1:0|0:0,0:0:0:0:
487,211,106608,2,0,P|496:239|481:290,1,60,2|2,0:0|0:0,0:0:0:0:
314,231,106868,6,0,B|288:187|308:140|326:145|355:101|324:50,1,180,2|0,1:2|0:0,0:0:0:0:
329,60,107647,1,8,0:1:0:0:
244,90,107842,1,2,1:2:0:0:
161,55,108036,2,0,P|155:33|156:10,1,45,2|0,0:2|1:0,0:0:0:0:
71,43,108231,1,2,0:2:0:0:
1,99,108426,6,0,L|20:228,1,90,2|0,1:2|0:0,0:0:0:0:
86,254,108718,1,0,1:0:0:0:
88,271,108816,2,0,L|99:348,1,45,2|0,0:2|0:0,0:0:0:0:
178,384,109010,1,2,1:2:0:0:
182,366,109108,1,0,1:0:0:0:
187,349,109205,6,0,L|206:215,1,135.000005149842,8|2,0:1|0:2,0:0:0:0:
98,131,109497,6,0,L|205:215,1,135.000005149842,8|0,0:1|0:2,0:0:0:0:
368,297,109790,5,8,0:1:0:0:
368,297,109887,1,8,0:1:0:0:
368,297,109984,2,0,P|385:341|368:397,2,60,2|2|0,0:2|0:2|0:2,0:0:0:0:
408,216,110374,2,0,P|454:209|509:240,2,77.9999964294435,8|2|2,0:3|0:2|0:2,0:0:0:0:
330,164,110764,6,0,L|205:215,1,135.000005149842,8|0,0:1|0:2,0:0:0:0:
87,343,111153,6,0,B|91:265|91:265|74:251|74:251|79:172,1,180,0|0,1:0|0:0,0:0:0:0:
20,101,111738,1,0,1:0:0:0:
162,116,111932,1,0,1:0:0:0:
175,114,112030,2,0,P|207:83|205:43,1,45,8|0,0:1|0:0,0:0:0:0:
293,120,112225,1,0,1:0:0:0:
302,111,112323,2,0,P|313:91|315:69,1,45,8|0,0:1|0:0,0:0:0:0:
406,67,112517,6,0,P|405:44|395:24,2,45,2|0|0,1:2|1:0|1:0,0:0:0:0:
420,77,112712,6,0,L|440:171,1,67.0499963679888,8|0,0:1|0:0,0:0:0:0:
512,243,112906,2,0,L|418:223,1,67.0499963679888,8|0,0:1|0:0,0:0:0:0:
469,326,113101,5,2,1:2:0:0:
469,326,113296,1,0,0:0:0:0:
343,243,113491,5,2,1:2:0:0:
356,336,113686,1,2,0:2:0:0:
230,263,113881,5,0,1:2:0:0:
230,263,114076,1,2,0:2:0:0:
104,180,114271,5,2,1:2:0:0:
117,273,114465,2,0,L|127:339,1,45,2|0,0:2|0:0,0:0:0:0:
0,194,114660,5,0,1:0:0:0:
212,166,114855,1,2,1:2:0:0:
302,110,115049,5,0,1:2:0:0:
90,82,115244,1,0,1:0:0:0:
117,273,115439,5,2,1:2:0:0:
120,295,115536,1,0,1:0:0:0:
123,317,115633,1,0,1:0:0:0:
126,339,115732,1,0,1:0:0:0:
129,361,115829,6,0,L|203:341,4,45,0|0|2|2|4,1:0|0:2|0:2|0:2|0:3,0:0:0:0:
