osu file format v14

[General]
AudioFilename: audio.mp3
AudioLeadIn: 0
PreviewTime: 75601
Countdown: 0
SampleSet: Soft
StackLeniency: 0.7
Mode: 0
LetterboxInBreaks: 0
EpilepsyWarning: 1
WidescreenStoryboard: 0

[Editor]
Bookmarks: 894,11803,13361,25829,38296,50764,63231,94010
DistanceSpacing: 0.3
BeatDivisor: 4
GridSize: 8
TimelineZoom: 1.6

[Metadata]
Title:N.O.S (Short Ver.)
TitleUnicode:N.O.S (Short Ver.)
Artist:nao
ArtistUnicode:nao
Creator:tomatas95
Version:Easy
Source:LAMUNATION!
Tags:ラムネーション! cittan* スーパースィープ eroge visual novel Sho5 to the terminus japanese vn white powder cittan kepposhi studiokpc video game electronic opening op galgame saturnalize rolni rolniczy contagious vergil chair syph Neonight Overdrive Sparking crarity Neonlight Sparkling Clarity NOS SuperSweep pop jpop j-pop trance electropop version
BeatmapID:3359861
BeatmapSetID:1570130

[Difficulty]
HPDrainRate:2
CircleSize:2.5
OverallDifficulty:3
ApproachRate:4
SliderMultiplier:1
SliderTickRate:1

[Events]
//Background and Video events
Video,0,"ILoveLAMUNATION.mp4"
0,0,"MyWaifuusNyaa.jpg",0,0
//Break Periods
2,26029,36856
//Storyboard Layer 0 (Background)
//Storyboard Layer 1 (Fail)
//Storyboard Layer 2 (Pass)
//Storyboard Layer 3 (Foreground)
//Storyboard Layer 4 (Overlay)
//Storyboard Sound Samples

[TimingPoints]
894,389.61038961039,4,2,1,50,1,0
894,-100,4,2,1,50,0,0
7127,-100,4,2,1,55,0,0
8686,-100,4,2,1,60,0,0
10244,-100,4,2,1,65,0,0
11413,-100,4,2,1,70,0,0
11803,-100,4,2,1,45,0,0
12971,-100,4,2,1,55,0,0
13361,-100,4,2,1,80,0,0
13556,-100,4,2,1,75,0,0
16478,-100,4,2,1,80,0,0
16673,-100,4,2,1,75,0,0
19595,-100,4,2,1,80,0,0
19790,-100,4,2,1,75,0,0
22712,-100,4,2,1,80,0,0
22907,-100,4,2,1,75,0,0
25829,-100,4,2,3,70,0,0
26023,-100,4,2,3,45,0,0
36738,-100,4,2,1,50,0,0
37517,-100,4,2,1,55,0,0
38296,-100,4,2,1,60,0,0
38491,-100,4,2,1,55,0,0
39270,-100,4,2,1,60,0,0
41413,-100,4,2,1,55,0,0
43361,-100,4,2,1,60,0,0
44140,-100,4,2,1,55,0,0
45309,-100,4,2,1,60,0,0
47647,-100,4,2,1,55,0,0
48816,-100,4,2,1,60,0,0
50179,-100,4,2,1,70,0,0
50764,-100,4,2,1,65,0,0
51153,-100,4,2,1,60,0,0
51738,-100,4,2,1,65,0,0
53881,-100,4,2,1,60,0,0
55049,-100,4,2,1,65,0,0
56997,-100,4,2,1,55,0,0
57192,-100,4,2,1,60,0,0
57582,-100,4,2,1,65,0,0
59335,-100,4,2,1,60,0,0
59725,-100,4,2,1,65,0,0
60114,-100,4,2,1,70,0,0
60504,-100,4,2,1,65,0,0
60894,-100,4,2,1,60,0,0
61673,-100,4,2,1,65,0,0
63231,-100,4,2,1,70,0,0
69465,-100,4,2,1,60,0,0
70244,-100,4,2,1,65,0,0
71023,-100,4,2,1,70,0,0
71803,-100,4,2,1,75,0,0
72582,-100,4,2,1,80,0,0
72777,-100,4,2,1,70,0,0
74140,-100,4,2,1,60,0,0
75309,-100,4,2,1,70,0,0
75699,-100,4,2,3,85,0,1
75991,-100,4,2,1,85,0,1
87387,-100,4,2,1,85,0,0
88166,-100,4,2,1,85,0,1
94010,-100,4,2,1,85,0,0
94400,-100,4,2,1,60,0,0
94790,-100,4,2,3,85,0,1
94984,-100,4,2,1,85,0,1
100634,-100,4,2,1,80,0,1
103751,-100,4,2,1,45,0,0
104238,-100,4,2,1,60,0,0
104530,-100,4,2,1,70,0,0
104919,-100,4,2,1,75,0,0
106283,-100,4,2,1,65,0,0
106868,-100,4,2,1,75,0,0
108426,-100,4,2,1,65,0,0
109205,-100,4,2,1,75,0,0
109984,-100,4,2,1,60,0,0
110374,-100,4,2,1,60,0,0
110764,-100,4,2,1,65,0,0
111153,-100,4,2,1,75,0,0
113101,-100,4,2,1,65,0,0
114660,-100,4,2,1,70,0,0
115829,-100,4,2,1,60,0,0
116218,-100,4,2,1,15,0,0

[Colours]
Combo1 : 248,184,120
Combo2 : 213,237,126
Combo3 : 98,158,249
Combo4 : 196,154,134

[HitObjects]
109,379,11803,6,2,B|80:324|146:246|146:246|169:166|71:101,1,300,2|2,0:1|0:2,0:1:0:0:
34,46,13361,6,0,B|8:25|8:25|-22:86|1:156,2,150,6|2|10,1:2|3:2|0:0,0:0:0:0:
90,115,14919,1,2,1:2:0:0:
154,51,15309,2,0,P|201:45|261:54,1,100,10|2,0:0|1:2,0:0:0:0:
338,78,16088,1,10,0:0:0:0:
354,166,16478,6,0,P|407:142|421:45,2,150,6|2|10,1:2|3:2|0:0,0:0:0:0:
263,165,18036,2,0,P|210:141|196:44,2,150,2|2|10,1:2|3:2|0:0,0:0:0:0:
313,240,19595,6,0,B|326:306|309:350|309:350|347:387,2,150,6|2|10,1:2|3:2|0:0,0:0:0:0:
355,166,21153,1,2,1:2:0:0:
442,143,21543,2,0,L|452:245,1,100,10|2,0:0|1:2,0:0:0:0:
488,324,22322,1,10,0:0:0:0:
400,344,22712,6,0,B|329:373|329:373|254:330,2,150,6|2|10,1:2|3:2|0:0,0:0:0:0:
336,279,24270,2,0,P|332:235|340:163,1,100,6|2,1:2|1:3,0:0:0:0:
388,106,25049,1,2,1:3:0:0:
309,61,25439,1,10,2:2:0:0:
238,116,25829,5,4,3:2:0:0:
106,355,38296,6,0,B|71:359|71:359|44:348|44:348|-3:348,2,100,6|0|0,1:2|1:0|1:0,0:0:0:0:
187,317,39465,1,2,1:2:0:0:
150,234,39855,2,0,P|75:253|-3:224,2,150,2|2|2,1:2|0:0|1:2,0:0:0:0:
173,147,41413,6,0,B|175:85|235:53|287:64|327:117|327:117|365:153|408:166|461:158|507:117,1,400,2|0,1:2|1:0,0:0:0:0:
501,34,43361,2,0,P|459:46|390:29,1,100,2|0,1:2|1:0,0:0:0:0:
321,1,44140,1,2,1:2:0:0:
1,167,45699,5,2,1:2:0:0:
62,235,46088,2,0,B|52:361|52:361|75:377,2,150,2|2|0,1:2|0:0|1:0,0:0:0:0:
129,174,47647,2,0,B|173:184|196:140|196:140|222:113|273:123|276:183|233:199,1,200,2|0,1:2|1:0,0:0:0:0:
197,314,49010,2,0,L|407:335,1,200,2|2,0:0|0:0,0:0:0:0:
484,348,50179,1,2,1:3:0:0:
467,214,50764,6,0,B|421:227|421:227|352:202,2,100,6|0|0,1:2|1:0|1:0,0:0:0:0:
510,135,51932,1,2,1:2:0:0:
484,48,52322,2,0,P|418:20|334:49,1,150,2|2,1:2|0:0,0:0:0:0:
275,96,53296,1,2,0:0:0:0:
332,218,53881,6,0,B|290:195|240:236|240:236|197:197|128:217,1,200,2|0,1:2|1:0,0:0:0:0:
59,232,55049,2,0,L|48:176,1,50,2|2,1:2|0:0,0:0:0:0:
5,54,55829,2,0,B|45:18|83:34|83:34|125:84|206:44,1,200,2|2,1:2|1:2,0:0:0:0:
272,21,56997,5,6,1:2:0:0:
442,80,57777,1,2,1:2:0:0:
430,169,58166,1,2,1:2:0:0:
355,220,58556,2,0,P|417:258|487:238,2,150,2|2|2,1:2|0:0|1:2,0:0:0:0:
281,170,60114,6,0,B|232:154|232:154|170:168,1,100,6|2,1:2|1:2,0:0:0:0:
96,184,60894,2,0,B|70:188|31:159|31:159|40:223|30:287,1,200,2|6,1:2|1:2,0:0:0:0:
62,370,62062,1,2,1:3:0:0:
140,324,62452,1,0,1:3:0:0:
316,356,63231,6,0,B|312:279|312:279|333:243,1,100,6|8,1:2|0:2,0:0:0:0:
361,177,64010,2,0,P|412:230|405:303,2,150,2|2|8,1:2|0:0|0:2,0:0:0:0:
275,149,65569,2,0,P|271:102|280:42,1,100,2|8,1:2|0:2,0:0:0:0:
359,11,66348,5,2,1:2:0:0:
448,23,66738,1,10,0:2:0:0:
468,110,67127,2,0,L|488:272,2,150,2|2|10,1:2|3:2|0:2,0:0:0:0:
318,23,69075,1,10,0:2:0:0:
260,91,69465,6,0,P|216:106|151:88,1,100,2|8,1:1|0:0,0:0:0:0:
113,170,70244,2,0,P|147:200|164:265,1,100,2|8,1:1|0:0,0:0:0:0:
254,255,71023,2,0,P|263:209|311:162,1,100,2|8,1:1|0:0,0:0:0:0:
370,117,71803,1,2,1:1:0:0:
459,127,72192,1,8,0:0:0:0:
479,214,72582,6,0,P|472:249|485:320,1,100,6|10,1:2|0:2,0:0:0:0:
419,376,73361,2,0,P|392:352|324:328,1,100,2|8,1:2|0:2,0:0:0:0:
382,253,74140,1,0,1:0:0:0:
14,116,75699,6,0,B|4:161|4:161|16:207|16:207|-2:274,1,150,6|2,1:2|0:0,0:0:0:0:
18,349,76673,1,0,3:0:0:0:
102,318,77062,2,0,B|142:307|183:366|183:366|235:385|288:333,1,200,2|0,0:0|0:0,0:0:0:0:
357,309,78231,1,2,0:0:0:0:
466,229,78816,6,0,P|458:161|482:61,2,150,2|2|8,1:2|0:0|0:1,0:0:0:0:
375,229,80374,2,0,P|370:179|351:115,1,100,2|8,1:2|0:1,0:0:0:0:
336,43,81153,1,2,1:2:0:0:
253,78,81543,1,8,0:1:0:0:
179,26,81932,6,0,B|138:29|138:29|112:16|112:16|65:18,1,100,6|8,1:2|0:1,0:0:0:0:
34,93,82712,2,0,L|46:205,1,100,2|8,1:2|0:1,0:0:0:0:
125,222,83491,2,0,P|77:276|4:272,2,150,2|2|8,1:2|0:0|0:1,0:0:0:0:
136,132,85049,5,6,1:2:0:0:
220,101,85439,2,0,L|206:-9,2,100,8|2|8,0:1|1:2|0:1,0:0:0:0:
230,190,86608,2,0,L|244:300,1,100,6|2,1:2|1:3,0:0:0:0:
309,349,87387,1,2,0:0:0:0:
402,350,87777,1,8,0:1:0:0:
469,290,88166,6,0,B|470:159|470:159|442:137,1,150,6|2,1:2|0:0,0:0:0:0:
365,139,89140,1,0,3:0:0:0:
311,211,89530,2,0,B|265:223|229:208|229:208|203:152|236:76,1,200,2|0,0:0|0:0,0:0:0:0:
280,20,90699,1,2,0:0:0:0:
414,34,91283,6,0,B|441:21|469:29|469:29|488:64|482:134,2,150,2|2|8,1:2|0:0|0:1,0:0:0:0:
382,118,92842,2,0,P|379:163|388:234,1,100,2|8,1:2|0:1,0:0:0:0:
459,267,93621,1,2,1:2:0:0:
425,350,94010,1,8,0:1:0:0:
255,288,94790,6,0,B|256:253|256:253|251:221|251:221|255:174,1,100,6|2,1:2|1:2,0:0:0:0:
225,102,95569,1,8,0:1:0:0:
155,45,95958,2,0,P|92:15|8:57,2,150,2|2|8,1:2|0:0|0:1,0:0:0:0:
86,104,97517,6,0,B|80:166|80:166|85:187|85:187|73:271,2,150,6|2|8,1:2|0:0|0:1,0:0:0:0:
153,43,99075,2,0,B|193:43|193:43|222:30|222:30|263:31,1,100,2|8,1:3|0:1,0:0:0:0:
336,2,99855,1,6,1:2:0:0:
388,74,100244,1,8,0:1:0:0:
366,161,100634,6,0,B|352:222|414:254|414:254|452:291|438:362|354:367|331:306,1,300,6|0,1:2|3:0,0:0:0:0:
267,251,102192,1,2,1:2:0:0:
177,264,102582,1,0,3:0:0:0:
149,349,102971,2,0,P|111:360|44:343,1,100,10|2,0:2|3:2,0:0:0:0:
7,270,103751,5,2,0:1:0:0:
3,90,104530,1,8,3:0:0:0:
87,59,104919,6,0,B|128:23|165:39|165:39|207:89|287:55,1,200,6|0,1:2|1:0,0:0:0:0:
352,26,106088,2,0,B|384:25|384:25|400:20|400:20|420:27|420:27|460:20,1,100,8|0,3:1|0:0,0:0:0:0:
482,105,106868,6,0,B|496:162|461:199|461:199|495:250|462:309,1,200,2|8,1:2|3:1,0:0:0:0:
405,356,108036,1,2,0:0:0:0:
334,298,108426,2,0,P|330:251|343:195,1,100,2|0,1:3|0:0,0:0:0:0:
308,115,109205,2,0,P|269:141|214:157,2,100,8|8|4,3:1|0:1|3:0,0:0:0:0:
156,17,110764,5,8,1:1:0:0:
68,36,111153,2,0,B|39:9|39:9|5:91|41:171,1,200,4|2,1:2|1:3,0:0:0:0:
84,244,112322,1,8,3:1:0:0:
35,320,112712,1,8,3:1:0:0:
110,368,113101,6,0,B|159:356|159:356|213:370,1,100,2|2,1:2|1:2,0:0:0:0:
281,317,113881,2,0,B|246:280|246:280|231:226,1,100,2|2,1:2|1:2,0:0:0:0:
271,151,114660,1,2,1:3:0:0:
360,152,115049,1,2,1:3:0:0:
432,205,115439,2,0,B|455:234|463:291|423:345|423:345|383:315,1,200,0|4,1:3|3:0,0:0:0:0:
