osu file format v14

[General]
AudioFilename: audio.mp3
AudioLeadIn: 0
PreviewTime: 532
Countdown: 1
SampleSet: Soft
StackLeniency: 0.7
Mode: 0
LetterboxInBreaks: 0
WidescreenStoryboard: 0

[Editor]
DistanceSpacing: 0.9
BeatDivisor: 4
GridSize: 4
TimelineZoom: 1.3

[Metadata]
Title:Miraifuraggu
TitleUnicode:未来フラッグ
Artist:nao
ArtistUnicode:nao
Creator:suli
Version:Endless dungeon
Source:Endless dungeon
Tags:Endless dungeon
BeatmapID:1588712
BeatmapSetID:754640

[Difficulty]
HPDrainRate:6
CircleSize:4
OverallDifficulty:8.8
ApproachRate:9.3
SliderMultiplier:1.4
SliderTickRate:1

[Events]
//Background and Video events
0,0,"6d79a105.jpg",0,0
//Break Periods
2,201398,202978
//Storyboard Layer 0 (Background)
//Storyboard Layer 1 (Fail)
//Storyboard Layer 2 (Pass)
//Storyboard Layer 3 (Foreground)
//Storyboard Sound Samples

[TimingPoints]
199,333.333333333333,4,2,1,30,1,0
1532,-76.9230769230769,4,2,1,30,0,0
16032,-71.4285714285714,4,2,1,50,0,0
36198,-133.333333333333,4,2,1,50,0,0
36532,-100,4,2,1,50,0,0
60115,-76.9230769230769,4,2,1,50,0,0
67032,-66.6666666666667,4,2,1,50,0,0
68032,-66.6666666666667,4,2,1,60,0,1
106865,-76.9230769230769,4,2,1,50,0,0
113865,-71.4285714285714,4,2,1,50,0,0
124865,-100,4,2,1,50,0,0
148198,-76.9230769230769,4,2,1,50,0,0
155032,-66.6666666666667,4,2,1,50,0,0
156032,-66.6666666666667,4,2,1,60,0,1
196198,-76.9230769230769,4,2,1,50,0,0
201532,-100,4,2,1,50,0,0
236865,-66.6666666666667,4,2,1,60,0,1
255532,-83.3333333333333,4,2,1,40,0,0
263198,-71.4285714285714,4,2,1,40,0,0

[HitObjects]
116,80,532,5,0,0:0:0:0:
116,80,865,1,0,0:0:0:0:
116,80,1198,1,0,0:0:0:0:
116,80,1532,6,0,P|168:116|200:116,1,90.9999958343508
136,216,1865,2,0,P|188:252|228:248,1,90.9999958343508
304,132,2198,1,0,0:0:0:0:
212,256,2365,1,0,0:0:0:0:
368,296,2532,2,0,B|416:316|416:316|436:260|380:184,1,181.999991668702
304,96,3032,6,0,P|372:112|404:92,1,90.9999958343508
200,96,3365,2,0,P|172:52|120:44,1,90.9999958343508
28,108,3698,1,0,0:0:0:0:
136,40,3865,1,0,0:0:0:0:
64,208,4032,1,0,0:0:0:0:
160,136,4198,2,0,B|200:92|200:92|180:248,1,181.999991668702
184,213,4698,5,0,0:0:0:0:
216,304,4865,1,0,0:0:0:0:
312,300,5032,1,0,0:0:0:0:
324,204,5198,1,0,0:0:0:0:
176,228,5365,5,0,0:0:0:0:
207,318,5532,1,0,0:0:0:0:
303,314,5699,1,0,0:0:0:0:
316,216,5865,2,0,B|360:196|360:196|416:248|512:212,1,181.999991668702
436,132,6365,5,0,0:0:0:0:
436,132,6532,1,0,0:0:0:0:
436,132,6698,2,0,P|396:64|356:56,2,90.9999958343508
352,136,7198,5,0,0:0:0:0:
252,44,7365,1,0,0:0:0:0:
176,128,7532,2,0,P|232:148|272:136,1,90.9999958343508
152,244,7865,2,0,P|96:236|56:264,1,90.9999958343508
252,256,8198,1,0,0:0:0:0:
252,256,8365,1,0,0:0:0:0:
236,348,8532,2,0,P|312:336|360:240,1,181.999991668702
344,152,9032,5,0,0:0:0:0:
252,256,9198,2,0,P|180:280|92:188,1,181.999991668702
108,116,9698,1,0,0:0:0:0:
108,116,9865,6,0,B|164:92|224:116|224:116|148:72,1,181.999991668702
196,268,10532,2,0,P|188:204|156:180,1,90.9999958343508
160,328,11032,2,0,P|224:260|308:296,2,181.999991668702
385,274,12198,6,0,P|345:290|288:279,1,90.9999958343508
224,204,12532,1,0,0:0:0:0:
224,204,12698,2,0,P|172:172|160:140,1,90.9999958343508
248,112,13032,2,0,L|360:112,2,90.9999958343508
161,146,13532,2,0,B|113:134|113:134|65:198|117:286,1,181.999991668702
184,304,14032,5,0,0:0:0:0:
184,304,14198,2,0,P|244:292|264:272,1,90.9999958343508
380,316,14532,2,0,P|376:268|336:224,1,90.9999958343508
452,152,14865,2,0,P|392:140|352:152,1,90.9999958343508
300,88,15198,5,0,0:0:0:0:
274,76,15281,1,0,0:0:0:0:
247,76,15364,1,0,0:0:0:0:
222,89,15448,1,0,0:0:0:0:
206,112,15532,6,0,L|200:164,1,45.4999979171754
96,144,15698,2,0,L|104:196,1,45.4999979171754
184,240,15865,2,0,L|168:292,1,45.4999979171754
84,176,16032,2,0,L|92:232,1,48.9999985046387
108,339,16198,2,4,B|192:403|244:299|332:374,1,195.999994018555
381,253,16698,1,0,0:0:0:0:
370,231,16781,1,0,0:0:0:0:
354,214,16865,1,0,0:0:0:0:
328,200,16948,1,0,0:0:0:0:
300,192,17032,5,0,0:0:0:0:
176,36,17198,1,0,0:0:0:0:
198,78,17281,1,0,0:0:0:0:
243,96,17364,1,0,0:0:0:0:
288,82,17447,1,0,0:0:0:0:
327,92,17532,6,0,B|389:64|468:79|468:79|393:118,1,195.999994018555
198,78,18032,5,0,0:0:0:0:
230,200,18198,2,0,P|321:142|301:49,1,195.999994018555
198,78,18698,5,0,0:0:0:0:
198,78,18865,1,0,0:0:0:0:
198,78,19032,1,4,0:0:0:0:
198,78,20198,5,0,0:0:0:0:
131,228,20532,1,0,0:0:0:0:
90,118,20865,1,0,0:0:0:0:
254,199,21198,1,0,0:0:0:0:
254,199,21532,5,0,0:0:0:0:
279,201,21615,1,0,0:0:0:0:
304,204,21698,1,0,0:0:0:0:
330,207,21781,1,0,0:0:0:0:
359,210,21865,6,0,P|352:144|324:120,1,97.9999970092774
232,112,22532,2,0,P|172:92|136:104,1,97.9999970092774
256,192,23198,12,0,25698,0:0:0:0:
129,183,25865,5,0,0:0:0:0:
182,104,26032,1,0,0:0:0:0:
275,292,26198,1,0,0:0:0:0:
262,196,26365,1,0,0:0:0:0:
185,125,26532,5,0,0:0:0:0:
132,204,26698,1,0,0:0:0:0:
278,313,26865,1,0,0:0:0:0:
266,219,27032,2,0,B|323:217|358:237|358:237|400:222|482:229,1,195.999994018555
415,128,27532,5,0,0:0:0:0:
458,224,27698,1,0,0:0:0:0:
323,149,27865,5,0,0:0:0:0:
440,212,28032,1,0,0:0:0:0:
348,58,28198,5,0,0:0:0:0:
418,199,28365,1,0,0:0:0:0:
246,206,28532,5,0,0:0:0:0:
323,149,28698,1,0,0:0:0:0:
227,106,28865,1,0,0:0:0:0:
145,188,29032,5,0,0:0:0:0:
260,232,29198,1,0,0:0:0:0:
243,70,29365,1,0,0:0:0:0:
145,188,29532,1,0,0:0:0:0:
145,188,29698,6,0,P|63:167|46:49,1,195.999994018555
121,100,30198,2,0,L|238:108,1,97.9999970092774
342,86,30532,2,0,P|296:184|360:282,1,195.999994018555
391,330,31198,6,0,P|328:262|213:285,1,195.999994018555
161,319,31865,6,0,P|149:249|168:224,1,97.9999970092774
77,201,32198,2,0,P|74:137|104:97,1,97.9999970092774
231,270,32532,6,0,P|285:224|316:228,1,97.9999970092774
291,138,32865,2,0,P|344:103|394:109,1,97.9999970092774
218,76,33198,2,0,P|141:96|104:210,1,195.999994018555
100,197,33698,1,0,0:0:0:0:
199,193,33865,6,0,P|294:238|406:235,1,195.999994018555
383,240,34365,5,0,0:0:0:0:
331,137,34532,1,0,0:0:0:0:
466,165,34698,1,0,0:0:0:0:
412,79,34865,1,0,0:0:0:0:
412,79,35032,5,4,0:0:0:0:
412,79,35365,5,4,0:0:0:0:
412,79,35698,5,4,0:0:0:0:
412,79,36198,6,0,P|363:107|356:146,1,78.7500030040742
404,167,36532,2,0,L|276:131,1,105
256,218,36865,6,0,P|211:162|212:141,1,70
218,79,37198,1,0,0:0:0:0:
218,79,37365,1,0,0:0:0:0:
218,79,37698,2,0,P|141:96|98:166,1,140
73,247,38365,2,0,P|150:242|159:232,1,70
226,273,38865,6,0,P|215:212|195:185,2,70
304,212,39532,2,0,P|314:158|306:121,1,70
217,100,39865,1,0,0:0:0:0:
217,100,40032,1,0,0:0:0:0:
217,100,40365,6,0,P|131:91|71:205,1,210
164,180,41198,2,0,P|161:226|226:306,1,140
213,299,41865,5,0,0:0:0:0:
296,331,42031,1,0,0:0:0:0:
382,305,42198,1,0,0:0:0:0:
434,233,42365,2,0,B|414:212|361:220|361:220|300:151,1,140
285,73,43032,5,0,0:0:0:0:
321,174,43365,1,0,0:0:0:0:
381,99,43532,1,0,0:0:0:0:
227,155,43865,2,0,B|196:181|122:177|122:177|170:204,1,140
328,331,44532,5,0,0:0:0:0:
188,298,44698,1,0,0:0:0:0:
275,253,44865,1,0,0:0:0:0:
148,191,45032,2,0,B|168:170|221:178|221:178|282:109,1,140
297,31,45699,5,0,0:0:0:0:
261,132,46032,1,0,0:0:0:0:
261,132,46199,1,0,0:0:0:0:
376,103,46532,2,0,B|437:118|436:172,1,70
359,191,46865,6,0,P|356:248|339:267,1,70
261,242,47198,2,0,P|217:254|189:244,1,70
168,161,47532,5,0,0:0:0:0:
168,161,47698,1,0,0:0:0:0:
283,76,47865,1,0,0:0:0:0:
283,76,48032,1,0,0:0:0:0:
283,76,48365,2,0,P|369:118|416:111,1,140
472,191,49032,2,0,P|434:204|399:197,1,70
317,179,50198,5,0,0:0:0:0:
317,179,50365,1,0,0:0:0:0:
335,298,50531,1,0,0:0:0:0:
335,298,50698,1,0,0:0:0:0:
335,298,51032,6,0,P|267:271|209:141,1,210
314,177,51865,2,0,P|332:114|423:81,1,140
393,79,52532,5,0,0:0:0:0:
454,283,52698,1,0,0:0:0:0:
473,154,52865,1,0,0:0:0:0:
334,285,53032,2,0,P|256:273|200:203,1,140
298,179,53699,5,0,0:0:0:0:
197,137,54032,1,0,0:0:0:0:
197,137,54199,1,0,0:0:0:0:
116,194,54532,2,0,P|88:146|148:67,1,140
197,137,55198,5,0,0:0:0:0:
116,194,55364,1,0,0:0:0:0:
226,240,55532,1,0,0:0:0:0:
134,301,55698,2,0,P|194:331|277:312,1,140
222,236,56365,5,0,0:0:0:0:
306,132,56698,1,0,0:0:0:0:
306,132,56865,1,0,0:0:0:0:
363,248,57198,2,0,P|399:207|403:176,2,70
394,299,57865,6,0,P|355:248|274:245,1,140
214,287,58532,2,0,B|193:237|210:209|210:209|201:179|242:129,1,140
281,84,59032,1,0,0:0:0:0:
319,167,59365,2,0,P|354:162|389:122,1,70
381,139,60032,5,0,0:0:0:0:
485,148,60198,1,0,0:0:0:0:
439,70,60365,1,0,0:0:0:0:
431,230,60532,2,4,P|352:272|250:263,1,181.999991668702
431,230,61032,5,0,0:0:0:0:
335,186,61198,2,4,P|264:168|201:77,1,181.999991668702
278,52,61698,2,4,P|232:128|211:58,1,181.999991668702,0|0,0:0|0:0,0:0:0:0:
128,45,62198,2,0,P|180:53|204:93,1,90.9999958343508
201,84,62532,5,0,0:0:0:0:
104,128,62698,1,0,0:0:0:0:
208,184,62865,5,0,0:0:0:0:
104,231,63032,1,0,0:0:0:0:
230,282,63198,5,0,0:0:0:0:
107,332,63365,1,0,0:0:0:0:
230,282,63532,6,0,P|284:250|285:123,1,181.999991668702
216,51,64032,5,0,0:0:0:0:
195,153,64198,1,0,0:0:0:0:
322,49,64365,1,0,0:0:0:0:
298,141,64532,2,0,P|396:170|466:101,1,181.999991668702
454,126,65032,5,0,0:0:0:0:
486,234,65198,1,0,0:0:0:0:
456,143,65365,1,0,0:0:0:0:
393,244,65532,1,0,0:0:0:0:
457,157,65698,1,0,0:0:0:0:
457,321,65865,6,0,P|373:341|300:276,1,181.999991668702
149,211,66365,1,0,0:0:0:0:
149,211,66532,2,0,P|273:175|266:108,1,181.999991668702
227,138,67032,6,4,B|276:143|276:143|341:56|430:127,2,210.000008010865,0|0|0,0:0|0:0|0:0,0:0:0:0:
137,119,68032,1,0,0:0:0:0:
134,131,68115,1,0,0:0:0:0:
131,144,68198,1,0,0:0:0:0:
129,157,68281,1,0,0:0:0:0:
126,170,68365,5,0,0:0:0:0:
171,257,68532,1,2,0:0:0:0:
323,168,68698,1,0,0:0:0:0:
278,255,68865,1,0,0:0:0:0:
123,184,69032,5,0,0:0:0:0:
275,269,69198,1,2,0:0:0:0:
320,182,69365,1,0,0:0:0:0:
168,271,69532,1,0,0:0:0:0:
120,199,69698,5,0,0:0:0:0:
165,286,69865,1,2,0:0:0:0:
272,284,70031,1,0,0:0:0:0:
317,197,70198,1,0,0:0:0:0:
263,118,70365,6,0,P|342:97|367:109,1,105.000004005432
317,197,70698,2,0,P|371:223|401:278,1,105.000004005432
272,284,71032,5,0,0:0:0:0:
181,246,71198,1,2,0:0:0:0:
263,274,71365,5,0,0:0:0:0:
231,159,71532,1,0,0:0:0:0:
253,266,71698,5,0,0:0:0:0:
131,184,71865,1,2,0:0:0:0:
91,310,72032,5,0,2:0:0:0:
39,218,72198,1,0,2:0:0:0:
95,295,72365,5,0,2:0:0:0:
55,127,72532,1,2,2:0:0:0:
100,281,72698,5,0,2:0:0:0:
132,162,72865,1,0,2:0:0:0:
127,79,73032,6,0,P|181:91|221:126,1,105.000004005432
218,122,73365,5,0,0:0:0:0:
371,119,73532,1,0,0:0:0:0:
297,43,73698,1,0,0:0:0:0:
293,207,73865,2,0,P|405:252|526:218,1,210.000008010865
231,269,74365,6,0,P|325:277|247:217,1,210.000008010865
128,179,74865,6,0,B|178:151|178:151|215:165|215:165|245:110|341:120,1,210.000008010865
330,45,75365,6,0,P|310:104|423:122,1,210.000008010865
330,45,75865,2,0,P|302:134|408:203,1,210.000008010865
449,267,76365,6,0,L|336:313,1,105.000004005432
351,306,76698,5,0,0:0:0:0:
259,243,76865,1,0,0:0:0:0:
257,341,77032,1,0,0:0:0:0:
149,229,77198,5,0,0:0:0:0:
130,341,77365,1,0,0:0:0:0:
256,224,77532,1,0,0:0:0:0:
96,142,77698,1,0,0:0:0:0:
96,142,77865,6,0,P|169:134|200:107,1,105.000004005432
292,140,78198,2,0,P|360:117|381:80,1,105.000004005432
391,215,78532,2,0,P|436:251|499:258,1,105.000004005432
291,249,78865,5,0,0:0:0:0:
291,258,78948,1,0,0:0:0:0:
291,267,79032,1,0,0:0:0:0:
172,322,79198,1,0,0:0:0:0:
190,204,79365,1,0,0:0:0:0:
260,351,79532,2,0,P|338:345|373:222,1,210.000008010865
355,134,80032,2,0,L|147:69,1,210.000008010865
154,71,80532,5,0,0:0:0:0:
61,183,80698,1,0,0:0:0:0:
60,74,80865,1,0,0:0:0:0:
166,184,81032,2,0,P|221:227|269:225,1,105.000004005432
336,166,81365,5,0,0:0:0:0:
282,338,81532,1,0,0:0:0:0:
256,228,81698,1,0,0:0:0:0:
382,258,81865,2,0,B|426:288|426:288|419:254|419:254|433:218|433:218|418:185|434:97,1,210.000008010865
364,58,82365,5,0,0:0:0:0:
364,58,82532,2,0,P|282:103|243:96,1,105.000004005432
192,31,82865,5,0,0:0:0:0:
157,130,83032,2,0,B|131:181|131:181|159:268|159:268|134:336,1,210.000008010865
225,202,83532,2,0,B|248:246|248:246|247:319,1,105.000004005432
139,327,83865,5,0,0:0:0:0:
248,302,84032,1,0,0:0:0:0:
225,202,84198,5,0,0:0:0:0:
344,267,84365,1,0,0:0:0:0:
317,135,84532,5,0,0:0:0:0:
422,212,84698,1,0,0:0:0:0:
422,212,84865,6,8,P|419:106|312:41,1,210.000008010865
317,135,85365,1,0,0:0:0:0:
317,135,85532,2,8,P|199:99|94:141,1,210.000008010865
187,227,86032,5,0,0:0:0:0:
292,262,86198,2,0,P|354:255|388:222,1,105.000004005432
197,245,86532,5,0,0:0:0:0:
314,166,86698,2,0,P|338:108|327:62,1,105.000004005432
187,49,87198,6,0,B|193:90|165:111|165:111|153:192|213:267,1,210.000008010865
182,317,87698,1,0,0:0:0:0:
182,317,87865,2,0,P|196:256|318:292,1,210.000008010865
405,310,88365,6,4,L|360:73,2,210.000008010865
365,103,89365,5,0,0:0:0:0:
338,105,89448,1,0,0:0:0:0:
312,107,89531,1,0,0:0:0:0:
286,110,89614,1,0,0:0:0:0:
259,112,89698,5,0,0:0:0:0:
186,191,89865,1,2,0:0:0:0:
150,98,90032,1,0,0:0:0:0:
183,218,90198,5,2,0:0:0:0:
242,110,90365,1,0,0:0:0:0:
126,111,90532,1,2,0:0:0:0:
68,248,90698,5,0,0:0:0:0:
168,216,90865,1,2,0:0:0:0:
140,336,91032,5,0,0:0:0:0:
166,232,91198,1,2,0:0:0:0:
264,340,91365,5,0,0:0:0:0:
183,241,91532,1,2,0:0:0:0:
344,236,91698,5,0,0:0:0:0:
201,239,91865,1,2,0:0:0:0:
240,64,92032,5,0,0:0:0:0:
209,222,92198,1,2,0:0:0:0:
404,136,92365,1,0,0:0:0:0:
236,88,92532,5,0,0:0:0:0:
336,220,92698,1,0,0:0:0:0:
352,48,92865,1,2,0:0:0:0:
344,236,93032,5,0,0:0:0:0:
424,120,93198,1,2,0:0:0:0:
228,112,93365,1,0,0:0:0:0:
440,220,93532,5,2,0:0:0:0:
236,88,93698,1,0,0:0:0:0:
368,36,93865,1,2,0:0:0:0:
272,232,94032,5,0,0:0:0:0:
352,48,94198,1,2,0:0:0:0:
427,267,94365,1,0,0:0:0:0:
224,128,94532,5,2,0:0:0:0:
368,36,94698,1,2,0:0:0:0:
300,264,94865,1,2,0:0:0:0:
448,168,95032,1,0,0:0:0:0:
448,168,95198,6,0,P|448:220|427:268,1,105.000004005432
133,262,95532,2,0,P|52:258|3:138,1,210.000008010865
87,181,96032,2,0,P|221:226|239:288,1,210.000008010865
239,280,96532,5,0,0:0:0:0:
349,342,96698,1,0,0:0:0:0:
294,169,96865,1,0,0:0:0:0:
403,238,97032,1,0,0:0:0:0:
294,169,97198,2,0,P|213:130|111:191,1,210.000008010865
116,184,97865,5,0,0:0:0:0:
150,280,98031,1,0,0:0:0:0:
242,324,98198,1,0,0:0:0:0:
339,289,98365,1,0,0:0:0:0:
132,181,98532,5,0,0:0:0:0:
258,321,98698,1,0,0:0:0:0:
166,277,98865,1,0,0:0:0:0:
355,286,99032,1,0,0:0:0:0:
428,221,99198,6,0,P|367:190|318:194,1,105.000004005432
360,89,99532,2,0,P|288:68|236:79,1,105.000004005432
206,185,99865,5,0,0:0:0:0:
193,175,99948,1,0,0:0:0:0:
180,165,100031,1,0,0:0:0:0:
167,155,100114,1,0,0:0:0:0:
154,145,100198,2,0,B|102:141|102:141|123:261|216:288,1,210.000008010865
179,272,100698,5,0,0:0:0:0:
296,171,100865,2,0,B|357:186|357:186|329:127|227:84,1,210.000008010865
207,260,101365,5,0,0:0:0:0:
358,230,101532,2,0,B|403:273|403:273|408:208|341:120,1,210.000008010865
244,249,102032,5,0,0:0:0:0:
389,298,102199,2,0,B|406:358|406:358|443:304|429:194,1,210.000008010865
389,298,102698,5,0,0:0:0:0:
249,252,102865,1,0,0:0:0:0:
364,133,103032,1,0,0:0:0:0:
143,83,103198,2,0,B|80:85|80:85|218:138,1,210.000008010865,4|0,0:0|0:0,0:0:0:0:
140,300,103698,5,0,0:0:0:0:
372,35,103865,2,0,P|300:57|383:121,1,210.000008010865
442,267,104365,5,0,0:0:0:0:
363,132,104532,2,0,B|311:151|311:151|235:327,1,210.000008010865
156,253,105032,5,0,0:0:0:0:
156,253,105198,2,0,P|81:207|67:165,1,105.000004005432
159,167,105532,1,0,0:0:0:0:
180,152,105615,1,0,0:0:0:0:
202,137,105698,1,0,0:0:0:0:
224,123,105781,1,0,0:0:0:0:
246,108,105865,5,0,0:0:0:0:
350,206,106032,1,0,0:0:0:0:
342,89,106198,1,0,0:0:0:0:
251,249,106365,2,0,P|348:291|450:247,1,210.000008010865
441,256,107032,5,4,0:0:0:0:
370,218,108198,6,0,P|304:178|281:75,1,181.999991668702
200,141,108698,2,0,P|273:163|280:81,1,181.999991668702
114,57,109198,5,0,0:0:0:0:
107,63,109282,1,0,0:0:0:0:
98,71,109365,2,0,P|94:103|99:122,1,45.4999979171754
43,189,109532,5,0,0:0:0:0:
44,198,109616,1,0,0:0:0:0:
47,209,109699,2,0,P|72:228|91:233,1,45.4999979171754
184,196,109865,6,0,P|244:219|296:200,1,90.9999958343508
249,127,110532,2,0,P|301:96|312:55,1,90.9999958343508
256,192,111198,12,2,113698,0:0:0:0:
383,183,113865,5,0,0:0:0:0:
253,103,114032,1,0,0:0:0:0:
279,246,114198,1,0,0:0:0:0:
198,189,114365,5,0,0:0:0:0:
362,95,114532,1,0,0:0:0:0:
385,217,114698,1,0,0:0:0:0:
293,276,114865,1,0,0:0:0:0:
198,189,115032,2,0,P|118:150|114:38,1,195.999994018555
106,51,115532,5,0,0:0:0:0:
185,99,115698,1,0,0:0:0:0:
249,41,115865,1,0,0:0:0:0:
109,72,116032,5,0,0:0:0:0:
185,117,116198,1,0,0:0:0:0:
250,57,116365,1,0,0:0:0:0:
314,119,116532,1,0,0:0:0:0:
109,88,116698,5,0,0:0:0:0:
196,230,116865,1,0,0:0:0:0:
249,41,117032,5,0,0:0:0:0:
195,255,117198,1,0,0:0:0:0:
250,57,117365,1,0,0:0:0:0:
367,188,117532,1,0,0:0:0:0:
367,188,117698,6,0,P|449:167|466:49,1,195.999994018555
391,100,118198,2,0,L|274:108,1,97.9999970092774
170,86,118532,2,0,P|216:184|152:282,1,195.999994018555
121,330,119198,6,0,P|184:262|299:285,1,195.999994018555
351,319,119865,6,0,P|363:249|344:224,1,97.9999970092774
435,201,120198,2,0,P|438:137|408:97,1,97.9999970092774
281,270,120532,6,0,P|227:224|196:228,1,97.9999970092774
221,138,120865,2,0,P|168:103|118:109,1,97.9999970092774
294,76,121198,2,0,P|371:96|408:210,1,195.999994018555
412,197,121698,1,0,0:0:0:0:
313,193,121865,6,0,P|218:238|106:235,1,195.999994018555
129,240,122365,5,0,0:0:0:0:
181,137,122532,1,0,0:0:0:0:
46,165,122698,1,0,0:0:0:0:
100,79,122865,1,0,0:0:0:0:
100,79,123032,5,4,0:0:0:0:
100,79,123365,5,4,0:0:0:0:
100,79,123698,5,4,0:0:0:0:
106,64,124032,5,0,0:0:0:0:
102,72,124115,1,0,0:0:0:0:
100,79,124198,1,0,0:0:0:0:
200,186,124365,1,0,0:0:0:0:
237,54,124532,1,0,0:0:0:0:
256,260,124865,6,0,P|301:204|300:183,1,70
294,121,125198,1,0,0:0:0:0:
294,121,125365,1,0,0:0:0:0:
294,121,125698,2,0,P|371:138|414:208,1,140
439,289,126365,2,0,P|362:284|353:274,1,70
286,315,126865,6,0,P|297:254|317:227,2,70
208,254,127532,2,0,P|198:200|206:163,1,70
295,142,127865,1,0,0:0:0:0:
295,142,128032,1,0,0:0:0:0:
295,142,128365,6,0,P|381:133|441:247,1,210
348,222,129198,2,0,P|351:268|286:348,1,140
298,341,129698,1,0,0:0:0:0:
298,341,129782,1,0,0:0:0:0:
299,341,129865,5,0,0:0:0:0:
216,373,130031,1,0,0:0:0:0:
130,347,130198,1,0,0:0:0:0:
78,275,130365,2,0,B|98:254|151:262|151:262|212:193,1,140
227,115,131032,5,0,0:0:0:0:
191,216,131365,1,0,0:0:0:0:
131,141,131532,1,0,0:0:0:0:
285,197,131865,2,0,B|316:223|390:219|390:219|342:246,1,140
206,319,132532,5,0,0:0:0:0:
317,342,132698,1,0,0:0:0:0:
363,233,132865,1,0,0:0:0:0:
364,233,133032,2,0,B|344:212|291:220|291:220|230:151,1,140
215,73,133699,5,0,0:0:0:0:
251,174,134032,1,0,0:0:0:0:
251,174,134199,1,0,0:0:0:0:
136,145,134532,2,0,B|75:160|76:214,1,70
153,233,134782,1,0,0:0:0:0:
153,233,134865,6,0,P|156:290|173:309,1,70
251,284,135198,2,0,P|295:296|323:286,1,70
344,203,135532,5,0,0:0:0:0:
344,203,135698,1,0,0:0:0:0:
229,118,135865,1,0,0:0:0:0:
229,118,136032,1,0,0:0:0:0:
229,118,136365,2,0,P|143:160|96:153,1,140
40,233,137032,2,0,P|78:246|113:239,1,70
195,221,138198,5,0,0:0:0:0:
195,221,138365,1,0,0:0:0:0:
177,340,138531,1,0,0:0:0:0:
177,340,138698,1,0,0:0:0:0:
177,340,139032,6,0,P|245:313|303:183,1,210
198,219,139865,2,0,P|180:156|89:123,1,140
119,121,140532,5,0,0:0:0:0:
58,325,140698,1,0,0:0:0:0:
39,196,140865,1,0,0:0:0:0:
178,327,141032,2,0,P|256:315|312:245,1,140
214,221,141699,5,0,0:0:0:0:
315,179,142032,1,0,0:0:0:0:
315,179,142199,1,0,0:0:0:0:
396,236,142532,2,0,P|424:188|364:109,1,140
315,179,143198,5,0,0:0:0:0:
396,236,143364,1,0,0:0:0:0:
286,282,143532,1,0,0:0:0:0:
378,343,143698,2,0,P|318:373|235:354,1,140
290,278,144365,5,0,0:0:0:0:
206,174,144698,1,0,0:0:0:0:
206,174,144865,1,0,0:0:0:0:
206,174,145198,6,0,L|222:138,2,35
56,234,145532,2,0,L|40:198,2,35
118,341,145865,2,0,P|157:290|238:287,1,140
298,329,146532,2,0,B|319:279|302:251|302:251|311:221|270:171,1,140
231,126,147032,1,0,0:0:0:0:
125,63,147365,2,0,P|177:53|200:32,1,70
231,126,148032,5,0,0:0:0:0:
125,63,148198,1,0,0:0:0:0:
52,136,148365,1,0,0:0:0:0:
163,206,148532,2,4,P|242:248|344:239,1,181.999991668702
163,206,149032,5,0,0:0:0:0:
276,165,149198,2,4,P|347:147|410:56,1,181.999991668702
210,153,149698,2,0,B|240:172|278:163|278:163|295:212|261:273,1,181.999991668702
197,63,150198,2,0,P|145:71|121:111,1,90.9999958343508
123,99,150532,5,0,0:0:0:0:
89,213,150698,1,0,0:0:0:0:
210,153,150865,5,0,0:0:0:0:
262,269,151032,1,0,0:0:0:0:
315,131,151198,5,0,0:0:0:0:
264,243,151365,1,0,0:0:0:0:
375,221,151532,2,0,P|429:189|430:62,1,181.999991668702
441,78,152032,5,0,0:0:0:0:
253,64,152198,1,0,0:0:0:0:
342,20,152365,1,0,0:0:0:0:
315,131,152532,2,0,P|217:160|147:91,1,181.999991668702
158,116,153032,5,0,0:0:0:0:
89,260,153198,1,0,0:0:0:0:
230,209,153365,1,0,0:0:0:0:
227,220,153448,5,0,0:0:0:0:
225,231,153531,1,0,0:0:0:0:
222,242,153615,1,0,0:0:0:0:
220,253,153698,1,0,0:0:0:0:
218,264,153781,1,0,0:0:0:0:
216,275,153865,2,0,P|300:295|373:230,1,181.999991668702
245,88,154365,5,0,0:0:0:0:
444,214,154532,2,0,P|375:170|400:251,1,181.999991668702
208,226,155032,2,4,P|284:289|369:238,2,210.000008010865
125,268,156032,2,0,P|111:210|140:166,1,105.000004005432
188,69,156365,5,0,0:0:0:0:
349,88,156532,1,2,0:0:0:0:
189,48,156698,5,0,0:0:0:0:
259,161,156865,1,0,0:0:0:0:
188,69,157032,5,0,0:0:0:0:
257,183,157198,1,2,0:0:0:0:
351,70,157365,5,0,0:0:0:0:
254,204,157532,1,0,0:0:0:0:
205,50,157698,5,0,0:0:0:0:
359,98,157865,1,2,0:0:0:0:
234,197,158032,1,0,0:0:0:0:
205,50,158198,1,0,0:0:0:0:
359,98,158365,6,0,P|438:77|463:89,1,105.000004005432
265,196,158698,2,0,P|319:222|349:277,1,105.000004005432
188,298,159032,5,0,0:0:0:0:
156,211,159198,1,2,0:0:0:0:
189,125,159365,1,0,0:0:0:0:
269,80,159531,1,2,0:0:0:0:
359,98,159698,1,0,0:0:0:0:
188,298,159865,5,2,0:0:0:0:
269,80,160031,1,0,0:0:0:0:
156,211,160198,1,2,0:0:0:0:
359,98,160365,1,0,0:0:0:0:
189,125,160531,1,2,0:0:0:0:
175,35,160698,5,0,0:0:0:0:
189,125,160864,1,0,0:0:0:0:
261,183,161032,2,0,P|315:195|355:230,1,105.000004005432
272,68,161365,5,0,0:0:0:0:
261,183,161532,1,0,0:0:0:0:
395,143,161698,5,0,0:0:0:0:
416,293,161865,2,0,P|313:305|218:262,1,210.000008010865
156,324,162365,6,0,P|250:332|172:272,1,210.000008010865
171,156,162865,6,0,B|221:128|221:128|258:142|258:142|288:87|384:97,1,210.000008010865
318,170,163365,6,0,P|376:191|334:102,1,210.000008010865
356,94,163865,2,0,B|406:152|406:152|398:296,1,210.000008010865
310,290,164365,2,0,P|354:356|388:364,1,105.000004005432
374,362,164698,5,0,0:0:0:0:
255,226,164865,1,0,0:0:0:0:
220,317,165032,1,0,0:0:0:0:
149,229,165198,5,0,0:0:0:0:
220,343,165365,1,0,0:0:0:0:
280,228,165532,1,0,0:0:0:0:
140,352,165698,5,0,0:0:0:0:
248,139,165865,2,0,P|321:131|365:170,1,105.000004005432
391,215,166198,2,0,P|459:192|480:155,1,105.000004005432
399,234,166532,2,0,P|444:270|507:277,1,105.000004005432
310,248,166865,5,0,0:0:0:0:
310,257,166948,1,0,0:0:0:0:
310,266,167032,1,0,0:0:0:0:
170,275,167198,1,0,0:0:0:0:
170,275,167365,1,0,0:0:0:0:
280,351,167532,2,0,P|358:345|393:222,1,210.000008010865
310,266,168032,2,0,P|239:211|216:91,1,210.000008010865
214,97,168532,5,0,0:0:0:0:
93,215,168698,1,0,0:0:0:0:
99,96,168865,1,0,0:0:0:0:
222,221,169032,2,0,P|277:264|325:262,1,105.000004005432
336,166,169365,5,0,0:0:0:0:
404,349,169532,1,0,0:0:0:0:
309,265,169698,1,0,0:0:0:0:
438,238,169865,2,4,B|482:268|482:268|438:207|490:77,1,210.000008010865
359,50,170365,5,0,0:0:0:0:
333,166,170532,2,0,P|269:148|249:114,1,105.000004005432
184,29,170865,5,0,0:0:0:0:
130,134,171032,2,0,P|96:207|107:340,1,210.000008010865
183,253,171532,2,0,P|229:284|289:275,1,105.000004005432
283,168,171865,5,0,0:0:0:0:
276,280,172032,1,0,0:0:0:0:
377,234,172198,1,0,0:0:0:0:
278,163,172365,5,0,0:0:0:0:
290,275,172532,1,0,0:0:0:0:
382,212,172698,1,0,0:0:0:0:
277,162,172865,2,0,P|217:202|209:347,1,210.000008010865
290,275,173365,5,0,0:0:0:0:
266,159,173532,2,8,P|148:123|43:165,1,210.000008010865
266,159,174032,5,0,0:0:0:0:
290,275,174198,2,0,P|352:268|386:235,1,105.000004005432
191,247,174532,5,0,0:0:0:0:
266,159,174698,2,0,P|290:101|279:55,1,105.000004005432
59,122,175198,6,0,P|120:236|203:243,1,210.000008010865
280,327,175698,1,0,0:0:0:0:
280,327,175782,1,0,0:0:0:0:
280,327,175865,2,0,P|336:269|330:129,1,210.000008010865
264,212,176365,2,4,P|172:128|164:40,2,210.000008010865
361,313,177365,6,0,L|341:245,1,52.5000020027161
250,262,177532,2,0,L|270:184,1,52.5000020027161
349,181,177698,1,0,0:0:0:0:
360,312,177865,5,2,0:0:0:0:
250,262,178032,1,0,0:0:0:0:
349,181,178198,1,2,0:0:0:0:
351,307,178365,5,0,0:0:0:0:
241,257,178532,1,2,0:0:0:0:
340,176,178698,1,0,0:0:0:0:
338,300,178865,5,2,0:0:0:0:
228,250,179032,1,0,0:0:0:0:
327,169,179198,1,2,0:0:0:0:
329,295,179365,5,0,0:0:0:0:
219,245,179532,1,2,0:0:0:0:
318,164,179698,1,0,0:0:0:0:
319,286,179865,5,0,0:0:0:0:
209,236,180032,1,0,0:0:0:0:
308,155,180198,1,0,0:0:0:0:
218,139,180365,5,0,0:0:0:0:
236,323,180532,1,2,0:0:0:0:
381,209,180698,1,0,0:0:0:0:
227,124,180865,5,2,0:0:0:0:
245,308,181032,1,0,0:0:0:0:
390,194,181198,1,2,0:0:0:0:
236,112,181365,5,0,0:0:0:0:
254,296,181532,1,2,0:0:0:0:
399,182,181698,1,0,0:0:0:0:
245,97,181865,5,2,0:0:0:0:
263,281,182032,1,0,0:0:0:0:
408,167,182198,1,2,0:0:0:0:
252,85,182365,5,0,0:0:0:0:
270,269,182532,1,2,0:0:0:0:
415,155,182698,1,0,0:0:0:0:
261,70,182865,5,2,0:0:0:0:
279,254,183032,1,0,0:0:0:0:
426,143,183198,6,0,P|446:202|439:261,1,105.000004005432
262,277,183532,2,0,P|181:273|132:153,1,210.000008010865
82,46,184032,2,0,P|169:94|267:41,1,210.000008010865
262,277,184532,5,0,0:0:0:0:
349,342,184698,1,0,0:0:0:0:
378,235,184865,1,0,0:0:0:0:
294,169,185032,1,0,0:0:0:0:
294,169,185198,2,0,P|213:130|111:191,1,210.000008010865
116,184,185865,5,0,0:0:0:0:
162,334,186031,1,0,0:0:0:0:
75,276,186198,5,0,0:0:0:0:
208,247,186365,1,0,0:0:0:0:
126,193,186532,5,0,0:0:0:0:
172,343,186698,1,0,0:0:0:0:
85,285,186865,5,0,0:0:0:0:
218,256,187032,1,0,0:0:0:0:
219,153,187198,6,0,P|271:156|316:184,1,105.000004005432
349,91,187532,2,0,P|401:89|449:108,1,105.000004005432
393,171,187865,5,0,0:0:0:0:
392,192,187948,1,0,0:0:0:0:
392,213,188031,1,0,0:0:0:0:
392,235,188115,1,0,0:0:0:0:
392,256,188198,6,0,P|334:282|189:243,1,210.000008010865
329,112,188698,5,0,0:0:0:0:
378,278,188865,2,0,P|317:294|181:230,1,210.000008010865
449,206,189365,5,0,0:0:0:0:
299,212,189532,2,0,P|254:166|241:16,1,210.000008010865
376,280,190032,5,0,0:0:0:0:
329,112,190198,2,0,P|346:50|360:136,1,210.000008010865
376,280,190698,5,0,0:0:0:0:
183,218,190865,1,0,0:0:0:0:
355,260,191032,5,0,0:0:0:0:
231,110,191198,2,4,P|163:89|62:187,1,210.000008010865
140,300,191698,5,0,0:0:0:0:
197,51,191865,2,0,P|177:140|232:104,1,210.000008010865
348,278,192365,5,0,0:0:0:0:
197,51,192532,2,0,B|145:70|145:70|69:246,1,210.000008010865
109,319,193032,6,0,P|161:295|180:236,1,105.000004005432
348,278,193365,2,0,P|412:267|443:232,1,105.000004005432
438,218,193615,1,0,0:0:0:0:
436,191,193698,1,0,0:0:0:0:
434,165,193781,1,0,0:0:0:0:
432,138,193865,5,0,0:0:0:0:
345,252,194032,1,0,0:0:0:0:
245,118,194198,1,0,0:0:0:0:
158,270,194365,2,0,P|255:312|357:268,1,210.000008010865
347,277,195032,5,4,0:0:0:0:
252,223,196198,6,0,P|186:183|163:80,1,181.999991668702
252,223,196698,2,0,P|263:160|280:231,1,181.999991668702
393,332,197198,5,0,0:0:0:0:
393,332,197282,1,0,0:0:0:0:
393,332,197365,1,0,0:0:0:0:
295,226,197532,1,0,0:0:0:0:
295,226,197615,1,0,0:0:0:0:
295,226,197698,1,0,0:0:0:0:
393,332,197865,6,0,P|446:324|475:293,1,90.9999958343508
295,226,198532,2,0,P|300:166|285:131,1,90.9999958343508
289,138,198865,1,0,0:0:0:0:
289,138,198948,1,0,0:0:0:0:
289,138,199032,1,0,0:0:0:0:
256,192,199198,12,2,201198,0:0:0:0:
162,92,203532,6,0,P|201:139|225:142,1,70
142,209,203865,2,0,P|165:268|183:278,1,70
207,142,204198,5,0,0:0:0:0:
169,271,204365,1,0,0:0:0:0:
291,254,204532,2,0,P|364:243|416:59,1,280
309,36,205365,5,0,0:0:0:0:
419,67,205532,1,0,0:0:0:0:
336,145,205698,2,0,B|219:172|147:98|147:98|126:156|126:156|157:206|80:231,1,350
21,236,206698,6,0,P|25:254|41:276,1,35
71,352,206865,2,0,P|93:337|111:321,1,35
20,251,207032,6,0,P|24:269|40:291,1,35
70,367,207199,2,0,P|92:352|110:336,1,35
175,281,207365,2,0,P|231:301|305:249,1,140
294,134,207865,5,0,0:0:0:0:
296,263,208032,1,0,0:0:0:0:
296,263,208115,1,0,0:0:0:0:
296,263,208198,1,0,0:0:0:0:
294,134,208365,2,0,P|238:108|86:240,1,280
200,223,209198,5,0,0:0:0:0:
232,236,209281,1,0,0:0:0:0:
264,250,209364,1,0,0:0:0:0:
296,263,209448,1,0,0:0:0:0:
329,277,209531,1,0,0:0:0:0:
391,213,209698,2,0,P|421:273|418:301,1,70
457,139,210032,6,0,P|386:119|306:163,1,140
285,62,210532,5,0,0:0:0:0:
327,141,210698,1,0,0:0:0:0:
143,145,210865,1,0,0:0:0:0:
185,66,211031,1,0,0:0:0:0:
286,53,211198,5,0,0:0:0:0:
144,136,211364,1,0,0:0:0:0:
328,132,211531,1,0,0:0:0:0:
186,57,211697,1,0,0:0:0:0:
146,135,211865,2,0,P|135:239|204:323,1,210
233,211,212532,5,0,0:0:0:0:
267,216,212615,1,0,0:0:0:0:
299,230,212698,1,0,0:0:0:0:
326,252,212782,1,0,0:0:0:0:
346,280,212865,1,0,0:0:0:0:
358,313,212948,1,0,0:0:0:0:
361,347,213032,5,0,0:0:0:0:
341,317,213115,1,0,0:0:0:0:
331,284,213198,1,0,0:0:0:0:
331,249,213282,1,0,0:0:0:0:
341,216,213365,1,0,0:0:0:0:
359,186,213448,1,0,0:0:0:0:
385,163,213532,1,0,0:0:0:0:
417,149,213615,1,0,0:0:0:0:
450,146,213698,5,0,0:0:0:0:
420,164,213781,1,0,0:0:0:0:
385,163,213864,1,0,0:0:0:0:
357,144,213948,1,0,0:0:0:0:
342,113,214031,1,0,0:0:0:0:
347,78,214114,1,0,0:0:0:0:
369,52,214198,1,0,0:0:0:0:
402,42,214281,1,0,0:0:0:0:
436,50,214365,6,0,P|460:52|490:68,1,35
450,146,214532,2,0,P|469:159|487:188,1,35
395,239,214698,2,0,P|405:260|406:294,1,35
299,254,214865,2,0,P|297:278|280:308,1,35
402,42,215032,6,0,P|426:44|456:60,1,35
381,205,215199,2,0,P|390:221|394:238,1,35
422,123,215365,2,0,P|437:133|449:145,1,35
294,289,215532,2,0,P|292:313|275:343,1,35
211,292,215698,5,0,0:0:0:0:
177,283,215781,1,0,0:0:0:0:
143,275,215864,1,0,0:0:0:0:
109,266,215948,1,0,0:0:0:0:
75,258,216032,6,0,P|123:216|129:117,1,140
76,78,216532,5,0,0:0:0:0:
76,78,216615,2,0,P|104:64|121:63,1,35
195,77,216782,5,0,0:0:0:0:
195,77,216865,2,0,P|221:94|230:108,1,35
270,189,217032,5,0,0:0:0:0:
270,189,217115,2,0,P|298:175|315:174,1,35
389,188,217282,5,0,0:0:0:0:
389,188,217365,2,0,P|415:205|424:219,2,35
76,78,217865,5,0,0:0:0:0:
76,78,218032,1,0,0:0:0:0:
328,88,219032,5,0,0:0:0:0:
183,343,219365,1,0,0:0:0:0:
183,343,219532,1,0,0:0:0:0:
183,343,220032,6,0,P|241:333|255:314,2,70
198,263,220532,2,0,P|218:234|222:189,1,70
141,193,221698,6,0,P|140:130|111:87,1,105
56,164,222032,5,0,0:0:0:0:
151,310,222198,1,0,0:0:0:0:
245,166,222365,1,0,0:0:0:0:
244,61,222532,1,0,0:0:0:0:
278,64,222615,1,0,0:0:0:0:
310,78,222698,1,0,0:0:0:0:
336,102,222782,1,0,0:0:0:0:
353,132,222865,1,0,0:0:0:0:
359,166,222948,1,0,0:0:0:0:
354,201,223032,5,0,0:0:0:0:
245,166,223198,1,0,0:0:0:0:
245,166,223365,1,0,0:0:0:0:
245,166,224032,2,0,P|188:156|164:175,2,70
207,241,224532,2,0,P|186:271|183:322,1,70
267,303,224865,2,0,P|296:338|326:343,1,70
336,223,225865,6,0,P|393:233|417:214,1,70
374,148,226532,2,0,P|395:118|398:67,1,70
314,86,227032,2,0,P|285:51|191:50,1,140
93,73,227532,6,0,P|134:118|161:126,1,70
323,314,227865,2,0,P|369:320|401:306,1,70
184,224,228198,1,0,0:0:0:0:
212,204,228281,1,0,0:0:0:0:
232,175,228364,1,0,0:0:0:0:
240,141,228448,1,0,0:0:0:0:
237,107,228532,2,0,P|318:142|391:119,1,140
438,221,229032,5,0,0:0:0:0:
321,238,229198,2,0,P|378:325|422:334,1,140
227,283,229698,5,0,0:0:0:0:
227,283,229865,2,0,P|212:336|218:364,1,70
134,231,230198,2,0,P|149:178|143:150,1,70
239,143,230532,5,0,0:0:0:0:
132,230,230698,1,0,0:0:0:0:
328,215,230865,1,0,0:0:0:0:
228,282,231032,1,0,0:0:0:0:
328,215,231198,6,4,P|348:148|309:77,1,140
241,139,231698,1,0,0:0:0:0:
241,139,231865,2,0,P|170:90|106:107,1,140
156,187,232365,2,0,P|117:236|129:316,1,140
124,309,232865,5,0,0:0:0:0:
251,262,233032,1,0,0:0:0:0:
156,187,233198,5,0,0:0:0:0:
349,240,233365,1,0,0:0:0:0:
277,138,233532,5,0,0:0:0:0:
323,341,233698,1,0,0:0:0:0:
323,341,233865,2,0,P|381:341|400:323,1,70
349,240,234198,2,0,P|373:204|379:169,1,70
301,170,234532,5,0,0:0:0:0:
283,169,234615,1,0,0:0:0:0:
266,169,234698,1,0,0:0:0:0:
248,169,234782,1,0,0:0:0:0:
230,167,234865,5,0,0:0:0:0:
228,132,234948,1,0,0:0:0:0:
209,103,235031,1,0,0:0:0:0:
177,89,235115,1,0,0:0:0:0:
143,94,235198,1,0,0:0:0:0:
116,116,235281,1,0,0:0:0:0:
105,149,235365,1,0,0:0:0:0:
113,182,235448,1,0,0:0:0:0:
138,207,235531,1,0,0:0:0:0:
171,215,235615,1,0,0:0:0:0:
203,225,235698,5,0,0:0:0:0:
236,233,235782,1,0,0:0:0:0:
261,258,235865,1,0,0:0:0:0:
269,291,235948,1,0,0:0:0:0:
258,324,236032,1,0,0:0:0:0:
231,346,236115,1,0,0:0:0:0:
197,351,236198,1,0,0:0:0:0:
157,339,236282,1,0,0:0:0:0:
157,339,236365,6,0,P|170:289|167:274,1,35
236,233,236532,2,0,P|201:202|190:199,1,35
226,109,236698,2,0,P|208:109|184:120,1,35
201,30,236865,1,0,0:0:0:0:
226,109,236948,1,0,0:0:0:0:
287,166,237031,1,0,0:0:0:0:
370,188,237115,1,0,0:0:0:0:
453,165,237198,2,4,P|384:180|350:321,1,210.000008010865
340,300,237698,5,0,0:0:0:0:
340,300,237865,1,0,0:0:0:0:
340,300,238365,5,0,0:0:0:0:
340,300,238865,1,0,0:0:0:0:
340,300,239032,5,0,0:0:0:0:
340,300,239115,1,0,0:0:0:0:
340,300,239198,1,0,0:0:0:0:
340,300,239532,6,4,P|311:220|223:201,1,157.500006008148
60,187,239865,5,2,0:0:0:0:
211,315,240031,1,0,0:0:0:0:
160,114,240198,1,2,0:0:0:0:
95,305,240365,1,0,0:0:0:0:
247,196,240531,1,2,0:0:0:0:
54,183,240698,5,0,0:0:0:0:
205,318,240864,1,2,0:0:0:0:
153,110,241031,1,0,0:0:0:0:
86,309,241198,1,2,0:0:0:0:
246,196,241364,1,0,0:0:0:0:
45,178,241532,5,2,0:0:0:0:
201,324,241698,1,0,0:0:0:0:
150,102,241865,1,2,0:0:0:0:
76,312,242032,1,0,0:0:0:0:
246,196,242198,1,2,0:0:0:0:
35,178,242365,5,0,0:0:0:0:
199,330,242532,1,2,0:0:0:0:
146,98,242698,1,0,0:0:0:0:
68,316,242865,1,2,0:0:0:0:
245,198,243031,1,0,0:0:0:0:
24,174,243198,5,2,0:0:0:0:
192,335,243364,1,0,0:0:0:0:
140,93,243531,1,2,0:0:0:0:
56,320,243698,1,0,0:0:0:0:
244,197,243865,1,2,0:0:0:0:
14,173,244031,5,0,0:0:0:0:
244,197,244198,1,2,0:0:0:0:
56,320,244365,1,0,0:0:0:0:
192,335,244532,2,0,P|266:340|366:242,1,210.000008010865
278,266,245032,2,0,P|337:333|350:243,1,210.000008010865
469,166,245532,2,0,B|416:178|416:178|374:155|374:155|315:187|230:156,1,210.000008010865
186,221,246032,6,0,P|193:109|284:66,1,210.000008010865
269,167,246532,2,0,P|336:163|417:274,1,210.000008010865
417,267,247198,5,0,0:0:0:0:
270,167,247365,1,0,0:0:0:0:
404,250,247532,5,0,0:0:0:0:
371,158,247698,1,0,0:0:0:0:
309,266,247865,5,0,0:0:0:0:
270,167,248032,1,0,0:0:0:0:
309,288,248198,5,0,0:0:0:0:
391,145,248365,1,0,0:0:0:0:
153,153,248532,5,0,0:0:0:0:
313,75,248699,1,0,0:0:0:0:
174,150,248866,5,0,0:0:0:0:
270,167,249032,1,0,0:0:0:0:
176,84,249198,5,0,0:3:0:0:
175,117,249281,1,0,0:3:0:0:
174,150,249364,1,0,0:3:0:0:
196,247,249532,1,0,0:3:0:0:
241,271,249615,1,0,0:3:0:0:
292,273,249698,1,0,0:3:0:0:
339,250,249782,1,0,0:3:0:0:
382,220,249865,2,0,P|382:142|486:55,1,210.000008010865
235,133,250365,5,0,0:0:0:0:
463,185,250532,2,0,P|452:283|345:327,1,210.000008010865
463,185,251032,5,0,0:0:0:0:
379,237,251199,2,0,P|280:226|236:119,1,210.000008010865
115,346,252032,2,0,P|186:335|209:302,2,105.000004005432
210,312,252532,5,0,0:0:0:0:
347,172,252698,1,0,0:3:0:0:
348,180,252782,1,0,0:3:0:0:
349,188,252865,5,0,0:3:0:0:
185,136,253032,1,0,0:3:0:0:
183,127,253116,1,0,0:3:0:0:
182,119,253199,5,0,0:3:0:0:
210,312,253365,1,0,0:3:0:0:
212,321,253449,1,0,0:3:0:0:
213,329,253532,5,0,0:3:0:0:
215,329,253698,6,0,P|281:340|396:246,1,210.000008010865
306,44,254198,5,0,0:0:0:0:
391,256,254365,1,0,0:0:0:0:
411,39,254532,1,0,0:0:0:0:
398,89,254615,1,0,0:0:0:0:
365,129,254698,1,0,0:0:0:0:
317,151,254782,1,0,0:0:0:0:
265,150,254865,6,0,P|242:131|224:83,1,52.5000020027161
172,188,255032,2,0,P|156:204|120:213,1,52.5000020027161
117,123,255198,6,0,P|87:122|53:104,1,52.5000020027161
300,66,255365,2,0,P|300:40|321:9,1,52.5000020027161
312,17,255532,1,0,0:0:0:0:
117,123,256032,6,0,P|68:109|44:79,2,83.9999974365235
117,123,257365,5,0,0:0:0:0:
292,40,257532,1,0,0:0:0:0:
274,245,257698,1,0,0:0:0:0:
161,252,257865,5,0,0:0:0:0:
180,25,258032,1,0,0:0:0:0:
362,144,258198,1,0,0:0:0:0:
161,252,258365,1,0,0:0:0:0:
362,144,258532,5,0,0:0:0:0:
400,128,258615,1,0,0:0:0:0:
439,138,258698,1,0,0:0:0:0:
465,171,258782,1,0,0:0:0:0:
475,201,258865,2,0,P|453:265|375:304,1,125.999996154785
206,334,259198,5,0,0:0:0:0:
228,293,259281,1,0,0:0:0:0:
228,247,259364,1,0,0:0:0:0:
206,207,259448,1,0,0:0:0:0:
175,185,259532,2,0,P|234:165|254:76,1,125.999996154785
180,82,259865,5,0,0:0:0:0:
219,96,259948,1,0,0:0:0:0:
259,110,260031,1,0,0:0:0:0:
298,124,260115,1,0,0:0:0:0:
336,139,260198,2,0,P|377:159|456:123,1,125.999996154785
256,192,260532,12,2,263032,0:0:0:0:
116,295,263198,5,0,0:0:0:0:
142,195,263365,1,0,0:0:0:0:
275,292,263531,1,0,0:0:0:0:
262,196,263698,1,0,0:0:0:0:
116,295,263865,5,0,0:0:0:0:
142,195,264031,1,0,0:0:0:0:
262,196,264198,1,0,0:0:0:0:
275,292,264365,2,0,B|332:290|367:310|367:310|409:295|491:302,1,195.999994018555
415,128,264865,5,0,0:0:0:0:
467,300,265031,1,0,0:0:0:0:
364,207,265198,5,0,0:0:0:0:
511,172,265365,1,0,0:0:0:0:
405,46,265531,1,0,0:0:0:0:
266,91,265698,1,0,0:0:0:0:
345,210,265865,5,0,0:0:0:0:
226,182,266031,1,0,0:0:0:0:
325,199,266198,5,0,0:0:0:0:
212,289,266365,1,0,0:0:0:0:
304,189,266531,5,0,0:0:0:0:
310,340,266698,1,0,0:0:0:0:
195,272,266865,1,0,0:0:0:0:
194,268,267032,6,0,P|113:233|67:124,1,195.999994018555
174,169,267532,2,0,P|192:111|244:79,1,97.9999970092774
260,167,267865,2,0,P|331:177|397:277,1,195.999994018555
304,254,268532,6,0,P|271:318|149:332,1,195.999994018555
194,248,269198,2,0,P|133:232|45:303,2,146.999995513916
139,172,269865,2,0,P|173:239|248:115,1,293.999991027832
246,66,270532,2,0,P|258:121|366:121,2,146.999995513916
444,94,271198,2,0,P|366:113|465:312,1,391.99998803711
454,314,272032,5,0,0:0:0:0:
454,314,272365,5,4,0:0:0:0:
454,314,272698,5,4,0:0:0:0:
454,314,273032,5,4,0:0:0:0:
