osu file format v14

[General]
AudioFilename: audio.mp3
AudioLeadIn: 0
PreviewTime: 65236
Countdown: 0
SampleSet: Normal
StackLeniency: 0.7
Mode: 1
LetterboxInBreaks: 0
WidescreenStoryboard: 0

[Editor]
Bookmarks: 602,3298,8692,24872,30265,41051,51838,59928,65321,76107,92287,94983
DistanceSpacing: 1
BeatDivisor: 4
GridSize: 32
TimelineZoom: 2.699999

[Metadata]
Title:Kirihirake! Gracie*Star (Short Ver.)
TitleUnicode:きりひらけ! グレイシー☆スター (Short Ver.)
Artist:nao
ArtistUnicode:nao
Creator:Roger
Version:Inner Oni
Source:超次元ゲイム ネプテューヌmk2
Tags:taiko op opening video size version japanese pop jpop j-pop ゲーム choujigen game neptune hyperdimension neptunia the animation シェアコンプリート ディスクス share complete discs プロセッサディスク processor disc vol.5 volume 5 prismatic infinity carat YOFFY 大石憲一郎 kenichiro ohishi ][ -GH- ][
BeatmapID:2585610
BeatmapSetID:1243777

[Difficulty]
HPDrainRate:6
CircleSize:2
OverallDifficulty:7
ApproachRate:0
SliderMultiplier:1.4
SliderTickRate:1

[Events]
//Background and Video events
0,0,"bg inner.jpg",0,60
//Break Periods
//Storyboard Layer 0 (Background)
//Storyboard Layer 1 (Fail)
//Storyboard Layer 2 (Pass)
//Storyboard Layer 3 (Foreground)
//Storyboard Layer 4 (Overlay)
//Storyboard Sound Samples

[TimingPoints]
603,337.078651685393,4,1,0,40,1,0
3214,-100,4,1,0,80,0,0
3299,337.078651685393,4,1,0,80,1,0
8692,-100,4,1,0,90,0,1
22512,-100,4,1,0,80,0,0
22596,-100,4,1,0,60,0,0
24787,-100,4,1,0,70,0,0
24872,-100,4,1,0,80,0,0
59928,337.078651685393,4,1,0,80,1,0
65321,-100,4,1,0,90,0,1
75770,-100,4,1,0,80,0,0
76107,-100,4,1,0,90,0,1
89927,-100,4,1,0,80,0,0
90012,-100,4,1,0,60,0,0
92203,-100,4,1,0,80,0,0

[HitObjects]
256,192,603,8,0,2962,0:0:0:0:
256,192,3299,5,4,0:0:0:0:
256,192,3636,1,8,0:0:0:0:
256,192,3804,1,0,0:0:0:0:
256,192,3888,1,0,0:0:0:0:
256,192,3973,1,0,0:0:0:0:
256,192,4141,1,8,0:0:0:0:
256,192,4478,1,8,0:0:0:0:
256,192,4563,1,8,0:0:0:0:
256,192,4647,1,0,0:0:0:0:
256,192,4815,1,0,0:0:0:0:
256,192,4984,1,8,0:0:0:0:
256,192,5152,1,0,0:0:0:0:
256,192,5237,1,0,0:0:0:0:
256,192,5321,1,0,0:0:0:0:
256,192,5490,1,8,0:0:0:0:
256,192,5827,1,8,0:0:0:0:
256,192,5911,1,8,0:0:0:0:
256,192,5995,1,0,0:0:0:0:
256,192,6164,1,0,0:0:0:0:
256,192,6332,1,8,0:0:0:0:
256,192,6501,1,8,0:0:0:0:
256,192,6585,1,0,0:0:0:0:
256,192,6669,1,8,0:0:0:0:
256,192,6838,1,8,0:0:0:0:
256,192,6922,1,8,0:0:0:0:
256,192,7006,1,0,0:0:0:0:
256,192,7091,1,0,0:0:0:0:
256,192,7175,1,0,0:0:0:0:
256,192,7343,1,12,0:0:0:0:
256,192,7512,1,12,0:0:0:0:
256,192,7765,1,0,0:0:0:0:
256,192,7933,1,0,0:0:0:0:
256,192,8018,1,8,0:0:0:0:
256,192,8186,1,0,0:0:0:0:
256,192,8242,1,0,0:0:0:0:
256,192,8298,1,0,0:0:0:0:
256,192,8355,1,8,0:0:0:0:
256,192,8692,1,4,0:0:0:0:
256,192,9029,1,8,0:0:0:0:
256,192,9197,1,8,0:0:0:0:
256,192,9282,1,8,0:0:0:0:
256,192,9366,1,0,0:0:0:0:
256,192,9450,1,0,0:0:0:0:
256,192,9534,1,0,0:0:0:0:
256,192,9703,1,8,0:0:0:0:
256,192,9872,1,8,0:0:0:0:
256,192,9956,1,8,0:0:0:0:
256,192,10040,1,0,0:0:0:0:
256,192,10209,1,0,0:0:0:0:
256,192,10377,1,8,0:0:0:0:
256,192,10546,1,0,0:0:0:0:
256,192,10630,1,0,0:0:0:0:
256,192,10714,1,8,0:0:0:0:
256,192,10883,1,0,0:0:0:0:
256,192,11051,1,8,0:0:0:0:
256,192,11136,1,0,0:0:0:0:
256,192,11220,1,8,0:0:0:0:
256,192,11304,1,8,0:0:0:0:
256,192,11388,1,0,0:0:0:0:
256,192,11557,1,0,0:0:0:0:
256,192,11725,1,8,0:0:0:0:
256,192,11894,1,8,0:0:0:0:
256,192,11978,1,8,0:0:0:0:
256,192,12063,1,0,0:0:0:0:
256,192,12231,1,0,0:0:0:0:
256,192,12315,1,0,0:0:0:0:
256,192,12400,1,8,0:0:0:0:
256,192,12568,1,0,0:0:0:0:
256,192,12737,1,8,0:0:0:0:
256,192,12821,1,8,0:0:0:0:
256,192,12905,1,0,0:0:0:0:
256,192,12990,1,0,0:0:0:0:
256,192,13074,1,8,0:0:0:0:
256,192,13242,1,0,0:0:0:0:
256,192,13579,1,0,0:0:0:0:
256,192,13748,1,8,0:0:0:0:
256,192,13916,1,0,0:0:0:0:
256,192,14001,1,0,0:0:0:0:
256,192,14085,1,8,0:0:0:0:
256,192,14254,1,0,0:0:0:0:
256,192,14422,1,8,0:0:0:0:
256,192,14506,1,0,0:0:0:0:
256,192,14591,1,8,0:0:0:0:
256,192,14759,1,0,0:0:0:0:
256,192,14928,1,8,0:0:0:0:
256,192,15012,1,8,0:0:0:0:
256,192,15096,1,0,0:0:0:0:
256,192,15181,1,0,0:0:0:0:
256,192,15265,1,8,0:0:0:0:
256,192,15433,1,0,0:0:0:0:
256,192,15602,1,0,0:0:0:0:
256,192,15770,1,8,0:0:0:0:
256,192,15939,1,8,0:0:0:0:
256,192,16023,1,0,0:0:0:0:
256,192,16107,1,8,0:0:0:0:
256,192,16192,1,8,0:0:0:0:
256,192,16276,1,0,0:0:0:0:
256,192,16445,1,8,0:0:0:0:
256,192,16613,1,0,0:0:0:0:
256,192,16697,1,0,0:0:0:0:
256,192,16782,1,8,0:0:0:0:
256,192,17119,1,8,0:0:0:0:
256,192,17287,1,0,0:0:0:0:
256,192,17456,1,0,0:0:0:0:
256,192,17540,1,0,0:0:0:0:
256,192,17624,1,0,0:0:0:0:
256,192,17793,1,8,0:0:0:0:
256,192,17961,1,8,0:0:0:0:
256,192,18046,1,8,0:0:0:0:
256,192,18130,1,0,0:0:0:0:
256,192,18298,1,0,0:0:0:0:
256,192,18467,1,8,0:0:0:0:
256,192,18636,1,8,0:0:0:0:
256,192,18720,1,8,0:0:0:0:
256,192,18804,1,0,0:0:0:0:
256,192,18888,1,8,0:0:0:0:
256,192,18973,1,0,0:0:0:0:
256,192,19057,1,0,0:0:0:0:
256,192,19141,1,8,0:0:0:0:
256,192,19310,1,0,0:0:0:0:
256,192,19394,1,8,0:0:0:0:
256,192,19478,1,0,0:0:0:0:
256,192,19815,1,8,0:0:0:0:
256,192,19984,1,0,0:0:0:0:
256,192,20068,1,0,0:0:0:0:
256,192,20152,1,0,0:0:0:0:
256,192,20321,1,0,0:0:0:0:
256,192,20490,1,8,0:0:0:0:
256,192,20658,1,8,0:0:0:0:
256,192,20742,1,8,0:0:0:0:
256,192,20827,1,0,0:0:0:0:
256,192,20995,1,8,0:0:0:0:
256,192,21079,1,0,0:0:0:0:
256,192,21164,1,8,0:0:0:0:
256,192,21332,1,0,0:0:0:0:
256,192,21416,1,8,0:0:0:0:
256,192,21501,1,8,0:0:0:0:
256,192,21585,1,8,0:0:0:0:
256,192,21669,1,0,0:0:0:0:
256,192,21838,1,8,0:0:0:0:
256,192,22006,1,4,0:0:0:0:
256,192,22343,1,12,0:0:0:0:
256,192,22512,1,12,0:0:0:0:
256,192,22681,8,0,24534,0:0:0:0:
256,192,24872,5,4,0:0:0:0:
256,192,25040,1,0,0:0:0:0:
256,192,25209,1,8,0:0:0:0:
256,192,25377,1,0,0:0:0:0:
256,192,25461,1,0,0:0:0:0:
256,192,25546,1,0,0:0:0:0:
256,192,25714,1,0,0:0:0:0:
256,192,25883,1,8,0:0:0:0:
256,192,26051,1,8,0:0:0:0:
256,192,26136,1,8,0:0:0:0:
256,192,26220,1,0,0:0:0:0:
256,192,26388,1,0,0:0:0:0:
256,192,26557,1,8,0:0:0:0:
256,192,26725,1,0,0:0:0:0:
256,192,26810,1,0,0:0:0:0:
256,192,26894,1,8,0:0:0:0:
256,192,26978,1,8,0:0:0:0:
256,192,27063,1,0,0:0:0:0:
256,192,27231,1,8,0:0:0:0:
256,192,27568,1,0,0:0:0:0:
256,192,27737,1,0,0:0:0:0:
256,192,27905,1,8,0:0:0:0:
256,192,28074,1,0,0:0:0:0:
256,192,28158,1,0,0:0:0:0:
256,192,28242,1,0,0:0:0:0:
256,192,28411,1,0,0:0:0:0:
256,192,28579,1,8,0:0:0:0:
256,192,28748,1,8,0:0:0:0:
256,192,28832,1,8,0:0:0:0:
256,192,28916,1,0,0:0:0:0:
256,192,29085,1,0,0:0:0:0:
256,192,29169,1,0,0:0:0:0:
256,192,29254,1,8,0:0:0:0:
256,192,29422,1,0,0:0:0:0:
256,192,29506,1,0,0:0:0:0:
256,192,29591,1,0,0:0:0:0:
256,192,29675,1,0,0:0:0:0:
256,192,29759,1,0,0:0:0:0:
256,192,29928,1,8,0:0:0:0:
256,192,30265,1,4,0:0:0:0:
256,192,30602,1,8,0:0:0:0:
256,192,30770,1,0,0:0:0:0:
256,192,30855,1,0,0:0:0:0:
256,192,30939,1,0,0:0:0:0:
256,192,31107,1,0,0:0:0:0:
256,192,31276,1,8,0:0:0:0:
256,192,31445,1,8,0:0:0:0:
256,192,31529,1,8,0:0:0:0:
256,192,31613,1,0,0:0:0:0:
256,192,31782,1,0,0:0:0:0:
256,192,31950,1,8,0:0:0:0:
256,192,32119,1,0,0:0:0:0:
256,192,32456,1,0,0:0:0:0:
256,192,32624,1,8,0:0:0:0:
256,192,32793,1,0,0:0:0:0:
256,192,32877,1,0,0:0:0:0:
256,192,32961,1,8,0:0:0:0:
256,192,33130,1,0,0:0:0:0:
256,192,33298,1,8,0:0:0:0:
256,192,33383,1,8,0:0:0:0:
256,192,33467,1,0,0:0:0:0:
256,192,33636,1,0,0:0:0:0:
256,192,33804,1,0,0:0:0:0:
256,192,33973,1,8,0:0:0:0:
256,192,34141,1,8,0:0:0:0:
256,192,34225,1,0,0:0:0:0:
256,192,34310,1,8,0:0:0:0:
256,192,34478,1,0,0:0:0:0:
256,192,34647,1,8,0:0:0:0:
256,192,34815,1,0,0:0:0:0:
256,192,34984,1,0,0:0:0:0:
256,192,35068,1,0,0:0:0:0:
256,192,35152,1,0,0:0:0:0:
256,192,35321,1,8,0:0:0:0:
256,192,35490,1,0,0:0:0:0:
256,192,35574,1,8,0:0:0:0:
256,192,35658,1,0,0:0:0:0:
256,192,35995,1,8,0:0:0:0:
256,192,36164,1,0,0:0:0:0:
256,192,36332,1,0,0:0:0:0:
256,192,36416,1,0,0:0:0:0:
256,192,36501,1,0,0:0:0:0:
256,192,36669,1,8,0:0:0:0:
256,192,36838,1,8,0:0:0:0:
256,192,36922,1,8,0:0:0:0:
256,192,37006,1,0,0:0:0:0:
256,192,37175,1,0,0:0:0:0:
256,192,37343,1,8,0:0:0:0:
256,192,37512,1,0,0:0:0:0:
256,192,37849,1,0,0:0:0:0:
256,192,38018,1,8,0:0:0:0:
256,192,38186,1,0,0:0:0:0:
256,192,38270,1,8,0:0:0:0:
256,192,38355,1,0,0:0:0:0:
256,192,38523,1,0,0:0:0:0:
256,192,38692,1,8,0:0:0:0:
256,192,38860,1,0,0:0:0:0:
256,192,39029,1,0,0:0:0:0:
256,192,39113,1,0,0:0:0:0:
256,192,39197,1,0,0:0:0:0:
256,192,39366,1,8,0:0:0:0:
256,192,39534,1,8,0:0:0:0:
256,192,39619,1,8,0:0:0:0:
256,192,39703,1,0,0:0:0:0:
256,192,39872,1,0,0:0:0:0:
256,192,40040,1,8,0:0:0:0:
256,192,40209,1,8,0:0:0:0:
256,192,40293,1,0,0:0:0:0:
256,192,40377,1,8,0:0:0:0:
256,192,40546,1,0,0:0:0:0:
256,192,40630,1,0,0:0:0:0:
256,192,40714,1,8,0:0:0:0:
256,192,40883,1,0,0:0:0:0:
256,192,41051,1,4,0:0:0:0:
256,192,41388,1,8,0:0:0:0:
256,192,41557,1,0,0:0:0:0:
256,192,41641,1,0,0:0:0:0:
256,192,41725,1,0,0:0:0:0:
256,192,41894,1,0,0:0:0:0:
256,192,42063,1,8,0:0:0:0:
256,192,42231,1,8,0:0:0:0:
256,192,42315,1,8,0:0:0:0:
256,192,42400,1,0,0:0:0:0:
256,192,42568,1,0,0:0:0:0:
256,192,42737,1,8,0:0:0:0:
256,192,42905,1,0,0:0:0:0:
256,192,43242,1,0,0:0:0:0:
256,192,43411,1,8,0:0:0:0:
256,192,43579,1,0,0:0:0:0:
256,192,43664,1,0,0:0:0:0:
256,192,43748,1,8,0:0:0:0:
256,192,43916,1,0,0:0:0:0:
256,192,44085,1,8,0:0:0:0:
256,192,44169,1,0,0:0:0:0:
256,192,44254,1,8,0:0:0:0:
256,192,44422,1,0,0:0:0:0:
256,192,44591,1,0,0:0:0:0:
256,192,44759,1,8,0:0:0:0:
256,192,44928,1,8,0:0:0:0:
256,192,45012,1,8,0:0:0:0:
256,192,45096,1,0,0:0:0:0:
256,192,45265,1,0,0:0:0:0:
256,192,45433,1,8,0:0:0:0:
256,192,45602,1,0,0:0:0:0:
256,192,45770,1,0,0:0:0:0:
256,192,45855,1,0,0:0:0:0:
256,192,45939,1,0,0:0:0:0:
256,192,46107,1,8,0:0:0:0:
256,192,46276,1,8,0:0:0:0:
256,192,46360,1,8,0:0:0:0:
256,192,46445,1,0,0:0:0:0:
256,192,46782,1,8,0:0:0:0:
256,192,46950,1,0,0:0:0:0:
256,192,47119,1,0,0:0:0:0:
256,192,47203,1,0,0:0:0:0:
256,192,47287,1,0,0:0:0:0:
256,192,47456,1,8,0:0:0:0:
256,192,47624,1,0,0:0:0:0:
256,192,47709,1,0,0:0:0:0:
256,192,47793,1,8,0:0:0:0:
256,192,47961,1,0,0:0:0:0:
256,192,48130,1,0,0:0:0:0:
256,192,48298,1,8,0:0:0:0:
256,192,48636,1,0,0:0:0:0:
256,192,48804,1,8,0:0:0:0:
256,192,48973,1,0,0:0:0:0:
256,192,49057,1,8,0:0:0:0:
256,192,49141,1,0,0:0:0:0:
256,192,49310,1,0,0:0:0:0:
256,192,49478,1,8,0:0:0:0:
256,192,49647,1,0,0:0:0:0:
256,192,49815,1,0,0:0:0:0:
256,192,49900,1,0,0:0:0:0:
256,192,49984,1,0,0:0:0:0:
256,192,50152,1,8,0:0:0:0:
256,192,50321,1,8,0:0:0:0:
256,192,50405,1,8,0:0:0:0:
256,192,50490,1,0,0:0:0:0:
256,192,50658,1,8,0:0:0:0:
256,192,50742,1,0,0:0:0:0:
256,192,50827,1,8,0:0:0:0:
256,192,50995,1,0,0:0:0:0:
256,192,51164,1,8,0:0:0:0:
256,192,51248,1,8,0:0:0:0:
256,192,51332,1,0,0:0:0:0:
256,192,51416,1,0,0:0:0:0:
256,192,51501,1,8,0:0:0:0:
256,192,51669,1,8,0:0:0:0:
256,192,51838,1,4,0:0:0:0:
256,192,52175,1,8,0:0:0:0:
256,192,52343,1,0,0:0:0:0:
256,192,52428,1,0,0:0:0:0:
256,192,52512,1,8,0:0:0:0:
256,192,52681,1,0,0:0:0:0:
256,192,53018,1,0,0:0:0:0:
256,192,53186,1,0,0:0:0:0:
256,192,53355,1,8,0:0:0:0:
256,192,53523,1,8,0:0:0:0:
256,192,53692,1,0,0:0:0:0:
256,192,53776,1,0,0:0:0:0:
256,192,53860,1,8,0:0:0:0:
256,192,54029,1,0,0:0:0:0:
256,192,54197,1,8,0:0:0:0:
256,192,54282,1,8,0:0:0:0:
256,192,54366,1,0,0:0:0:0:
256,192,54450,1,8,0:0:0:0:
256,192,54534,1,0,0:0:0:0:
256,192,54703,1,0,0:0:0:0:
256,192,54872,1,8,0:0:0:0:
256,192,55040,1,0,0:0:0:0:
256,192,55124,1,0,0:0:0:0:
256,192,55209,1,8,0:0:0:0:
256,192,55377,1,0,0:0:0:0:
256,192,55714,1,0,0:0:0:0:
256,192,55883,1,8,0:0:0:0:
256,192,56051,1,0,0:0:0:0:
256,192,56220,1,0,0:0:0:0:
256,192,56388,1,8,0:0:0:0:
256,192,56473,1,0,0:0:0:0:
256,192,56557,1,8,0:0:0:0:
256,192,56725,1,0,0:0:0:0:
256,192,57063,1,8,0:0:0:0:
256,192,57147,1,8,0:0:0:0:
256,192,57231,1,0,0:0:0:0:
256,192,57400,1,0,0:0:0:0:
256,192,57568,1,8,0:0:0:0:
256,192,57737,1,0,0:0:0:0:
256,192,57821,1,0,0:0:0:0:
256,192,57905,1,8,0:0:0:0:
256,192,58074,1,0,0:0:0:0:
256,192,58411,1,0,0:0:0:0:
256,192,58579,1,0,0:0:0:0:
256,192,58748,1,8,0:0:0:0:
256,192,58916,1,8,0:0:0:0:
256,192,59085,1,0,0:0:0:0:
256,192,59169,1,0,0:0:0:0:
256,192,59254,1,8,0:0:0:0:
256,192,59422,1,0,0:0:0:0:
256,192,59506,1,8,0:0:0:0:
256,192,59591,1,0,0:0:0:0:
256,192,59759,1,0,0:0:0:0:
256,192,59928,1,12,0:0:0:0:
256,192,60265,1,8,0:0:0:0:
256,192,60433,1,0,0:0:0:0:
256,192,60517,1,0,0:0:0:0:
256,192,60602,1,0,0:0:0:0:
256,192,60770,1,0,0:0:0:0:
256,192,60939,1,8,0:0:0:0:
256,192,61023,1,0,0:0:0:0:
256,192,61107,1,8,0:0:0:0:
256,192,61192,1,8,0:0:0:0:
256,192,61276,1,0,0:0:0:0:
256,192,61444,1,0,0:0:0:0:
256,192,61613,1,8,0:0:0:0:
256,192,61781,1,0,0:0:0:0:
256,192,62119,1,0,0:0:0:0:
256,192,62287,1,8,0:0:0:0:
256,192,62456,1,0,0:0:0:0:
256,192,62540,1,0,0:0:0:0:
256,192,62624,1,8,0:0:0:0:
256,192,62793,1,0,0:0:0:0:
256,192,62961,1,8,0:0:0:0:
256,192,63130,1,8,0:0:0:0:
256,192,63214,1,0,0:0:0:0:
256,192,63298,1,8,0:0:0:0:
256,192,63467,1,0,0:0:0:0:
256,192,63551,1,0,0:0:0:0:
256,192,63635,1,8,0:0:0:0:
256,192,63720,1,8,0:0:0:0:
256,192,63804,1,0,0:0:0:0:
256,192,63972,1,12,0:0:0:0:
256,192,64141,1,12,0:0:0:0:
256,192,64394,1,0,0:0:0:0:
256,192,64562,1,0,0:0:0:0:
256,192,64647,1,8,0:0:0:0:
256,192,64815,1,0,0:0:0:0:
256,192,64871,1,0,0:0:0:0:
256,192,64928,1,0,0:0:0:0:
256,192,64984,1,8,0:0:0:0:
256,192,65152,1,0,0:0:0:0:
256,192,65321,1,4,0:0:0:0:
256,192,65658,1,8,0:0:0:0:
256,192,65826,1,8,0:0:0:0:
256,192,65911,1,8,0:0:0:0:
256,192,65995,1,0,0:0:0:0:
256,192,66079,1,0,0:0:0:0:
256,192,66163,1,0,0:0:0:0:
256,192,66332,1,8,0:0:0:0:
256,192,66501,1,8,0:0:0:0:
256,192,66585,1,8,0:0:0:0:
256,192,66669,1,0,0:0:0:0:
256,192,66838,1,0,0:0:0:0:
256,192,67006,1,8,0:0:0:0:
256,192,67175,1,0,0:0:0:0:
256,192,67259,1,0,0:0:0:0:
256,192,67343,1,8,0:0:0:0:
256,192,67512,1,0,0:0:0:0:
256,192,67680,1,8,0:0:0:0:
256,192,67765,1,0,0:0:0:0:
256,192,67849,1,8,0:0:0:0:
256,192,67933,1,8,0:0:0:0:
256,192,68017,1,0,0:0:0:0:
256,192,68186,1,0,0:0:0:0:
256,192,68354,1,8,0:0:0:0:
256,192,68523,1,8,0:0:0:0:
256,192,68607,1,8,0:0:0:0:
256,192,68692,1,0,0:0:0:0:
256,192,68860,1,0,0:0:0:0:
256,192,68944,1,0,0:0:0:0:
256,192,69029,1,8,0:0:0:0:
256,192,69197,1,0,0:0:0:0:
256,192,69366,1,8,0:0:0:0:
256,192,69450,1,8,0:0:0:0:
256,192,69534,1,0,0:0:0:0:
256,192,69619,1,0,0:0:0:0:
256,192,69703,1,8,0:0:0:0:
256,192,69871,1,0,0:0:0:0:
256,192,70208,1,0,0:0:0:0:
256,192,70377,1,8,0:0:0:0:
256,192,70545,1,8,0:0:0:0:
256,192,70630,1,8,0:0:0:0:
256,192,70714,1,0,0:0:0:0:
256,192,70883,1,0,0:0:0:0:
256,192,71051,1,8,0:0:0:0:
256,192,71135,1,0,0:0:0:0:
256,192,71220,1,8,0:0:0:0:
256,192,71388,1,0,0:0:0:0:
256,192,71557,1,8,0:0:0:0:
256,192,71641,1,8,0:0:0:0:
256,192,71725,1,0,0:0:0:0:
256,192,71810,1,0,0:0:0:0:
256,192,71894,1,8,0:0:0:0:
256,192,72062,1,0,0:0:0:0:
256,192,72231,1,0,0:0:0:0:
256,192,72399,1,8,0:0:0:0:
256,192,72568,1,0,0:0:0:0:
256,192,72652,1,0,0:0:0:0:
256,192,72736,1,8,0:0:0:0:
256,192,72821,1,8,0:0:0:0:
256,192,72905,1,0,0:0:0:0:
256,192,73074,1,8,0:0:0:0:
256,192,73242,1,0,0:0:0:0:
256,192,73326,1,8,0:0:0:0:
256,192,73411,1,0,0:0:0:0:
256,192,73748,1,8,0:0:0:0:
256,192,73916,1,8,0:0:0:0:
256,192,74001,1,8,0:0:0:0:
256,192,74085,1,0,0:0:0:0:
256,192,74253,1,0,0:0:0:0:
256,192,74422,1,8,0:0:0:0:
256,192,74590,1,8,0:0:0:0:
256,192,74675,1,0,0:0:0:0:
256,192,74759,1,8,0:0:0:0:
256,192,74843,1,8,0:0:0:0:
256,192,74927,1,0,0:0:0:0:
256,192,75012,1,0,0:0:0:0:
256,192,75096,1,8,0:0:0:0:
256,192,75265,1,0,0:0:0:0:
256,192,75349,1,8,0:0:0:0:
256,192,75433,1,0,0:0:0:0:
256,192,75602,1,8,0:0:0:0:
256,192,75770,1,0,0:0:0:0:
256,192,75854,1,0,0:0:0:0:
256,192,75939,1,0,0:0:0:0:
256,192,76023,1,0,0:0:0:0:
256,192,76107,1,12,0:0:0:0:
256,192,76444,1,8,0:0:0:0:
256,192,76613,1,0,0:0:0:0:
256,192,76697,1,8,0:0:0:0:
256,192,76781,1,0,0:0:0:0:
256,192,76866,1,0,0:0:0:0:
256,192,76950,1,0,0:0:0:0:
256,192,77119,1,8,0:0:0:0:
256,192,77287,1,8,0:0:0:0:
256,192,77371,1,8,0:0:0:0:
256,192,77456,1,0,0:0:0:0:
256,192,77624,1,0,0:0:0:0:
256,192,77793,1,8,0:0:0:0:
256,192,77961,1,0,0:0:0:0:
256,192,78045,1,0,0:0:0:0:
256,192,78130,1,8,0:0:0:0:
256,192,78298,1,0,0:0:0:0:
256,192,78467,1,8,0:0:0:0:
256,192,78551,1,8,0:0:0:0:
256,192,78635,1,0,0:0:0:0:
256,192,78720,1,8,0:0:0:0:
256,192,78804,1,0,0:0:0:0:
256,192,78972,1,0,0:0:0:0:
256,192,79141,1,8,0:0:0:0:
256,192,79310,1,8,0:0:0:0:
256,192,79394,1,8,0:0:0:0:
256,192,79478,1,0,0:0:0:0:
256,192,79647,1,0,0:0:0:0:
256,192,79731,1,0,0:0:0:0:
256,192,79815,1,8,0:0:0:0:
256,192,79984,1,0,0:0:0:0:
256,192,80152,1,8,0:0:0:0:
256,192,80236,1,0,0:0:0:0:
256,192,80321,1,0,0:0:0:0:
256,192,80405,1,0,0:0:0:0:
256,192,80489,1,8,0:0:0:0:
256,192,80658,1,0,0:0:0:0:
256,192,80995,1,0,0:0:0:0:
256,192,81163,1,8,0:0:0:0:
256,192,81332,1,0,0:0:0:0:
256,192,81416,1,0,0:0:0:0:
256,192,81501,1,8,0:0:0:0:
256,192,81669,1,0,0:0:0:0:
256,192,81838,1,8,0:0:0:0:
256,192,81922,1,0,0:0:0:0:
256,192,82006,1,8,0:0:0:0:
256,192,82175,1,0,0:0:0:0:
256,192,82343,1,8,0:0:0:0:
256,192,82427,1,8,0:0:0:0:
256,192,82512,1,0,0:0:0:0:
256,192,82596,1,0,0:0:0:0:
256,192,82680,1,8,0:0:0:0:
256,192,82849,1,0,0:0:0:0:
256,192,83017,1,0,0:0:0:0:
256,192,83186,1,8,0:0:0:0:
256,192,83354,1,8,0:0:0:0:
256,192,83439,1,0,0:0:0:0:
256,192,83523,1,8,0:0:0:0:
256,192,83607,1,8,0:0:0:0:
256,192,83692,1,0,0:0:0:0:
256,192,83860,1,8,0:0:0:0:
256,192,84029,1,0,0:0:0:0:
256,192,84113,1,0,0:0:0:0:
256,192,84197,1,8,0:0:0:0:
256,192,84534,1,8,0:0:0:0:
256,192,84703,1,0,0:0:0:0:
256,192,84871,1,0,0:0:0:0:
256,192,84956,1,0,0:0:0:0:
256,192,85040,1,0,0:0:0:0:
256,192,85208,1,8,0:0:0:0:
256,192,85377,1,8,0:0:0:0:
256,192,85461,1,8,0:0:0:0:
256,192,85545,1,0,0:0:0:0:
256,192,85714,1,0,0:0:0:0:
256,192,85883,1,8,0:0:0:0:
256,192,86051,1,8,0:0:0:0:
256,192,86135,1,8,0:0:0:0:
256,192,86220,1,0,0:0:0:0:
256,192,86304,1,8,0:0:0:0:
256,192,86388,1,0,0:0:0:0:
256,192,86472,1,0,0:0:0:0:
256,192,86557,1,8,0:0:0:0:
256,192,86725,1,0,0:0:0:0:
256,192,86810,1,8,0:0:0:0:
256,192,86894,1,0,0:0:0:0:
256,192,87231,1,8,0:0:0:0:
256,192,87399,1,0,0:0:0:0:
256,192,87484,1,0,0:0:0:0:
256,192,87568,1,0,0:0:0:0:
256,192,87736,1,0,0:0:0:0:
256,192,87905,1,8,0:0:0:0:
256,192,88074,1,8,0:0:0:0:
256,192,88158,1,8,0:0:0:0:
256,192,88242,1,0,0:0:0:0:
256,192,88411,1,8,0:0:0:0:
256,192,88495,1,0,0:0:0:0:
256,192,88579,1,8,0:0:0:0:
256,192,88748,1,0,0:0:0:0:
256,192,88832,1,8,0:0:0:0:
256,192,88916,1,8,0:0:0:0:
256,192,89001,1,8,0:0:0:0:
256,192,89085,1,0,0:0:0:0:
256,192,89253,1,8,0:0:0:0:
256,192,89422,1,4,0:0:0:0:
256,192,89759,1,12,0:0:0:0:
256,192,89927,1,12,0:0:0:0:
256,192,90096,8,0,91950,0:0:0:0:
256,192,92287,5,8,0:0:0:0:
256,192,92456,1,0,0:0:0:0:
256,192,92540,1,0,0:0:0:0:
256,192,92624,1,0,0:0:0:0:
256,192,92793,1,12,0:0:0:0:
256,192,93130,1,0,0:0:0:0:
256,192,93298,1,8,0:0:0:0:
256,192,93383,1,8,0:0:0:0:
256,192,93467,1,0,0:0:0:0:
256,192,93551,1,0,0:0:0:0:
256,192,93635,1,0,0:0:0:0:
256,192,93804,1,12,0:0:0:0:
