osu file format v14

[General]
AudioFilename: audio.mp3
AudioLeadIn: 0
PreviewTime: 65236
Countdown: 0
SampleSet: Normal
StackLeniency: 0.7
Mode: 1
LetterboxInBreaks: 0
WidescreenStoryboard: 0

[Editor]
Bookmarks: 602,3298,8692,24872,30265,41051,51838,59928,65321,76107,92287,94983
DistanceSpacing: 1
BeatDivisor: 2
GridSize: 32
TimelineZoom: 1.8

[Metadata]
Title:Kirihirake! Gracie*Star (Short Ver.)
TitleUnicode:きりひらけ! グレイシー☆スター (Short Ver.)
Artist:nao
ArtistUnicode:nao
Creator:Roger
Version:Futsuu
Source:超次元ゲイム ネプテューヌmk2
Tags:taiko op opening video size version japanese pop jpop j-pop ゲーム choujigen game neptune hyperdimension neptunia the animation シェアコンプリート ディスクス share complete discs プロセッサディスク processor disc vol.5 volume 5 prismatic infinity carat YOFFY 大石憲一郎 kenichiro ohishi ][ -GH- ][
BeatmapID:2596202
BeatmapSetID:1243777

[Difficulty]
HPDrainRate:7
CircleSize:2
OverallDifficulty:4
ApproachRate:0
SliderMultiplier:1.4
SliderTickRate:1

[Events]
//Background and Video events
0,0,"bg kf.jpg",0,60
//Break Periods
//Storyboard Layer 0 (Background)
//Storyboard Layer 1 (Fail)
//Storyboard Layer 2 (Pass)
//Storyboard Layer 3 (Foreground)
//Storyboard Layer 4 (Overlay)
//Storyboard Sound Samples

[TimingPoints]
603,337.078651685393,4,1,0,40,1,0
3214,-100,4,1,0,80,0,0
3299,337.078651685393,4,1,0,80,1,0
8692,-100,4,1,0,90,0,1
22512,-100,4,1,0,80,0,0
22596,-100,4,1,0,60,0,0
24787,-100,4,1,0,70,0,0
24872,-100,4,1,0,80,0,0
59928,337.078651685393,4,1,0,80,1,0
65321,-100,4,1,0,90,0,1
75770,-100,4,1,0,80,0,0
76107,-100,4,1,0,90,0,1
89927,-100,4,1,0,80,0,0
90012,-100,4,1,0,60,0,0
92203,-100,4,1,0,80,0,0

[HitObjects]
256,192,603,8,0,2962,0:0:0:0:
256,192,3299,5,4,0:0:0:0:
256,192,3636,1,8,0:0:0:0:
256,192,3804,1,0,0:0:0:0:
256,192,4141,1,8,0:0:0:0:
256,192,4647,1,0,0:0:0:0:
256,192,4984,1,8,0:0:0:0:
256,192,5152,1,0,0:0:0:0:
256,192,5490,1,8,0:0:0:0:
256,192,5995,1,0,0:0:0:0:
256,192,6332,1,8,0:0:0:0:
256,192,6501,1,0,0:0:0:0:
256,192,6669,1,8,0:0:0:0:
256,192,7006,1,0,0:0:0:0:
256,192,7343,1,12,0:0:0:0:
256,192,7512,1,12,0:0:0:0:
256,192,8355,1,8,0:0:0:0:
256,192,8692,1,4,0:0:0:0:
256,192,9197,1,8,0:0:0:0:
256,192,9366,1,0,0:0:0:0:
256,192,9703,1,8,0:0:0:0:
256,192,10040,1,0,0:0:0:0:
256,192,10377,1,0,0:0:0:0:
256,192,10714,1,8,0:0:0:0:
256,192,11051,1,8,0:0:0:0:
256,192,11220,1,8,0:0:0:0:
256,192,11388,1,0,0:0:0:0:
256,192,12063,1,8,0:0:0:0:
256,192,12400,1,0,0:0:0:0:
256,192,12568,1,0,0:0:0:0:
256,192,12737,1,8,0:0:0:0:
256,192,13074,1,8,0:0:0:0:
256,192,13242,1,0,0:0:0:0:
256,192,13748,1,8,0:0:0:0:
256,192,14085,1,0,0:0:0:0:
256,192,14422,1,0,0:0:0:0:
256,192,14591,1,8,0:0:0:0:
256,192,14928,1,0,0:0:0:0:
256,192,15265,1,8,0:0:0:0:
256,192,16107,1,0,0:0:0:0:
256,192,16445,1,8,0:0:0:0:
256,192,16613,1,0,0:0:0:0:
256,192,16782,1,8,0:0:0:0:
256,192,17119,1,8,0:0:0:0:
256,192,17456,1,0,0:0:0:0:
256,192,17793,1,8,0:0:0:0:
256,192,17961,1,8,0:0:0:0:
256,192,18130,1,0,0:0:0:0:
256,192,18467,1,8,0:0:0:0:
256,192,18804,1,0,0:0:0:0:
256,192,18973,1,0,0:0:0:0:
256,192,19141,1,8,0:0:0:0:
256,192,19310,1,8,0:0:0:0:
256,192,19478,1,0,0:0:0:0:
256,192,19815,1,8,0:0:0:0:
256,192,20490,1,8,0:0:0:0:
256,192,20827,1,0,0:0:0:0:
256,192,20995,1,0,0:0:0:0:
256,192,21164,1,8,0:0:0:0:
256,192,21501,1,0,0:0:0:0:
256,192,21838,1,8,0:0:0:0:
256,192,22006,1,4,0:0:0:0:
256,192,22343,1,12,0:0:0:0:
256,192,22512,1,12,0:0:0:0:
256,192,24872,1,4,0:0:0:0:
256,192,25209,1,8,0:0:0:0:
256,192,25377,1,0,0:0:0:0:
256,192,25883,1,8,0:0:0:0:
256,192,26220,1,0,0:0:0:0:
256,192,26388,1,8,0:0:0:0:
256,192,26894,1,0,0:0:0:0:
256,192,27063,1,0,0:0:0:0:
256,192,27231,1,8,0:0:0:0:
256,192,27568,1,0,0:0:0:0:
256,192,27905,1,8,0:0:0:0:
256,192,28074,1,0,0:0:0:0:
256,192,28579,1,8,0:0:0:0:
256,192,28916,1,0,0:0:0:0:
256,192,29085,1,8,0:0:0:0:
256,192,29591,1,0,0:0:0:0:
256,192,29759,1,0,0:0:0:0:
256,192,29928,1,8,0:0:0:0:
256,192,30265,1,4,0:0:0:0:
256,192,30602,1,8,0:0:0:0:
256,192,31276,1,8,0:0:0:0:
256,192,31613,1,0,0:0:0:0:
256,192,31950,1,8,0:0:0:0:
256,192,32624,1,8,0:0:0:0:
256,192,32961,1,0,0:0:0:0:
256,192,33298,1,8,0:0:0:0:
256,192,33467,1,8,0:0:0:0:
256,192,33973,1,8,0:0:0:0:
256,192,34310,1,0,0:0:0:0:
256,192,34647,1,8,0:0:0:0:
256,192,34815,1,0,0:0:0:0:
256,192,35152,1,0,0:0:0:0:
256,192,35321,1,8,0:0:0:0:
256,192,35658,1,0,0:0:0:0:
256,192,35995,1,8,0:0:0:0:
256,192,36669,1,8,0:0:0:0:
256,192,36838,1,8,0:0:0:0:
256,192,37006,1,0,0:0:0:0:
256,192,37343,1,8,0:0:0:0:
256,192,37849,1,0,0:0:0:0:
256,192,38018,1,8,0:0:0:0:
256,192,38355,1,0,0:0:0:0:
256,192,38692,1,8,0:0:0:0:
256,192,39197,1,0,0:0:0:0:
256,192,39366,1,8,0:0:0:0:
256,192,39703,1,0,0:0:0:0:
256,192,40040,1,8,0:0:0:0:
256,192,40209,1,0,0:0:0:0:
256,192,40377,1,8,0:0:0:0:
256,192,40714,1,8,0:0:0:0:
256,192,41051,1,4,0:0:0:0:
256,192,41388,1,8,0:0:0:0:
256,192,42063,1,8,0:0:0:0:
256,192,42400,1,0,0:0:0:0:
256,192,42737,1,8,0:0:0:0:
256,192,43411,1,8,0:0:0:0:
256,192,43748,1,0,0:0:0:0:
256,192,44085,1,8,0:0:0:0:
256,192,44254,1,8,0:0:0:0:
256,192,44759,1,8,0:0:0:0:
256,192,45096,1,0,0:0:0:0:
256,192,45433,1,8,0:0:0:0:
256,192,45602,1,0,0:0:0:0:
256,192,45939,1,0,0:0:0:0:
256,192,46107,1,8,0:0:0:0:
256,192,46445,1,0,0:0:0:0:
256,192,46782,1,8,0:0:0:0:
256,192,47456,1,8,0:0:0:0:
256,192,47624,1,8,0:0:0:0:
256,192,47793,1,0,0:0:0:0:
256,192,48130,1,8,0:0:0:0:
256,192,48636,1,0,0:0:0:0:
256,192,48804,1,8,0:0:0:0:
256,192,49141,1,0,0:0:0:0:
256,192,49478,1,8,0:0:0:0:
256,192,49984,1,0,0:0:0:0:
256,192,50152,1,8,0:0:0:0:
256,192,50490,1,0,0:0:0:0:
256,192,50827,1,8,0:0:0:0:
256,192,51164,1,8,0:0:0:0:
256,192,51332,1,0,0:0:0:0:
256,192,51501,1,8,0:0:0:0:
256,192,51838,1,4,0:0:0:0:
256,192,52175,1,8,0:0:0:0:
256,192,52512,1,8,0:0:0:0:
256,192,53186,1,0,0:0:0:0:
256,192,53523,1,0,0:0:0:0:
256,192,53860,1,8,0:0:0:0:
256,192,54029,1,0,0:0:0:0:
256,192,54366,1,0,0:0:0:0:
256,192,54534,1,0,0:0:0:0:
256,192,54872,1,8,0:0:0:0:
256,192,55209,1,8,0:0:0:0:
256,192,55883,1,8,0:0:0:0:
256,192,56388,1,0,0:0:0:0:
256,192,56557,1,8,0:0:0:0:
256,192,56725,1,0,0:0:0:0:
256,192,57063,1,0,0:0:0:0:
256,192,57231,1,0,0:0:0:0:
256,192,57568,1,8,0:0:0:0:
256,192,57905,1,8,0:0:0:0:
256,192,58579,1,0,0:0:0:0:
256,192,58916,1,0,0:0:0:0:
256,192,59254,1,8,0:0:0:0:
256,192,59422,1,0,0:0:0:0:
256,192,59759,1,0,0:0:0:0:
256,192,59928,1,12,0:0:0:0:
256,192,60265,1,8,0:0:0:0:
256,192,60770,1,0,0:0:0:0:
256,192,60939,1,8,0:0:0:0:
256,192,61276,1,0,0:0:0:0:
256,192,61613,1,8,0:0:0:0:
256,192,62119,1,0,0:0:0:0:
256,192,62287,1,8,0:0:0:0:
256,192,62624,1,0,0:0:0:0:
256,192,62961,1,8,0:0:0:0:
256,192,63130,1,0,0:0:0:0:
256,192,63298,1,8,0:0:0:0:
256,192,63635,1,0,0:0:0:0:
256,192,63972,1,12,0:0:0:0:
256,192,64141,1,12,0:0:0:0:
256,192,64984,1,8,0:0:0:0:
256,192,65321,1,4,0:0:0:0:
256,192,65826,1,8,0:0:0:0:
256,192,65995,1,0,0:0:0:0:
256,192,66332,1,8,0:0:0:0:
256,192,66669,1,0,0:0:0:0:
256,192,67006,1,0,0:0:0:0:
256,192,67343,1,8,0:0:0:0:
256,192,67680,1,8,0:0:0:0:
256,192,67849,1,8,0:0:0:0:
256,192,68017,1,0,0:0:0:0:
256,192,68692,1,8,0:0:0:0:
256,192,69029,1,0,0:0:0:0:
256,192,69197,1,0,0:0:0:0:
256,192,69366,1,8,0:0:0:0:
256,192,69703,1,8,0:0:0:0:
256,192,69871,1,0,0:0:0:0:
256,192,70377,1,8,0:0:0:0:
256,192,70714,1,0,0:0:0:0:
256,192,71051,1,0,0:0:0:0:
256,192,71220,1,8,0:0:0:0:
256,192,71557,1,8,0:0:0:0:
256,192,71894,1,0,0:0:0:0:
256,192,72736,1,8,0:0:0:0:
256,192,73074,1,8,0:0:0:0:
256,192,73242,1,8,0:0:0:0:
256,192,73411,1,0,0:0:0:0:
256,192,73748,1,8,0:0:0:0:
256,192,74085,1,0,0:0:0:0:
256,192,74253,1,0,0:0:0:0:
256,192,74422,1,8,0:0:0:0:
256,192,74759,1,0,0:0:0:0:
256,192,75096,1,8,0:0:0:0:
256,192,75265,1,0,0:0:0:0:
256,192,75602,1,0,0:0:0:0:
256,192,76107,1,12,0:0:0:0:
256,192,76613,1,0,0:0:0:0:
256,192,76781,1,0,0:0:0:0:
256,192,77119,1,8,0:0:0:0:
256,192,77456,1,0,0:0:0:0:
256,192,77793,1,0,0:0:0:0:
256,192,78130,1,8,0:0:0:0:
256,192,78467,1,0,0:0:0:0:
256,192,78635,1,8,0:0:0:0:
256,192,78804,1,0,0:0:0:0:
256,192,79478,1,0,0:0:0:0:
256,192,79815,1,8,0:0:0:0:
256,192,79984,1,8,0:0:0:0:
256,192,80152,1,0,0:0:0:0:
256,192,80489,1,8,0:0:0:0:
256,192,80658,1,0,0:0:0:0:
256,192,81163,1,8,0:0:0:0:
256,192,81501,1,0,0:0:0:0:
256,192,81838,1,0,0:0:0:0:
256,192,82006,1,8,0:0:0:0:
256,192,82343,1,0,0:0:0:0:
256,192,82680,1,8,0:0:0:0:
256,192,83523,1,0,0:0:0:0:
256,192,83860,1,8,0:0:0:0:
256,192,84029,1,0,0:0:0:0:
256,192,84197,1,8,0:0:0:0:
256,192,84534,1,8,0:0:0:0:
256,192,84871,1,0,0:0:0:0:
256,192,85208,1,8,0:0:0:0:
256,192,85377,1,8,0:0:0:0:
256,192,85545,1,0,0:0:0:0:
256,192,85883,1,8,0:0:0:0:
256,192,86220,1,0,0:0:0:0:
256,192,86388,1,0,0:0:0:0:
256,192,86557,1,8,0:0:0:0:
256,192,86725,1,8,0:0:0:0:
256,192,86894,1,0,0:0:0:0:
256,192,87231,1,8,0:0:0:0:
256,192,87905,1,8,0:0:0:0:
256,192,88242,1,0,0:0:0:0:
256,192,88411,1,0,0:0:0:0:
256,192,88579,1,8,0:0:0:0:
256,192,88916,1,0,0:0:0:0:
256,192,89253,1,8,0:0:0:0:
256,192,89422,1,4,0:0:0:0:
256,192,89759,1,12,0:0:0:0:
256,192,89927,1,12,0:0:0:0:
256,192,92287,1,0,0:0:0:0:
256,192,92624,1,0,0:0:0:0:
256,192,92793,1,12,0:0:0:0:
256,192,93298,1,8,0:0:0:0:
256,192,93635,1,0,0:0:0:0:
256,192,93804,1,12,0:0:0:0:
