osu file format v14

[General]
AudioFilename: audio.mp3
AudioLeadIn: 0
PreviewTime: 88493
Countdown: 0
SampleSet: Normal
StackLeniency: 0.7
Mode: 1
LetterboxInBreaks: 0
WidescreenStoryboard: 1

[Editor]
DistanceSpacing: 1
BeatDivisor: 4
GridSize: 32
TimelineZoom: 1.3

[Metadata]
Title:Irogeshou
TitleUnicode:色化粧
Artist:nao
ArtistUnicode:nao
Creator:Luqua
Version:Momo's Kantan
Source:もののあはれは彩の頃。
Tags:Mono no Aware wa Sai Koro. Opening OP Theme Quince Soft クインスソフト Visual Novel Eroge Japanese りょーちん Ryochin Colega Team-OZ 8th Innocent Prelude yuki_momoiro722
BeatmapID:2155458
BeatmapSetID:1029992

[Difficulty]
HPDrainRate:7
CircleSize:2
OverallDifficulty:3
ApproachRate:10
SliderMultiplier:1.4
SliderTickRate:1

[Events]
//Background and Video events
0,0,"BG1.jpg",0,30
//Break Periods
//Storyboard Layer 0 (Background)
//Storyboard Layer 1 (Fail)
//Storyboard Layer 2 (Pass)
//Storyboard Layer 3 (Foreground)
//Storyboard Layer 4 (Overlay)
//Storyboard Sound Samples

[TimingPoints]
1583,631.578947368421,4,1,0,45,1,0
21635,-100,4,1,0,60,0,0
21793,400,4,1,0,60,1,0
22493,-100,4,1,0,70,0,0
23293,-100,4,1,0,80,0,0
23393,400,4,1,0,80,1,1
23393,-100,4,1,0,80,0,1
36093,-100,4,1,0,60,0,1
36193,-100,4,1,0,60,0,0
37693,-100,4,1,0,70,0,0
37793,400,4,1,0,70,1,0
88493,-100,4,1,0,75,0,0
88893,-100,4,1,0,85,0,0
88993,-100,4,1,0,85,0,1
112893,-100,4,1,0,75,0,1
112993,-100,4,1,0,75,0,0
114493,-100,4,1,0,80,0,0
114593,-100,4,1,0,80,0,1
127393,-100,4,1,0,80,0,0
131693,-100,4,1,0,60,0,0

[HitObjects]
256,192,1583,5,8,0:0:0:0:
256,192,3477,1,0,0:0:0:0:
256,192,4109,1,0,0:0:0:0:
256,192,5372,1,0,0:0:0:0:
256,192,6635,1,8,0:0:0:0:
256,192,7898,1,8,0:0:0:0:
256,192,9161,1,0,0:0:0:0:
256,192,10425,1,8,0:0:0:0:
256,192,11688,1,0,0:0:0:0:
256,192,12951,1,8,0:0:0:0:
256,192,14214,1,0,0:0:0:0:
256,192,16740,1,8,0:0:0:0:
256,192,18004,1,0,0:0:0:0:
256,192,19267,1,8,0:0:0:0:
256,192,19898,1,0,0:0:0:0:
256,192,20530,1,0,0:0:0:0:
256,192,21793,1,4,0:0:0:0:
256,192,22593,1,12,0:0:0:0:
256,192,23393,1,4,0:0:0:0:
256,192,24193,1,8,0:0:0:0:
256,192,24593,1,0,0:0:0:0:
256,192,24993,1,8,0:0:0:0:
256,192,25393,1,0,0:0:0:0:
256,192,25793,1,0,0:0:0:0:
256,192,26593,1,8,0:0:0:0:
256,192,26993,1,0,0:0:0:0:
256,192,27393,1,8,0:0:0:0:
256,192,28193,1,0,0:0:0:0:
256,192,28993,1,8,0:0:0:0:
256,192,29793,1,4,0:0:0:0:
256,192,30593,1,8,0:0:0:0:
256,192,31393,1,8,0:0:0:0:
256,192,32193,1,0,0:0:0:0:
256,192,32993,1,8,0:0:0:0:
256,192,33793,1,8,0:0:0:0:
256,192,34193,1,0,0:0:0:0:
256,192,34593,1,4,0:0:0:0:
256,192,35393,1,12,0:0:0:0:
256,192,36193,1,8,0:0:0:0:
256,192,37793,1,4,0:0:0:0:
256,192,38593,1,8,0:0:0:0:
256,192,39393,1,0,0:0:0:0:
256,192,40193,1,0,0:0:0:0:
256,192,40993,1,8,0:0:0:0:
256,192,41793,1,0,0:0:0:0:
256,192,42193,1,0,0:0:0:0:
256,192,42593,1,8,0:0:0:0:
256,192,44193,1,0,0:0:0:0:
256,192,44993,1,8,0:0:0:0:
256,192,45793,1,0,0:0:0:0:
256,192,46593,1,8,0:0:0:0:
256,192,47393,1,0,0:0:0:0:
256,192,48593,1,8,0:0:0:0:
256,192,48993,1,8,0:0:0:0:
256,192,49793,1,0,0:0:0:0:
256,192,50593,1,4,0:0:0:0:
256,192,51393,1,8,0:0:0:0:
256,192,52193,1,0,0:0:0:0:
256,192,52993,1,8,0:0:0:0:
256,192,53793,1,0,0:0:0:0:
256,192,54593,1,0,0:0:0:0:
256,192,54993,1,0,0:0:0:0:
256,192,55393,1,8,0:0:0:0:
256,192,56193,1,8,0:0:0:0:
256,192,56993,1,4,0:0:0:0:
256,192,57793,1,8,0:0:0:0:
256,192,58593,1,0,0:0:0:0:
256,192,59393,1,0,0:0:0:0:
256,192,60193,1,8,0:0:0:0:
256,192,60993,1,8,0:0:0:0:
256,192,61393,1,8,0:0:0:0:
256,192,61793,1,0,0:0:0:0:
256,192,63393,1,12,0:0:0:0:
256,192,64993,1,8,0:0:0:0:
256,192,65793,1,8,0:0:0:0:
256,192,66193,1,8,0:0:0:0:
256,192,66593,1,4,0:0:0:0:
256,192,68193,1,0,0:0:0:0:
256,192,68993,1,0,0:0:0:0:
256,192,69393,1,8,0:0:0:0:
256,192,69793,1,12,0:0:0:0:
256,192,71393,1,8,0:0:0:0:
256,192,72193,1,8,0:0:0:0:
256,192,72993,1,8,0:0:0:0:
256,192,73793,1,0,0:0:0:0:
256,192,74593,1,8,0:0:0:0:
256,192,76193,1,0,0:0:0:0:
256,192,76993,1,8,0:0:0:0:
256,192,77793,1,0,0:0:0:0:
256,192,78593,1,8,0:0:0:0:
256,192,79393,1,0,0:0:0:0:
256,192,80193,1,8,0:0:0:0:
256,192,80993,1,8,0:0:0:0:
256,192,81793,1,0,0:0:0:0:
256,192,82593,1,4,0:0:0:0:
256,192,84193,1,8,0:0:0:0:
256,192,84993,1,8,0:0:0:0:
256,192,85793,1,4,0:0:0:0:
256,192,87393,1,12,0:0:0:0:
256,192,88193,1,12,0:0:0:0:
256,192,88993,5,4,0:0:0:0:
256,192,89793,1,8,0:0:0:0:
256,192,90193,1,0,0:0:0:0:
256,192,90593,1,8,0:0:0:0:
256,192,90993,1,8,0:0:0:0:
256,192,91393,1,0,0:0:0:0:
256,192,92193,1,8,0:0:0:0:
256,192,92993,1,0,0:0:0:0:
256,192,93393,1,0,0:0:0:0:
256,192,93793,1,8,0:0:0:0:
256,192,94593,1,0,0:0:0:0:
256,192,95393,1,8,0:0:0:0:
256,192,96193,1,8,0:0:0:0:
256,192,96993,1,0,0:0:0:0:
256,192,97793,1,8,0:0:0:0:
256,192,98193,1,0,0:0:0:0:
256,192,98593,1,8,0:0:0:0:
256,192,99393,1,0,0:0:0:0:
256,192,100193,1,8,0:0:0:0:
256,192,101793,1,4,0:0:0:0:
256,192,102593,1,8,0:0:0:0:
256,192,102993,1,0,0:0:0:0:
256,192,103393,1,8,0:0:0:0:
256,192,104193,1,0,0:0:0:0:
256,192,104993,1,0,0:0:0:0:
256,192,105793,1,8,0:0:0:0:
256,192,106193,1,0,0:0:0:0:
256,192,106593,1,8,0:0:0:0:
256,192,107393,1,8,0:0:0:0:
256,192,108193,1,12,0:0:0:0:
256,192,108993,1,0,0:0:0:0:
256,192,109793,1,8,0:0:0:0:
256,192,110593,1,0,0:0:0:0:
256,192,111393,1,0,0:0:0:0:
256,192,112993,1,12,0:0:0:0:
256,192,113793,1,12,0:0:0:0:
256,192,114593,1,4,0:0:0:0:
256,192,115393,1,0,0:0:0:0:
256,192,115793,1,0,0:0:0:0:
256,192,116193,1,8,0:0:0:0:
256,192,116993,1,0,0:0:0:0:
256,192,117793,1,0,0:0:0:0:
256,192,118993,1,8,0:0:0:0:
256,192,119393,1,0,0:0:0:0:
256,192,120993,1,12,0:0:0:0:
256,192,121393,1,0,0:0:0:0:
256,192,121793,1,8,0:0:0:0:
256,192,122593,1,12,0:0:0:0:
256,192,123393,1,0,0:0:0:0:
256,192,124193,1,8,0:0:0:0:
256,192,124593,1,8,0:0:0:0:
256,192,124993,1,0,0:0:0:0:
256,192,125793,1,0,0:0:0:0:
256,192,126593,1,8,0:0:0:0:
256,192,126993,1,8,0:0:0:0:
256,192,127393,1,0,0:0:0:0:
256,192,127793,1,12,0:0:0:0:
256,192,128593,1,12,0:0:0:0:
256,192,129393,1,12,0:0:0:0:
256,192,130393,1,12,0:0:0:0:
256,192,130993,1,4,0:0:0:0:
