osu file format v14

[General]
AudioFilename: audio.mp3
AudioLeadIn: 0
PreviewTime: 88493
Countdown: 0
SampleSet: Normal
StackLeniency: 0.7
Mode: 1
LetterboxInBreaks: 0
WidescreenStoryboard: 0

[Editor]
DistanceSpacing: 1
BeatDivisor: 4
GridSize: 32
TimelineZoom: 1.6

[Metadata]
Title:Irogeshou
TitleUnicode:色化粧
Artist:nao
ArtistUnicode:nao
Creator:Luqua
Version:Inner Oni
Source:もののあはれは彩の頃。
Tags:Mono no Aware wa Sai Koro. Opening OP Theme Quince Soft クインスソフト Visual Novel Eroge Japanese りょーちん Ryochin Colega Team-OZ 8th Innocent Prelude yuki_momoiro722
BeatmapID:2153720
BeatmapSetID:1029992

[Difficulty]
HPDrainRate:5
CircleSize:2
OverallDifficulty:6
ApproachRate:5
SliderMultiplier:1.4
SliderTickRate:1

[Events]
//Background and Video events
0,0,"BG5.jpg",0,80
//Break Periods
//Storyboard Layer 0 (Background)
//Storyboard Layer 1 (Fail)
//Storyboard Layer 2 (Pass)
//Storyboard Layer 3 (Foreground)
//Storyboard Layer 4 (Overlay)
//Storyboard Sound Samples

[TimingPoints]
1583,631.578947368421,4,1,0,45,1,0
1583,-128.205128205128,4,1,0,45,0,0
19583,-113.636363636364,4,1,0,45,0,0
19898,-102.040816326531,4,1,0,45,0,0
20214,-92.5925925925926,4,1,0,45,0,0
20530,-84.7457627118644,4,1,0,45,0,0
20846,-78.125,4,1,0,45,0,0
21161,-72.463768115942,4,1,0,45,0,0
21477,-67.5675675675676,4,1,0,45,0,0
21635,-67.5675675675676,4,1,0,60,0,0
21793,400,4,1,0,60,1,0
22493,-100,4,1,0,70,0,0
23293,-100,4,1,0,80,0,0
23393,400,4,1,0,80,1,1
23393,-100,4,1,0,80,0,1
36093,-100,4,1,0,60,0,1
36193,-100,4,1,0,60,0,0
37693,-100,4,1,0,70,0,0
37793,400,4,1,0,70,1,0
87693,-95.2380952380951,4,1,0,70,0,0
87993,-90.9090909090909,4,1,0,70,0,0
88493,-86.9565217391303,4,1,0,75,0,0
88593,-86.9565217391303,4,1,0,75,0,0
88893,-86.9565217391303,4,1,0,85,0,0
88993,-83.3333333333333,4,1,0,85,0,1
112893,-83.3333333333333,4,1,0,75,0,1
112993,-83.3333333333333,4,1,0,75,0,0
114493,-83.3333333333333,4,1,0,80,0,0
114593,-83.3333333333333,4,1,0,80,0,1
127393,-83.3333333333333,4,1,0,80,0,0
131693,-83.3333333333333,4,1,0,60,0,0

[HitObjects]
256,192,1583,5,8,0:0:0:0:
256,192,2530,1,0,0:0:0:0:
256,192,2846,1,8,0:0:0:0:
256,192,3477,1,8,0:0:0:0:
256,192,4109,1,0,0:0:0:0:
256,192,5056,1,8,0:0:0:0:
256,192,5214,1,8,0:0:0:0:
256,192,5372,1,0,0:0:0:0:
256,192,6004,1,0,0:0:0:0:
256,192,6635,1,0,0:0:0:0:
256,192,7267,1,0,0:0:0:0:
256,192,7583,1,0,0:0:0:0:
256,192,7898,1,8,0:0:0:0:
256,192,8530,1,0,0:0:0:0:
256,192,9161,1,0,0:0:0:0:
256,192,9793,1,8,0:0:0:0:
256,192,10109,1,8,0:0:0:0:
256,192,10425,1,0,0:0:0:0:
256,192,11372,1,0,0:0:0:0:
256,192,11688,1,8,0:0:0:0:
256,192,12635,1,8,0:0:0:0:
256,192,12951,1,0,0:0:0:0:
256,192,13583,1,8,0:0:0:0:
256,192,14214,1,0,0:0:0:0:
256,192,15161,1,0,0:0:0:0:
256,192,15319,1,0,0:0:0:0:
256,192,15477,1,8,0:0:0:0:
256,192,16109,1,0,0:0:0:0:
256,192,16740,1,8,0:0:0:0:
256,192,17056,1,8,0:0:0:0:
256,192,17214,1,8,0:0:0:0:
256,192,17372,1,0,0:0:0:0:
256,192,17688,1,0,0:0:0:0:
256,192,18004,1,8,0:0:0:0:
256,192,18635,1,0,0:0:0:0:
256,192,18951,1,0,0:0:0:0:
256,192,19267,1,8,0:0:0:0:
256,192,19583,1,0,0:0:0:0:
256,192,19898,1,0,0:0:0:0:
256,192,20214,1,0,0:0:0:0:
256,192,20530,1,0,0:0:0:0:
256,192,20846,1,8,0:0:0:0:
256,192,21161,1,8,0:0:0:0:
256,192,21477,1,0,0:0:0:0:
256,192,21793,1,4,0:0:0:0:
256,192,22093,1,4,0:0:0:0:
256,192,22393,1,4,0:0:0:0:
256,192,22593,1,12,0:0:0:0:
256,192,22793,1,0,0:0:0:0:
256,192,22893,1,0,0:0:0:0:
256,192,22993,1,8,0:0:0:0:
256,192,23193,1,8,0:0:0:0:
256,192,23393,1,4,0:0:0:0:
256,192,23593,1,0,0:0:0:0:
256,192,23693,1,0,0:0:0:0:
256,192,23793,1,8,0:0:0:0:
256,192,23993,1,0,0:0:0:0:
256,192,24093,1,0,0:0:0:0:
256,192,24193,1,8,0:0:0:0:
256,192,24393,1,0,0:0:0:0:
256,192,24493,1,0,0:0:0:0:
256,192,24593,1,8,0:0:0:0:
256,192,24693,1,0,0:0:0:0:
256,192,24793,1,8,0:0:0:0:
256,192,24893,1,8,0:0:0:0:
256,192,24993,1,0,0:0:0:0:
256,192,25193,1,8,0:0:0:0:
256,192,25293,1,0,0:0:0:0:
256,192,25393,1,8,0:0:0:0:
256,192,25593,1,0,0:0:0:0:
256,192,25693,1,8,0:0:0:0:
256,192,25793,1,8,0:0:0:0:
256,192,25993,1,8,0:0:0:0:
256,192,26093,1,0,0:0:0:0:
256,192,26193,1,8,0:0:0:0:
256,192,26293,1,8,0:0:0:0:
256,192,26393,1,0,0:0:0:0:
256,192,26493,1,0,0:0:0:0:
256,192,26593,1,8,0:0:0:0:
256,192,26993,1,0,0:0:0:0:
256,192,27093,1,0,0:0:0:0:
256,192,27193,1,8,0:0:0:0:
256,192,27293,1,0,0:0:0:0:
256,192,27393,1,8,0:0:0:0:
256,192,27593,1,8,0:0:0:0:
256,192,27693,1,0,0:0:0:0:
256,192,27893,1,0,0:0:0:0:
256,192,27993,1,8,0:0:0:0:
256,192,28193,1,0,0:0:0:0:
256,192,28393,1,0,0:0:0:0:
256,192,28493,1,8,0:0:0:0:
256,192,28693,1,8,0:0:0:0:
256,192,28793,1,0,0:0:0:0:
256,192,28993,1,0,0:0:0:0:
256,192,29093,1,0,0:0:0:0:
256,192,29193,1,8,0:0:0:0:
256,192,29293,1,0,0:0:0:0:
256,192,29393,1,8,0:0:0:0:
256,192,29493,1,8,0:0:0:0:
256,192,29593,1,0,0:0:0:0:
256,192,29793,1,4,0:0:0:0:
256,192,30193,1,8,0:0:0:0:
256,192,30393,1,0,0:0:0:0:
256,192,30593,1,8,0:0:0:0:
256,192,30793,1,8,0:0:0:0:
256,192,30893,1,8,0:0:0:0:
256,192,30993,1,0,0:0:0:0:
256,192,31093,1,0,0:0:0:0:
256,192,31193,1,8,0:0:0:0:
256,192,31393,1,8,0:0:0:0:
256,192,31593,1,0,0:0:0:0:
256,192,31793,1,0,0:0:0:0:
256,192,31993,1,0,0:0:0:0:
256,192,32093,1,0,0:0:0:0:
256,192,32193,1,8,0:0:0:0:
256,192,32393,1,8,0:0:0:0:
256,192,32493,1,8,0:0:0:0:
256,192,32593,1,0,0:0:0:0:
256,192,32693,1,0,0:0:0:0:
256,192,32793,1,0,0:0:0:0:
256,192,32993,1,8,0:0:0:0:
256,192,33393,1,0,0:0:0:0:
256,192,33593,1,8,0:0:0:0:
256,192,33693,1,8,0:0:0:0:
256,192,33793,1,0,0:0:0:0:
256,192,33993,1,0,0:0:0:0:
256,192,34193,1,0,0:0:0:0:
256,192,34293,1,0,0:0:0:0:
256,192,34393,1,8,0:0:0:0:
256,192,34493,1,8,0:0:0:0:
256,192,34593,1,0,0:0:0:0:
256,192,34793,1,0,0:0:0:0:
256,192,34893,1,0,0:0:0:0:
256,192,35193,1,12,0:0:0:0:
256,192,35393,1,12,0:0:0:0:
256,192,35593,1,0,0:0:0:0:
256,192,35693,1,0,0:0:0:0:
256,192,35793,1,0,0:0:0:0:
256,192,35993,1,0,0:0:0:0:
256,192,36193,1,8,0:0:0:0:
256,192,36393,1,8,0:0:0:0:
256,192,36593,1,8,0:0:0:0:
256,192,36793,1,8,0:0:0:0:
256,192,36993,1,8,0:0:0:0:
256,192,37093,1,8,0:0:0:0:
256,192,37193,1,8,0:0:0:0:
256,192,37293,1,8,0:0:0:0:
256,192,37393,1,8,0:0:0:0:
256,192,37593,1,8,0:0:0:0:
256,192,37793,1,4,0:0:0:0:
256,192,38093,1,0,0:0:0:0:
256,192,38193,1,8,0:0:0:0:
256,192,38393,1,0,0:0:0:0:
256,192,38593,1,8,0:0:0:0:
256,192,38993,1,8,0:0:0:0:
256,192,39193,1,0,0:0:0:0:
256,192,39393,1,0,0:0:0:0:
256,192,39693,1,0,0:0:0:0:
256,192,39793,1,8,0:0:0:0:
256,192,39993,1,8,0:0:0:0:
256,192,40093,1,0,0:0:0:0:
256,192,40193,1,0,0:0:0:0:
256,192,40593,1,8,0:0:0:0:
256,192,40793,1,0,0:0:0:0:
256,192,40993,1,8,0:0:0:0:
256,192,41293,1,0,0:0:0:0:
256,192,41393,1,8,0:0:0:0:
256,192,41593,1,8,0:0:0:0:
256,192,41693,1,0,0:0:0:0:
256,192,41793,1,0,0:0:0:0:
256,192,42193,1,8,0:0:0:0:
256,192,42393,1,0,0:0:0:0:
256,192,42593,1,8,0:0:0:0:
256,192,42793,1,8,0:0:0:0:
256,192,42893,1,8,0:0:0:0:
256,192,42993,1,0,0:0:0:0:
256,192,43093,1,8,0:0:0:0:
256,192,43193,1,0,0:0:0:0:
256,192,43393,1,8,0:0:0:0:
256,192,43493,1,0,0:0:0:0:
256,192,43593,1,0,0:0:0:0:
256,192,43793,1,8,0:0:0:0:
256,192,43993,1,0,0:0:0:0:
256,192,44193,1,0,0:0:0:0:
256,192,44493,1,0,0:0:0:0:
256,192,44593,1,8,0:0:0:0:
256,192,44793,1,8,0:0:0:0:
256,192,44993,1,0,0:0:0:0:
256,192,45393,1,8,0:0:0:0:
256,192,45593,1,0,0:0:0:0:
256,192,45793,1,8,0:0:0:0:
256,192,46093,1,0,0:0:0:0:
256,192,46193,1,8,0:0:0:0:
256,192,46393,1,8,0:0:0:0:
256,192,46593,1,0,0:0:0:0:
256,192,46993,1,8,0:0:0:0:
256,192,47193,1,8,0:0:0:0:
256,192,47393,1,0,0:0:0:0:
256,192,47693,1,8,0:0:0:0:
256,192,47793,1,8,0:0:0:0:
256,192,47993,1,0,0:0:0:0:
256,192,48093,1,0,0:0:0:0:
256,192,48193,1,8,0:0:0:0:
256,192,48393,1,8,0:0:0:0:
256,192,48593,1,8,0:0:0:0:
256,192,48793,1,0,0:0:0:0:
256,192,48993,1,8,0:0:0:0:
256,192,49293,1,8,0:0:0:0:
256,192,49393,1,8,0:0:0:0:
256,192,49593,1,0,0:0:0:0:
256,192,49793,1,0,0:0:0:0:
256,192,49893,1,0,0:0:0:0:
256,192,49993,1,8,0:0:0:0:
256,192,50093,1,8,0:0:0:0:
256,192,50193,1,0,0:0:0:0:
256,192,50293,1,8,0:0:0:0:
256,192,50493,1,8,0:0:0:0:
256,192,50593,1,4,0:0:0:0:
256,192,50893,1,0,0:0:0:0:
256,192,50993,1,8,0:0:0:0:
256,192,51193,1,0,0:0:0:0:
256,192,51393,1,0,0:0:0:0:
256,192,51793,1,8,0:0:0:0:
256,192,51993,1,0,0:0:0:0:
256,192,52193,1,8,0:0:0:0:
256,192,52493,1,0,0:0:0:0:
256,192,52593,1,8,0:0:0:0:
256,192,52793,1,8,0:0:0:0:
256,192,52893,1,0,0:0:0:0:
256,192,52993,1,0,0:0:0:0:
256,192,53193,1,8,0:0:0:0:
256,192,53293,1,8,0:0:0:0:
256,192,53393,1,0,0:0:0:0:
256,192,53593,1,0,0:0:0:0:
256,192,53793,1,8,0:0:0:0:
256,192,54093,1,0,0:0:0:0:
256,192,54193,1,8,0:0:0:0:
256,192,54393,1,0,0:0:0:0:
256,192,54593,1,0,0:0:0:0:
256,192,54993,1,8,0:0:0:0:
256,192,55193,1,0,0:0:0:0:
256,192,55393,1,8,0:0:0:0:
256,192,55593,1,8,0:0:0:0:
256,192,55693,1,8,0:0:0:0:
256,192,55793,1,0,0:0:0:0:
256,192,55993,1,0,0:0:0:0:
256,192,56093,1,0,0:0:0:0:
256,192,56193,1,8,0:0:0:0:
256,192,56293,1,0,0:0:0:0:
256,192,56393,1,0,0:0:0:0:
256,192,56493,1,0,0:0:0:0:
256,192,56593,1,8,0:0:0:0:
256,192,56793,1,8,0:0:0:0:
256,192,56993,1,4,0:0:0:0:
256,192,57293,1,0,0:0:0:0:
256,192,57393,1,8,0:0:0:0:
256,192,57593,1,0,0:0:0:0:
256,192,57793,1,8,0:0:0:0:
256,192,58193,1,8,0:0:0:0:
256,192,58393,1,8,0:0:0:0:
256,192,58493,1,0,0:0:0:0:
256,192,58593,1,0,0:0:0:0:
256,192,58893,1,0,0:0:0:0:
256,192,58993,1,8,0:0:0:0:
256,192,59193,1,8,0:0:0:0:
256,192,59393,1,0,0:0:0:0:
256,192,59593,1,8,0:0:0:0:
256,192,59693,1,0,0:0:0:0:
256,192,59793,1,8,0:0:0:0:
256,192,59993,1,0,0:0:0:0:
256,192,60193,1,8,0:0:0:0:
256,192,60493,1,0,0:0:0:0:
256,192,60593,1,8,0:0:0:0:
256,192,60793,1,8,0:0:0:0:
256,192,60893,1,0,0:0:0:0:
256,192,60993,1,8,0:0:0:0:
256,192,61193,1,0,0:0:0:0:
256,192,61393,1,8,0:0:0:0:
256,192,61593,1,8,0:0:0:0:
256,192,61793,1,0,0:0:0:0:
256,192,61993,1,8,0:0:0:0:
256,192,62193,1,8,0:0:0:0:
256,192,62393,1,8,0:0:0:0:
256,192,62593,1,4,0:0:0:0:
256,192,62793,1,0,0:0:0:0:
256,192,62893,1,0,0:0:0:0:
256,192,62993,1,0,0:0:0:0:
256,192,63193,1,0,0:0:0:0:
256,192,63393,1,12,0:0:0:0:
256,192,63693,1,12,0:0:0:0:
256,192,63993,1,4,0:0:0:0:
256,192,64193,1,12,0:0:0:0:
256,192,64393,1,8,0:0:0:0:
256,192,64593,1,0,0:0:0:0:
256,192,64693,1,0,0:0:0:0:
256,192,64793,1,0,0:0:0:0:
256,192,64993,1,8,0:0:0:0:
256,192,65293,1,0,0:0:0:0:
256,192,65593,1,0,0:0:0:0:
256,192,65693,1,0,0:0:0:0:
256,192,65793,1,8,0:0:0:0:
256,192,65993,1,8,0:0:0:0:
256,192,66093,1,8,0:0:0:0:
256,192,66193,1,0,0:0:0:0:
256,192,66593,1,4,0:0:0:0:
256,192,66893,1,4,0:0:0:0:
256,192,67193,1,12,0:0:0:0:
256,192,67393,1,4,0:0:0:0:
256,192,67593,1,0,0:0:0:0:
256,192,67793,1,0,0:0:0:0:
256,192,67893,1,0,0:0:0:0:
256,192,67993,1,0,0:0:0:0:
256,192,68193,1,8,0:0:0:0:
256,192,68493,1,0,0:0:0:0:
256,192,68793,1,8,0:0:0:0:
256,192,68893,1,0,0:0:0:0:
256,192,68993,1,8,0:0:0:0:
256,192,69193,1,8,0:0:0:0:
256,192,69293,1,8,0:0:0:0:
256,192,69393,1,0,0:0:0:0:
256,192,69493,1,0,0:0:0:0:
256,192,69593,1,0,0:0:0:0:
256,192,69793,1,12,0:0:0:0:
256,192,70093,1,12,0:0:0:0:
256,192,70393,1,4,0:0:0:0:
256,192,70593,1,12,0:0:0:0:
256,192,70793,1,0,0:0:0:0:
256,192,71193,1,0,0:0:0:0:
256,192,71293,1,0,0:0:0:0:
256,192,71393,1,8,0:0:0:0:
256,192,71693,1,8,0:0:0:0:
256,192,71993,1,0,0:0:0:0:
256,192,72193,1,8,0:0:0:0:
256,192,72593,1,0,0:0:0:0:
256,192,72993,1,8,0:0:0:0:
256,192,73093,1,0,0:0:0:0:
256,192,73193,1,0,0:0:0:0:
256,192,73293,1,0,0:0:0:0:
256,192,73393,1,12,0:0:0:0:
256,192,73593,1,0,0:0:0:0:
256,192,73793,1,0,0:0:0:0:
256,192,73893,1,8,0:0:0:0:
256,192,73993,1,0,0:0:0:0:
256,192,74093,1,0,0:0:0:0:
256,192,74193,1,12,0:0:0:0:
256,192,74393,1,0,0:0:0:0:
256,192,74593,1,8,0:0:0:0:
256,192,74693,1,8,0:0:0:0:
256,192,74793,1,0,0:0:0:0:
256,192,74893,1,0,0:0:0:0:
256,192,74993,1,12,0:0:0:0:
256,192,75193,1,0,0:0:0:0:
256,192,75393,1,0,0:0:0:0:
256,192,75593,1,0,0:0:0:0:
256,192,75693,1,0,0:0:0:0:
256,192,75793,1,8,0:0:0:0:
256,192,75893,1,8,0:0:0:0:
256,192,75993,1,0,0:0:0:0:
256,192,76193,1,0,0:0:0:0:
256,192,76493,1,8,0:0:0:0:
256,192,76593,1,0,0:0:0:0:
256,192,76793,1,8,0:0:0:0:
256,192,76993,1,0,0:0:0:0:
256,192,77093,1,0,0:0:0:0:
256,192,77193,1,0,0:0:0:0:
256,192,77293,1,0,0:0:0:0:
256,192,77393,1,8,0:0:0:0:
256,192,77593,1,0,0:0:0:0:
256,192,77793,1,0,0:0:0:0:
256,192,78093,1,8,0:0:0:0:
256,192,78193,1,8,0:0:0:0:
256,192,78393,1,0,0:0:0:0:
256,192,78593,1,8,0:0:0:0:
256,192,78693,1,0,0:0:0:0:
256,192,78793,1,0,0:0:0:0:
256,192,78893,1,0,0:0:0:0:
256,192,78993,1,8,0:0:0:0:
256,192,79093,1,0,0:1:0:0:
256,192,79193,1,0,0:1:0:0:
256,192,79393,1,0,0:0:0:0:
256,192,79693,1,8,0:0:0:0:
256,192,79793,1,0,0:0:0:0:
256,192,79993,1,0,0:0:0:0:
256,192,80193,1,8,0:0:0:0:
256,192,80293,1,0,0:0:0:0:
256,192,80393,1,0,0:0:0:0:
256,192,80593,1,8,0:0:0:0:
256,192,80693,1,0,0:0:0:0:
256,192,80993,1,8,0:0:0:0:
256,192,81293,1,0,0:0:0:0:
256,192,81393,1,8,0:0:0:0:
256,192,81593,1,0,0:0:0:0:
256,192,81693,1,0,0:0:0:0:
256,192,81793,1,0,0:0:0:0:
256,192,81993,1,0,0:0:0:0:
256,192,82193,1,8,0:0:0:0:
256,192,82593,1,4,0:0:0:0:
256,192,82993,1,0,0:0:0:0:
256,192,83193,1,0,0:0:0:0:
256,192,83593,1,0,0:0:0:0:
256,192,83793,1,0,0:0:0:0:
256,192,83993,1,8,0:0:0:0:
256,192,84093,1,8,0:0:0:0:
256,192,84193,1,0,0:0:0:0:
256,192,84393,1,8,0:0:0:0:
256,192,84593,1,0,0:0:0:0:
256,192,84793,1,0,0:0:0:0:
256,192,84893,1,0,0:0:0:0:
256,192,84993,1,8,0:0:0:0:
256,192,85393,1,8,0:0:0:0:
256,192,85593,1,0,0:0:0:0:
256,192,85793,1,4,0:0:0:0:
256,192,86193,1,0,0:0:0:0:
256,192,86393,1,0,0:0:0:0:
256,192,86593,1,0,0:0:0:0:
256,192,86793,1,0,0:0:0:0:
256,192,86893,1,0,0:0:0:0:
256,192,86993,1,0,0:0:0:0:
256,192,87193,1,0,0:0:0:0:
256,192,87293,1,0,0:0:0:0:
256,192,87393,1,12,0:0:0:0:
256,192,87693,1,4,0:0:0:0:
256,192,87993,1,4,0:0:0:0:
256,192,88193,1,12,0:0:0:0:
256,192,88593,1,8,0:0:0:0:
256,192,88793,1,0,0:0:0:0:
256,192,88993,1,4,0:0:0:0:
256,192,89193,1,0,0:0:0:0:
256,192,89293,1,0,0:0:0:0:
256,192,89393,1,8,0:0:0:0:
256,192,89493,1,0,0:0:0:0:
256,192,89593,1,8,0:0:0:0:
256,192,89793,1,0,0:0:0:0:
256,192,89993,1,8,0:0:0:0:
256,192,90093,1,8,0:0:0:0:
256,192,90193,1,0,0:0:0:0:
256,192,90293,1,0,0:0:0:0:
256,192,90393,1,8,0:0:0:0:
256,192,90593,1,0,0:0:0:0:
256,192,90793,1,0,0:0:0:0:
256,192,90893,1,0,0:0:0:0:
256,192,90993,1,8,0:0:0:0:
256,192,91193,1,0,0:0:0:0:
256,192,91393,1,8,0:0:0:0:
256,192,91593,1,0,0:0:0:0:
256,192,91693,1,0,0:0:0:0:
256,192,91793,1,8,0:0:0:0:
256,192,91993,1,0,0:0:0:0:
256,192,92193,1,8,0:0:0:0:
256,192,92393,1,8,0:0:0:0:
256,192,92493,1,0,0:0:0:0:
256,192,92593,1,0,0:0:0:0:
256,192,92793,1,8,0:0:0:0:
256,192,92993,1,0,0:0:0:0:
256,192,93193,1,0,0:0:0:0:
256,192,93293,1,0,0:0:0:0:
256,192,93393,1,8,0:0:0:0:
256,192,93793,1,0,0:0:0:0:
256,192,93993,1,0,0:0:0:0:
256,192,94193,1,8,0:0:0:0:
256,192,94393,1,0,0:0:0:0:
256,192,94493,1,0,0:0:0:0:
256,192,94593,1,8,0:0:0:0:
256,192,94793,1,8,0:0:0:0:
256,192,94893,1,8,0:0:0:0:
256,192,94993,1,4,0:0:0:0:
256,192,95193,1,4,0:0:0:0:
256,192,95393,1,12,0:0:0:0:
256,192,95593,1,0,0:0:0:0:
256,192,95793,1,0,0:0:0:0:
256,192,95993,1,0,0:0:0:0:
256,192,96093,1,8,0:0:0:0:
256,192,96193,1,8,0:0:0:0:
256,192,96393,1,0,0:0:0:0:
256,192,96493,1,8,0:0:0:0:
256,192,96793,1,8,0:0:0:0:
256,192,96993,1,0,0:0:0:0:
256,192,97193,1,0,0:0:0:0:
256,192,97393,1,8,0:0:0:0:
256,192,97593,1,8,0:0:0:0:
256,192,97693,1,0,0:0:0:0:
256,192,97793,1,0,0:0:0:0:
256,192,97993,1,0,0:0:0:0:
256,192,98193,1,0,0:0:0:0:
256,192,98293,1,0,0:0:0:0:
256,192,98393,1,0,0:0:0:0:
256,192,98593,1,8,0:0:0:0:
256,192,98893,1,0,0:0:0:0:
256,192,98993,1,8,0:0:0:0:
256,192,99093,1,0,0:0:0:0:
256,192,99193,1,0,0:0:0:0:
256,192,99293,1,0,0:0:0:0:
256,192,99393,1,8,0:0:0:0:
256,192,99593,1,8,0:0:0:0:
256,192,99693,1,8,0:0:0:0:
256,192,99793,1,0,0:0:0:0:
256,192,99893,1,0,0:0:0:0:
256,192,99993,1,0,0:0:0:0:
256,192,100193,1,8,0:0:0:0:
256,192,100293,1,0,0:0:0:0:
256,192,100493,1,8,0:0:0:0:
256,192,100593,1,8,0:0:0:0:
256,192,100693,1,0,0:0:0:0:
256,192,100793,1,8,0:0:0:0:
256,192,100993,1,0,0:0:0:0:
256,192,101093,1,0,0:0:0:0:
256,192,101193,1,8,0:0:0:0:
256,192,101293,1,0,0:0:0:0:
256,192,101393,1,0,0:0:0:0:
256,192,101493,1,0,0:0:0:0:
256,192,101593,1,8,0:0:0:0:
256,192,101793,1,4,0:0:0:0:
256,192,102193,1,8,0:0:0:0:
256,192,102393,1,0,0:0:0:0:
256,192,102593,1,8,0:0:0:0:
256,192,102793,1,0,0:0:0:0:
256,192,102893,1,0,0:0:0:0:
256,192,102993,1,0,0:0:0:0:
256,192,103193,1,0,0:0:0:0:
256,192,103393,1,8,0:0:0:0:
256,192,103693,1,0,0:0:0:0:
256,192,103793,1,8,0:0:0:0:
256,192,103993,1,8,0:0:0:0:
256,192,104093,1,8,0:0:0:0:
256,192,104193,1,0,0:0:0:0:
256,192,104393,1,0,0:0:0:0:
256,192,104493,1,0,0:0:0:0:
256,192,104593,1,8,0:0:0:0:
256,192,104693,1,0,0:0:0:0:
256,192,104793,1,8,0:0:0:0:
256,192,104893,1,8,0:0:0:0:
256,192,104993,1,0,0:0:0:0:
256,192,105393,1,8,0:0:0:0:
256,192,105593,1,0,0:0:0:0:
256,192,105793,1,8,0:0:0:0:
256,192,105993,1,0,0:0:0:0:
256,192,106093,1,0,0:0:0:0:
256,192,106193,1,8,0:0:0:0:
256,192,106393,1,0,0:0:0:0:
256,192,106493,1,0,0:0:0:0:
256,192,106593,1,8,0:0:0:0:
256,192,106893,1,0,0:0:0:0:
256,192,106993,1,8,0:0:0:0:
256,192,107193,1,8,0:0:0:0:
256,192,107393,1,0,0:0:0:0:
256,192,107593,1,0,0:0:0:0:
256,192,107693,1,0,0:0:0:0:
256,192,107793,1,8,0:0:0:0:
256,192,107993,1,0,0:0:0:0:
256,192,108193,1,4,0:0:0:0:
256,192,108593,1,8,0:0:0:0:
256,192,108693,1,8,0:0:0:0:
256,192,108793,1,0,0:0:0:0:
256,192,108893,1,8,0:0:0:0:
256,192,108993,1,0,0:0:0:0:
256,192,109393,1,8,0:0:0:0:
256,192,109493,1,0,0:0:0:0:
256,192,109593,1,8,0:0:0:0:
256,192,109693,1,8,0:0:0:0:
256,192,109793,1,0,0:0:0:0:
256,192,109993,1,0,0:0:0:0:
256,192,110093,1,0,0:0:0:0:
256,192,110193,1,8,0:0:0:0:
256,192,110293,1,8,0:0:0:0:
256,192,110393,1,0,0:0:0:0:
256,192,110493,1,8,0:0:0:0:
256,192,110593,1,0,0:0:0:0:
256,192,110793,1,8,0:1:0:0:
256,192,110893,1,8,0:1:0:0:
256,192,110993,1,0,0:0:0:0:
256,192,111093,1,0,0:0:0:0:
256,192,111193,1,0,0:0:0:0:
256,192,111393,1,8,0:0:0:0:
256,192,111493,1,8,0:0:0:0:
256,192,111593,1,0,0:0:0:0:
256,192,111693,1,0,0:0:0:0:
256,192,111793,1,8,0:0:0:0:
256,192,111893,1,0,0:0:0:0:
256,192,111993,1,0,0:0:0:0:
256,192,112193,1,8,0:0:0:0:
256,192,112293,1,0,0:0:0:0:
256,192,112393,1,0,0:0:0:0:
256,192,112493,1,0,0:0:0:0:
256,192,112593,1,8,0:0:0:0:
256,192,112693,1,8,0:0:0:0:
256,192,112793,1,0,0:0:0:0:
256,192,112993,1,12,0:0:0:0:
256,192,113293,1,12,0:0:0:0:
256,192,113593,1,4,0:0:0:0:
256,192,113793,1,12,0:0:0:0:
256,192,114093,1,12,0:0:0:0:
256,192,114393,1,4,0:0:0:0:
256,192,114593,1,12,0:0:0:0:
256,192,114993,1,8,0:0:0:0:
256,192,115193,1,8,0:0:0:0:
256,192,115293,1,8,0:0:0:0:
256,192,115393,1,0,0:0:0:0:
256,192,115593,1,0,0:0:0:0:
256,192,115793,1,0,0:0:0:0:
256,192,115893,1,0,0:0:0:0:
256,192,115993,1,8,0:0:0:0:
256,192,116093,1,8,0:0:0:0:
256,192,116193,1,0,0:0:0:0:
256,192,116393,1,0,0:0:0:0:
256,192,116593,1,8,0:0:0:0:
256,192,116793,1,0,0:0:0:0:
256,192,116993,1,8,0:0:0:0:
256,192,117193,1,8,0:0:0:0:
256,192,117293,1,8,0:0:0:0:
256,192,117393,1,0,0:0:0:0:
256,192,117493,1,0,0:0:0:0:
256,192,117593,1,8,0:0:0:0:
256,192,117793,1,0,0:0:0:0:
256,192,117993,1,0,0:0:0:0:
256,192,118193,1,0,0:0:0:0:
256,192,118393,1,8,0:0:0:0:
256,192,118493,1,8,0:0:0:0:
256,192,118593,1,0,0:0:0:0:
256,192,118793,1,0,0:0:0:0:
256,192,118893,1,0,0:0:0:0:
256,192,118993,1,8,0:0:0:0:
256,192,119093,1,8,0:0:0:0:
256,192,119193,1,0,0:0:0:0:
256,192,119393,1,0,0:0:0:0:
256,192,119593,1,0,0:0:0:0:
256,192,119793,1,8,0:0:0:0:
256,192,119993,1,0,0:0:0:0:
256,192,120193,1,8,0:1:0:0:
256,192,120393,1,0,0:0:0:0:
256,192,120493,1,0,0:0:0:0:
256,192,120593,1,8,0:0:0:0:
256,192,120693,1,8,0:0:0:0:
256,192,120793,1,0,0:0:0:0:
256,192,120993,1,12,0:0:0:0:
256,192,121393,1,0,0:0:0:0:
256,192,121593,1,0,0:0:0:0:
256,192,121793,1,8,0:0:0:0:
256,192,121993,1,8,0:0:0:0:
256,192,122093,1,8,0:0:0:0:
256,192,122193,1,8,0:0:0:0:
256,192,122293,1,8,0:0:0:0:
256,192,122393,1,0,0:0:0:0:
256,192,122593,1,12,0:0:0:0:
256,192,122793,1,0,0:0:0:0:
256,192,122993,1,0,0:0:0:0:
256,192,123193,1,8,0:0:0:0:
256,192,123393,1,0,0:0:0:0:
256,192,123493,1,0,0:0:0:0:
256,192,123593,1,0,0:0:0:0:
256,192,123693,1,0,0:0:0:0:
256,192,123793,1,8,0:0:0:0:
256,192,123993,1,0,0:0:0:0:
256,192,124193,1,8,0:0:0:0:
256,192,124293,1,8,0:0:0:0:
256,192,124393,1,0,0:0:0:0:
256,192,124493,1,0,0:0:0:0:
256,192,124593,1,8,0:0:0:0:
256,192,124693,1,0,0:0:0:0:
256,192,124793,1,8,0:0:0:0:
256,192,124993,1,8,0:0:0:0:
256,192,125093,1,0,0:0:0:0:
256,192,125193,1,8,0:0:0:0:
256,192,125293,1,8,0:0:0:0:
256,192,125393,1,0,0:0:0:0:
256,192,125793,1,0,0:0:0:0:
256,192,125893,1,0,0:0:0:0:
256,192,125993,1,8,0:0:0:0:
256,192,126093,1,8,0:0:0:0:
256,192,126193,1,0,0:0:0:0:
256,192,126293,1,0,0:0:0:0:
256,192,126393,1,8,0:0:0:0:
256,192,126593,1,8,0:0:0:0:
256,192,126693,1,0,0:0:0:0:
256,192,126793,1,8,0:0:0:0:
256,192,126893,1,8,0:0:0:0:
256,192,126993,1,0,0:0:0:0:
256,192,127093,1,8,0:0:0:0:
256,192,127193,1,0,0:0:0:0:
256,192,127393,1,0,0:0:0:0:
256,192,127693,1,0,0:0:0:0:
256,192,127793,1,12,0:0:0:0:
256,192,127993,1,0,0:0:0:0:
256,192,128193,1,8,0:0:0:0:
256,192,128493,1,0,0:0:0:0:
256,192,128593,1,12,0:0:0:0:
256,192,128793,1,0,0:0:0:0:
256,192,128993,1,8,0:0:0:0:
256,192,129293,1,0,0:0:0:0:
256,192,129393,1,12,0:0:0:0:
256,192,129593,1,0,0:0:0:0:
256,192,129793,1,12,0:0:0:0:
256,192,130093,1,12,0:0:0:0:
256,192,130393,1,12,0:0:0:0:
256,192,130593,1,0,0:0:0:0:
256,192,130693,1,0,0:0:0:0:
256,192,130793,1,0,0:0:0:0:
256,192,130993,1,4,0:0:0:0:
