osu file format v14

[General]
AudioFilename: nao - Dimension tripper!!!!.mp3
AudioLeadIn: 0
PreviewTime: 59064
Countdown: 0
SampleSet: Soft
StackLeniency: 0.7
Mode: 3
LetterboxInBreaks: 0
SpecialStyle: 0
WidescreenStoryboard: 0

[Editor]
Bookmarks: 16184
DistanceSpacing: 1.1
BeatDivisor: 4
GridSize: 4
TimelineZoom: 1.3

[Metadata]
Title:Dimension tripper!!!!
TitleUnicode:Dimension tripper!!!!
Artist:nao
ArtistUnicode:nao
Creator:Feerum
Version:MX 'Purple Heart'
Source:超次元ゲイム ネプテューヌ
Tags:5pb Hyperdimension Neptunia: The Animation Choujigen Game Neptune op opening compile heart -_Bad_Apple_- Critical_Star
BeatmapID:869922
BeatmapSetID:399702

[Difficulty]
HPDrainRate:8.5
CircleSize:4
OverallDifficulty:8.7
ApproachRate:5
SliderMultiplier:1.4
SliderTickRate:1

[Events]
//Background and Video events
0,0,"BG.jpg",0,0
//Break Periods
//Storyboard Layer 0 (Background)
//Storyboard Layer 1 (Fail)
//Storyboard Layer 2 (Pass)
//Storyboard Layer 3 (Foreground)
//Storyboard Sound Samples

[TimingPoints]
1041,318.809776833156,4,2,1,40,1,0
59542,-100,4,2,1,40,0,1
80105,-100,4,2,1,40,0,0

[HitObjects]
448,192,1041,128,0,5504:0:0:0:0:
64,192,1041,1,0,0:0:0:0:
192,192,1200,1,0,0:0:0:0:
192,192,1678,1,0,0:0:0:0:
320,192,1997,1,0,0:0:0:0:
192,192,2156,1,0,0:0:0:0:
64,192,2475,1,0,0:0:0:0:
320,192,2794,1,0,0:0:0:0:
64,192,2953,1,0,0:0:0:0:
192,192,3272,1,0,0:0:0:0:
64,192,3591,1,0,0:0:0:0:
192,192,3750,1,0,0:0:0:0:
320,192,3910,1,0,0:0:0:0:
192,192,4229,1,0,0:0:0:0:
320,192,4547,1,0,0:0:0:0:
64,192,4707,1,0,0:0:0:0:
192,192,5026,1,0,0:0:0:0:
64,192,5185,1,0,0:0:0:0:
320,192,5504,1,8,3:0:0:0:
64,192,5504,1,0,3:0:0:0:
192,192,5663,1,8,3:0:0:0:
448,192,5663,1,0,3:0:0:0:
64,192,5823,1,0,3:0:0:0:
192,192,5823,1,8,3:0:0:0:
448,192,5982,1,0,3:0:0:0:
320,192,5982,1,4,3:0:0:0:
64,192,5982,1,0,0:0:0:0:
192,192,6141,1,0,0:0:0:0:
320,192,6301,1,0,3:0:0:0:
64,192,6301,1,0,0:0:0:0:
192,192,6460,1,0,0:0:0:0:
448,192,6460,1,8,3:0:0:0:
320,192,6620,1,0,0:0:0:0:
192,192,6779,1,0,3:0:0:0:
448,192,6779,1,0,0:0:0:0:
64,192,6938,1,0,3:0:0:0:
320,192,6938,1,0,0:0:0:0:
320,192,7098,1,0,0:0:0:0:
448,192,7098,1,8,3:0:0:0:
192,192,7257,1,0,0:0:0:0:
64,192,7417,1,0,3:0:0:0:
448,192,7417,1,0,0:0:0:0:
448,192,7576,1,0,0:0:0:0:
192,192,7576,1,0,3:0:0:0:
64,192,7736,1,8,3:0:0:0:
320,192,7736,1,0,0:0:0:0:
192,192,7895,1,0,0:0:0:0:
320,192,7975,1,8,3:0:0:0:
64,192,7975,1,0,0:0:0:0:
448,192,8054,1,0,3:0:0:0:
192,192,8214,1,0,0:0:0:0:
320,192,8214,1,0,3:0:0:0:
64,192,8373,1,8,3:0:0:0:
448,192,8373,1,0,0:0:0:0:
192,192,8533,1,0,3:0:0:0:
448,192,8533,1,0,0:0:0:0:
320,192,8533,1,4,3:0:0:0:
64,192,8692,1,0,0:0:0:0:
192,192,8851,1,0,3:0:0:0:
320,192,8851,1,0,0:0:0:0:
192,192,9011,1,0,0:0:0:0:
64,192,9011,1,8,3:0:0:0:
320,192,9170,1,0,0:0:0:0:
448,192,9330,1,0,0:0:0:0:
192,192,9330,1,0,3:0:0:0:
64,192,9489,1,0,0:0:0:0:
192,192,9489,1,0,3:0:0:0:
320,192,9648,1,8,3:0:0:0:
448,192,9648,1,0,0:0:0:0:
192,192,9808,1,0,0:0:0:0:
320,192,9967,1,0,3:0:0:0:
64,192,9967,1,0,0:0:0:0:
448,192,10127,1,0,3:0:0:0:
192,192,10127,1,0,0:0:0:0:
64,192,10286,1,0,0:0:0:0:
320,192,10286,1,8,3:0:0:0:
192,192,10445,1,0,0:0:0:0:
320,192,10605,1,0,3:0:0:0:
448,192,10605,1,0,0:0:0:0:
64,192,10684,1,0,3:0:0:0:
192,192,10764,1,8,3:0:0:0:
320,192,10844,1,8,3:0:0:0:
192,192,10924,1,8,3:0:0:0:
320,192,11003,1,8,3:0:0:0:
192,192,11083,1,0,3:0:0:0:
448,192,11083,1,0,0:0:0:0:
64,192,11083,1,4,3:0:0:0:
320,192,11242,1,0,0:0:0:0:
64,192,11402,1,0,3:0:0:0:
320,192,11482,1,0,3:0:0:0:
192,192,11561,1,0,3:0:0:0:
448,192,11561,1,0,0:0:0:0:
320,192,11721,1,0,3:0:0:0:
448,192,11880,1,8,3:0:0:0:
192,192,11880,1,0,0:0:0:0:
320,192,12039,1,0,3:0:0:0:
64,192,12039,1,0,0:0:0:0:
192,192,12199,1,0,0:0:0:0:
320,192,12358,1,0,3:0:0:0:
448,192,12358,1,0,0:0:0:0:
192,192,12438,1,0,3:0:0:0:
320,192,12518,1,0,3:0:0:0:
192,192,12677,1,0,3:0:0:0:
448,192,12677,1,0,0:0:0:0:
64,192,12836,1,8,3:0:0:0:
320,192,12836,1,0,0:0:0:0:
448,192,12996,1,0,0:0:0:0:
320,192,12996,1,0,3:0:0:0:
192,192,13155,1,8,3:0:0:0:
64,192,13155,1,0,0:0:0:0:
192,192,13315,1,8,3:0:0:0:
448,192,13315,1,0,0:0:0:0:
320,192,13474,1,8,3:0:0:0:
64,192,13474,1,0,0:0:0:0:
192,192,13633,1,0,3:0:0:0:
448,192,13633,1,4,3:0:0:0:
64,192,13633,1,0,0:0:0:0:
320,192,13793,1,0,0:0:0:0:
192,192,13952,1,0,3:0:0:0:
448,192,14032,1,0,3:0:0:0:
320,192,14112,1,8,3:0:0:0:
64,192,14112,1,0,0:0:0:0:
448,192,14271,1,0,3:0:0:0:
64,192,14431,1,0,0:0:0:0:
192,192,14431,1,8,3:0:0:0:
320,192,14590,1,0,3:0:0:0:
448,192,14590,1,0,0:0:0:0:
192,192,14749,1,0,0:0:0:0:
448,192,14909,1,0,3:0:0:0:
320,192,14988,1,0,3:0:0:0:
192,192,15068,1,0,3:0:0:0:
64,192,15068,1,0,0:0:0:0:
320,192,15228,1,0,3:0:0:0:
64,192,15387,1,0,0:0:0:0:
448,192,15387,1,8,3:0:0:0:
192,192,15546,1,0,3:0:0:0:
320,192,15626,1,0,3:0:0:0:
192,192,15706,1,8,3:0:0:0:
448,192,15706,1,0,0:0:0:0:
64,192,15865,1,8,3:0:0:0:
320,192,15865,1,0,0:0:0:0:
192,192,16025,1,0,0:0:0:0:
448,192,16025,1,8,3:0:0:0:
64,192,16184,1,0,0:0:0:0:
320,192,16184,1,0,3:0:0:0:
448,192,16184,1,4,3:0:0:0:
192,192,16343,1,0,0:0:0:0:
320,192,16503,1,0,3:0:0:0:
64,192,16503,1,0,0:0:0:0:
192,192,16662,1,8,3:0:0:0:
448,192,16662,1,0,0:0:0:0:
320,192,16822,1,0,0:0:0:0:
192,192,16981,1,0,3:0:0:0:
448,192,16981,1,0,0:0:0:0:
320,192,17140,1,0,3:0:0:0:
64,192,17140,1,0,0:0:0:0:
192,192,17300,1,8,3:0:0:0:
64,192,17300,1,0,0:0:0:0:
320,192,17459,1,0,0:0:0:0:
192,192,17619,1,0,3:0:0:0:
448,192,17619,1,0,0:0:0:0:
64,192,17778,1,0,0:0:0:0:
192,192,17778,1,0,3:0:0:0:
448,192,17937,1,0,0:0:0:0:
320,192,17937,1,8,3:0:0:0:
64,192,18097,1,0,3:0:0:0:
320,192,18177,1,0,0:0:0:0:
192,192,18177,1,8,3:0:0:0:
448,192,18256,1,0,3:0:0:0:
320,192,18416,1,0,3:0:0:0:
64,192,18416,1,0,0:0:0:0:
192,192,18575,1,8,3:0:0:0:
448,192,18575,1,0,0:0:0:0:
320,192,18734,1,0,0:0:0:0:
448,192,18734,1,0,3:0:0:0:
64,192,18734,1,4,3:0:0:0:
192,192,18894,1,0,0:0:0:0:
448,192,19053,1,0,0:0:0:0:
64,192,19053,1,0,3:0:0:0:
320,192,19213,1,8,3:0:0:0:
64,192,19213,1,0,0:0:0:0:
192,192,19372,1,0,0:0:0:0:
320,192,19531,1,0,3:0:0:0:
448,192,19531,1,0,0:0:0:0:
192,192,19691,1,0,3:0:0:0:
64,192,19691,1,0,0:0:0:0:
64,192,19850,1,0,0:0:0:0:
448,192,19850,1,8,3:0:0:0:
192,192,20010,1,0,0:0:0:0:
320,192,20169,1,0,3:0:0:0:
64,192,20169,1,0,0:0:0:0:
192,192,20328,1,0,0:0:0:0:
448,192,20328,1,0,3:0:0:0:
64,192,20488,1,0,0:0:0:0:
320,192,20488,1,8,3:0:0:0:
192,192,20647,1,0,3:0:0:0:
320,192,20727,1,8,3:0:0:0:
64,192,20727,1,0,0:0:0:0:
448,192,20807,1,0,3:0:0:0:
192,192,20966,1,0,0:0:0:0:
320,192,20966,1,8,3:0:0:0:
320,192,21126,1,0,0:0:0:0:
192,192,21126,1,8,3:0:0:0:
64,192,21285,1,4,3:0:0:0:
448,192,21285,1,0,0:0:0:0:
320,192,21285,1,0,3:0:0:0:
192,192,21444,1,0,0:0:0:0:
320,192,21604,1,0,3:0:0:0:
448,192,21604,1,0,0:0:0:0:
192,192,21763,1,0,3:0:0:0:
64,192,21763,1,0,0:0:0:0:
320,192,21923,1,0,3:0:0:0:
192,192,21923,1,0,0:0:0:0:
64,192,22082,1,0,0:0:0:0:
320,192,22082,1,8,3:0:0:0:
192,192,22241,1,0,0:0:0:0:
448,192,22241,1,0,3:0:0:0:
320,192,22401,1,0,0:0:0:0:
64,192,22560,1,0,0:0:0:0:
448,192,22560,1,0,3:0:0:0:
320,192,22640,1,0,3:0:0:0:
192,192,22720,1,0,3:0:0:0:
64,192,22879,1,0,3:0:0:0:
448,192,22879,1,0,0:0:0:0:
320,192,23038,1,8,3:0:0:0:
448,192,23038,1,0,0:0:0:0:
192,192,23198,1,0,3:0:0:0:
64,192,23198,1,0,0:0:0:0:
320,192,23357,1,8,3:0:0:0:
64,192,23357,1,0,0:0:0:0:
320,192,23517,1,8,3:0:0:0:
448,192,23517,1,0,0:0:0:0:
192,192,23676,1,0,0:0:0:0:
64,192,23676,1,8,3:0:0:0:
320,192,23835,1,4,3:0:0:0:
192,192,23835,1,0,0:0:0:0:
448,192,23835,1,0,3:0:0:0:
64,192,23995,1,0,0:0:0:0:
320,192,24154,1,0,3:0:0:0:
192,192,24234,1,0,3:0:0:0:
448,192,24314,1,0,0:0:0:0:
320,192,24314,1,0,3:0:0:0:
64,192,24473,1,0,0:0:0:0:
192,192,24473,1,0,3:0:0:0:
320,192,24632,1,8,3:0:0:0:
448,192,24632,1,0,0:0:0:0:
192,192,24792,1,0,0:0:0:0:
320,192,24792,1,0,3:0:0:0:
64,192,24951,1,0,0:0:0:0:
192,192,25111,1,0,3:0:0:0:
448,192,25111,1,0,0:0:0:0:
320,192,25190,1,0,3:0:0:0:
192,192,25270,1,0,3:0:0:0:
320,192,25429,1,0,3:0:0:0:
448,192,25429,1,0,0:0:0:0:
64,192,25589,1,0,0:0:0:0:
192,192,25589,1,8,3:0:0:0:
320,192,25748,1,0,0:0:0:0:
192,192,25748,1,0,3:0:0:0:
448,192,25908,1,0,0:0:0:0:
320,192,25908,1,8,3:0:0:0:
64,192,26067,1,0,0:0:0:0:
192,192,26067,1,8,3:0:0:0:
320,192,26226,1,0,3:0:0:0:
448,192,26226,1,0,0:0:0:0:
192,192,26386,1,4,3:0:0:0:
448,192,26386,1,0,0:0:0:0:
64,192,26386,1,0,3:0:0:0:
320,192,26545,1,0,0:0:0:0:
192,192,26705,1,0,3:0:0:0:
448,192,26864,1,0,0:0:0:0:
320,192,26864,1,0,3:0:0:0:
64,192,27023,1,0,0:0:0:0:
320,192,27183,1,0,0:0:0:0:
448,192,27183,1,8,3:0:0:0:
192,192,27342,1,0,0:0:0:0:
320,192,27342,1,0,3:0:0:0:
64,192,27502,1,0,0:0:0:0:
320,192,27661,128,4,28299:3:0:0:0:
192,192,27661,1,0,3:0:0:0:
448,192,27661,1,0,0:0:0:0:
64,192,28299,1,0,0:0:0:0:
192,192,28299,1,0,3:0:0:0:
320,192,28378,1,0,3:0:0:0:
448,192,28378,1,0,0:0:0:0:
64,192,28458,1,0,0:0:0:0:
192,192,28458,1,8,3:0:0:0:
320,192,28618,1,0,3:0:0:0:
448,192,28618,1,0,0:0:0:0:
192,192,28618,128,4,29096:3:0:0:0:
64,192,29096,1,0,3:0:0:0:
320,192,29096,1,0,0:0:0:0:
448,192,29096,1,4,3:0:0:0:
192,192,29415,1,0,0:0:0:0:
320,192,29415,1,0,3:0:0:0:
64,192,29574,1,0,0:0:0:0:
192,192,29733,1,0,3:0:0:0:
448,192,29733,1,0,0:0:0:0:
320,192,29893,1,0,0:0:0:0:
448,192,30052,1,0,3:0:0:0:
64,192,30052,1,0,0:0:0:0:
320,192,30212,1,0,0:0:0:0:
192,192,30291,1,0,0:0:0:0:
320,192,30371,1,0,3:0:0:0:
448,192,30371,1,0,0:0:0:0:
64,192,30530,1,0,0:0:0:0:
192,192,30690,1,0,3:0:0:0:
320,192,30690,1,0,0:0:0:0:
64,192,30849,1,0,0:0:0:0:
192,192,30929,1,0,0:0:0:0:
320,192,31009,1,0,3:0:0:0:
448,192,31009,1,0,0:0:0:0:
64,192,31168,1,0,0:0:0:0:
192,192,31327,1,0,3:0:0:0:
320,192,31327,1,0,0:0:0:0:
448,192,31487,1,0,0:0:0:0:
320,192,31646,1,0,0:0:0:0:
64,192,31646,1,0,3:0:0:0:
448,192,31806,1,0,0:0:0:0:
192,192,31965,1,0,3:0:0:0:
64,192,31965,1,0,0:0:0:0:
320,192,32124,1,0,0:0:0:0:
192,192,32204,1,0,0:0:0:0:
448,192,32284,1,0,3:0:0:0:
64,192,32284,1,0,0:0:0:0:
320,192,32443,1,0,0:0:0:0:
192,192,32603,1,0,3:0:0:0:
448,192,32603,1,0,0:0:0:0:
320,192,32762,1,0,0:0:0:0:
192,192,32842,1,0,0:0:0:0:
64,192,32921,1,0,3:0:0:0:
320,192,32921,1,0,0:0:0:0:
448,192,33081,1,0,0:0:0:0:
320,192,33240,1,0,3:0:0:0:
192,192,33240,1,0,0:0:0:0:
64,192,33400,1,0,0:0:0:0:
448,192,33559,1,0,3:0:0:0:
192,192,33559,1,0,0:0:0:0:
320,192,33719,1,0,0:0:0:0:
448,192,33878,1,0,0:0:0:0:
64,192,33878,1,0,3:0:0:0:
192,192,34037,1,0,0:0:0:0:
320,192,34117,1,0,0:0:0:0:
448,192,34197,1,0,0:0:0:0:
192,192,34197,1,0,3:0:0:0:
64,192,34197,1,4,3:0:0:0:
320,192,34356,1,0,0:0:0:0:
192,192,34516,1,0,3:0:0:0:
448,192,34516,1,0,0:0:0:0:
64,192,34675,1,0,0:0:0:0:
320,192,34834,1,0,0:0:0:0:
448,192,34834,1,0,3:0:0:0:
192,192,34994,1,0,0:0:0:0:
64,192,35153,1,0,0:0:0:0:
320,192,35153,1,0,3:0:0:0:
192,192,35313,1,0,0:0:0:0:
320,192,35392,1,0,0:0:0:0:
64,192,35472,1,0,3:0:0:0:
192,192,35472,1,0,0:0:0:0:
448,192,35631,1,0,0:0:0:0:
320,192,35791,1,0,3:0:0:0:
192,192,35791,1,0,0:0:0:0:
64,192,35950,1,0,0:0:0:0:
192,192,36030,1,0,0:0:0:0:
320,192,36110,1,0,3:0:0:0:
448,192,36110,1,0,0:0:0:0:
64,192,36269,1,0,0:0:0:0:
192,192,36428,1,0,3:0:0:0:
448,192,36428,1,0,0:0:0:0:
320,192,36588,1,0,0:0:0:0:
64,192,36747,1,0,3:0:0:0:
192,192,36747,1,0,0:0:0:0:
192,192,36907,1,0,3:0:0:0:
64,192,36907,1,0,0:0:0:0:
320,192,37066,1,8,3:0:0:0:
448,192,37066,1,0,0:0:0:0:
192,192,37225,1,0,3:0:0:0:
320,192,37305,1,0,3:0:0:0:
192,192,37385,1,0,3:0:0:0:
320,192,37544,1,0,3:0:0:0:
448,192,37544,1,0,0:0:0:0:
64,192,37704,1,0,3:0:0:0:
320,192,37783,1,0,3:0:0:0:
192,192,37863,1,0,3:0:0:0:
448,192,37943,1,0,3:0:0:0:
320,192,38022,1,0,0:0:0:0:
64,192,38022,1,0,3:0:0:0:
192,192,38182,1,0,3:0:0:0:
448,192,38182,1,0,0:0:0:0:
64,192,38341,1,4,3:0:0:0:
320,192,38341,1,8,3:0:0:0:
448,192,38341,1,0,0:0:0:0:
448,192,38660,1,0,3:0:0:0:
64,192,38660,1,0,0:0:0:0:
192,192,38819,1,0,0:0:0:0:
320,192,38819,1,0,3:0:0:0:
64,192,38979,1,0,0:0:0:0:
192,192,38979,1,8,3:0:0:0:
448,192,38979,1,4,3:0:0:0:
320,192,39298,1,0,3:0:0:0:
192,192,39298,1,4,3:0:0:0:
448,192,39457,1,0,0:0:0:0:
320,192,39616,1,8,3:0:0:0:
64,192,39616,1,0,0:0:0:0:
192,192,39776,1,0,0:0:0:0:
320,192,39935,1,0,3:0:0:0:
448,192,39935,1,0,0:0:0:0:
64,192,40095,1,0,3:0:0:0:
320,192,40254,1,0,0:0:0:0:
192,192,40254,1,8,3:0:0:0:
192,192,40414,1,0,0:0:0:0:
448,192,40414,1,0,3:0:0:0:
64,192,40573,1,0,0:0:0:0:
320,192,40732,1,0,3:0:0:0:
192,192,40732,1,0,0:0:0:0:
320,192,40892,1,8,3:0:0:0:
448,192,40892,1,0,0:0:0:0:
192,192,41051,1,0,0:0:0:0:
64,192,41211,1,0,3:0:0:0:
448,192,41211,1,0,0:0:0:0:
320,192,41370,1,0,3:0:0:0:
192,192,41529,1,0,0:0:0:0:
64,192,41529,1,8,3:0:0:0:
448,192,41689,1,0,0:0:0:0:
320,192,41848,1,0,0:0:0:0:
192,192,41848,1,0,3:0:0:0:
320,192,42008,1,0,0:0:0:0:
64,192,42167,1,8,3:0:0:0:
448,192,42167,1,0,0:0:0:0:
192,192,42326,1,0,0:0:0:0:
320,192,42486,1,0,3:0:0:0:
448,192,42486,1,0,0:0:0:0:
320,192,42645,1,0,3:0:0:0:
64,192,42805,1,8,3:0:0:0:
448,192,42805,1,0,0:0:0:0:
192,192,42964,1,0,3:0:0:0:
64,192,42964,1,0,0:0:0:0:
320,192,43123,1,0,0:0:0:0:
448,192,43283,1,0,0:0:0:0:
192,192,43283,1,0,3:0:0:0:
64,192,43442,1,8,3:0:0:0:
448,192,43442,1,0,0:0:0:0:
192,192,43602,1,0,0:0:0:0:
320,192,43602,1,0,3:0:0:0:
64,192,43761,1,0,0:0:0:0:
192,192,43761,1,8,3:0:0:0:
320,192,43920,1,0,3:0:0:0:
192,192,44000,1,0,3:0:0:0:
320,192,44080,1,0,3:0:0:0:
64,192,44239,1,4,3:0:0:0:
192,192,44239,1,0,3:0:0:0:
448,192,44239,1,0,0:0:0:0:
320,192,44399,1,0,0:0:0:0:
192,192,44558,1,0,0:0:0:0:
448,192,44558,1,0,3:0:0:0:
192,192,44717,1,8,3:0:0:0:
64,192,44717,1,0,0:0:0:0:
320,192,44877,1,0,0:0:0:0:
192,192,45036,1,0,3:0:0:0:
448,192,45036,1,0,0:0:0:0:
320,192,45196,1,0,0:0:0:0:
64,192,45196,1,0,3:0:0:0:
320,192,45355,1,8,3:0:0:0:
448,192,45355,1,0,0:0:0:0:
64,192,45514,1,4,3:0:0:0:
192,192,45514,1,0,3:0:0:0:
448,192,45514,1,0,0:0:0:0:
320,192,45674,1,0,0:0:0:0:
64,192,45833,1,0,0:0:0:0:
448,192,45833,1,0,3:0:0:0:
192,192,45993,1,8,3:0:0:0:
64,192,45993,1,0,0:0:0:0:
320,192,46152,1,0,0:0:0:0:
192,192,46311,1,0,0:0:0:0:
448,192,46311,1,0,3:0:0:0:
192,192,46471,1,0,3:0:0:0:
64,192,46471,1,0,0:0:0:0:
320,192,46630,1,0,0:0:0:0:
448,192,46630,1,8,3:0:0:0:
64,192,46790,1,0,0:0:0:0:
448,192,46790,1,4,3:0:0:0:
192,192,46790,1,0,3:0:0:0:
320,192,46949,1,0,0:0:0:0:
320,192,47109,1,0,3:0:0:0:
64,192,47109,1,0,0:0:0:0:
192,192,47268,1,8,3:0:0:0:
448,192,47268,1,0,0:0:0:0:
64,192,47427,1,0,0:0:0:0:
448,192,47587,1,0,0:0:0:0:
320,192,47587,1,0,3:0:0:0:
192,192,47746,1,0,3:0:0:0:
64,192,47746,1,0,0:0:0:0:
448,192,47906,1,0,0:0:0:0:
192,192,47906,1,8,3:0:0:0:
320,192,48065,1,0,0:0:0:0:
64,192,48224,1,4,3:0:0:0:
192,192,48224,1,8,3:0:0:0:
448,192,48224,1,0,0:0:0:0:
192,192,48384,1,0,0:0:0:0:
64,192,48384,1,0,0:0:0:0:
320,192,48384,1,0,3:0:0:0:
448,192,48543,1,0,0:0:0:0:
320,192,48543,1,0,3:0:0:0:
64,192,48703,1,4,3:0:0:0:
192,192,48703,1,8,3:0:0:0:
448,192,48703,1,0,0:0:0:0:
320,192,48862,1,0,3:0:0:0:
192,192,48862,1,0,0:0:0:0:
320,192,49021,1,8,3:0:0:0:
64,192,49021,1,4,3:0:0:0:
448,192,49021,1,0,0:0:0:0:
192,192,49181,1,8,3:0:0:0:
448,192,49181,1,0,0:0:0:0:
320,192,49340,1,8,3:0:0:0:
192,192,49420,1,8,3:0:0:0:
320,192,49500,1,0,3:0:0:0:
64,192,49500,1,0,0:0:0:0:
448,192,49659,1,0,3:0:0:0:
64,192,49818,1,0,0:0:0:0:
320,192,49818,1,8,3:0:0:0:
192,192,49978,1,0,0:0:0:0:
64,192,50058,1,8,3:0:0:0:
320,192,50137,1,8,3:0:0:0:
448,192,50137,1,0,0:0:0:40:Bell.wav
64,192,50297,1,0,3:0:0:0:
448,192,50297,1,0,0:0:0:0:
320,192,50456,1,0,0:0:0:0:
192,192,50456,1,0,3:0:0:0:
448,192,50615,1,0,3:0:0:0:
192,192,50615,1,4,3:0:0:0:
64,192,50615,1,0,0:0:0:0:
64,192,50934,1,4,3:0:0:0:
192,192,50934,1,0,3:0:0:0:
320,192,50934,1,0,0:0:0:0:
320,192,51253,1,0,3:0:0:0:
448,192,51253,1,4,3:0:0:0:
64,192,51253,1,0,0:0:0:0:
192,192,51572,1,8,3:0:0:0:
448,192,51572,1,0,0:0:0:0:
320,192,51731,1,0,0:0:0:0:
64,192,51731,1,8,3:0:0:0:
448,192,51891,1,0,0:0:0:0:
64,192,51891,1,0,3:0:0:0:
192,192,51891,1,4,3:0:0:0:
320,192,52209,1,0,3:0:0:0:
192,192,52209,1,0,0:0:0:0:
448,192,52369,1,8,3:0:0:0:
320,192,52369,1,0,0:0:0:0:
192,192,52528,1,0,3:0:0:0:
320,192,52608,1,8,3:0:0:0:
192,192,52688,1,0,3:0:0:0:
64,192,52847,1,0,3:0:0:0:
448,192,52847,1,0,0:0:0:0:
192,192,53006,1,8,3:0:0:0:
320,192,53006,1,0,0:0:0:0:
320,192,53166,1,4,3:0:0:0:
448,192,53166,1,0,0:0:0:0:
64,192,53166,1,0,3:0:0:0:
192,192,53485,1,0,3:0:0:0:
320,192,53485,1,0,0:0:0:0:
448,192,53644,1,8,3:0:0:0:
64,192,53644,1,0,0:0:0:0:
192,192,53804,1,0,3:0:0:0:
320,192,53883,1,8,3:0:0:0:
192,192,53963,1,0,3:0:0:0:
448,192,54122,1,8,3:0:0:0:
320,192,54122,1,0,0:0:0:0:
64,192,54282,1,0,0:0:0:0:
192,192,54282,1,8,3:0:0:0:
448,192,54441,1,0,0:0:0:0:
320,192,54441,1,8,3:0:0:0:
64,192,54601,1,0,3:0:0:0:
192,192,54601,1,4,3:0:0:0:
448,192,54601,1,0,0:0:0:0:
320,192,54919,1,0,3:0:0:0:
448,192,54919,1,0,0:0:0:0:
320,192,55079,1,0,3:0:0:0:
448,192,55079,1,0,0:0:0:0:
64,192,55238,1,8,3:0:0:0:
448,192,55238,1,0,0:0:0:0:
192,192,55238,1,4,3:0:0:0:
320,192,55398,1,0,0:0:0:0:
192,192,55557,1,0,0:0:0:0:
448,192,55557,1,0,3:0:0:0:
320,192,55716,1,8,3:0:0:0:
64,192,55716,1,0,0:0:0:0:
192,192,55876,1,0,0:0:0:0:
448,192,56035,1,0,0:0:0:0:
320,192,56035,1,8,3:0:0:0:
64,192,56195,1,0,3:0:0:0:
192,192,56354,1,0,3:0:0:0:
64,192,56513,1,8,3:0:0:0:
448,192,56513,1,0,0:0:0:0:
192,192,56673,1,0,0:0:0:0:
320,192,56673,1,8,3:0:0:0:
320,192,56832,1,8,3:0:0:0:
448,192,56832,1,0,0:0:0:0:
192,192,56992,1,0,3:0:0:0:
448,192,56992,1,0,0:0:0:0:
64,192,56992,128,4,58426:3:0:0:0:
320,192,57151,1,0,0:0:0:0:
448,192,57310,1,8,3:0:0:0:
192,192,57310,1,0,0:0:0:0:
320,192,57470,1,8,3:0:0:0:
192,192,57470,1,0,0:0:0:0:
320,192,57629,1,0,3:0:0:0:
448,192,57629,1,0,0:0:0:0:
448,192,57789,1,8,3:0:0:0:
192,192,57789,1,0,0:0:0:0:
192,192,57948,1,0,0:0:0:0:
320,192,57948,1,0,3:0:0:0:
448,192,58107,1,8,3:0:0:0:
320,192,58107,1,0,0:0:0:0:
192,192,58267,1,0,3:0:0:0:
320,192,58347,1,0,3:0:0:0:
192,192,58426,1,4,3:0:0:0:
448,192,58426,1,8,3:0:0:0:
448,192,58586,1,0,0:0:0:0:
64,192,58586,1,4,3:0:0:0:
320,192,58586,1,8,3:0:0:0:
64,192,58745,1,0,0:0:0:0:
192,192,58745,1,4,3:0:0:0:
320,192,58745,1,8,3:0:0:0:
64,192,59064,1,0,0:0:0:0:
192,192,59064,1,8,3:0:0:0:
448,192,59223,1,0,0:0:0:0:
320,192,59223,1,0,3:0:0:0:
64,192,59542,1,0,0:0:0:40:Bell.wav
320,192,59542,1,0,3:0:0:0:
448,192,59542,1,4,3:0:0:0:
192,192,59701,1,0,0:0:0:0:
448,192,59861,1,0,0:0:0:0:
320,192,59861,1,0,3:0:0:0:
64,192,60020,1,8,3:0:0:0:
448,192,60020,1,0,0:0:0:0:
320,192,60180,1,0,0:0:0:0:
192,192,60339,1,0,3:0:0:0:
64,192,60339,1,0,0:0:0:0:
320,192,60499,1,0,3:0:0:0:
448,192,60499,1,0,0:0:0:0:
64,192,60658,1,0,0:0:0:0:
320,192,60658,1,8,3:0:0:0:
448,192,60817,1,0,0:0:0:40:Bell.wav
192,192,60817,1,0,3:0:0:0:
64,192,60817,1,4,3:0:0:0:
320,192,60977,1,0,0:0:0:0:
192,192,61136,1,0,3:0:0:0:
448,192,61136,1,0,0:0:0:0:
320,192,61296,1,8,3:0:0:0:
64,192,61296,1,0,0:0:0:0:
320,192,61455,1,0,0:0:0:0:
192,192,61614,1,0,3:0:0:0:
64,192,61614,1,0,0:0:0:0:
448,192,61774,1,0,0:0:0:0:
320,192,61774,1,0,3:0:0:0:
64,192,61933,1,0,0:0:0:0:
448,192,61933,1,8,3:0:0:0:
320,192,62093,1,0,3:0:0:0:
64,192,62093,1,4,3:0:0:0:
192,192,62093,1,0,0:0:0:40:Bell.wav
448,192,62252,1,0,0:0:0:0:
192,192,62411,1,0,0:0:0:0:
320,192,62411,1,0,3:0:0:0:
64,192,62571,1,8,3:0:0:0:
320,192,62571,1,0,0:0:0:0:
448,192,62730,1,0,0:0:0:0:
192,192,62890,1,0,3:0:0:0:
64,192,62890,1,0,0:0:0:0:
448,192,63049,1,0,0:0:0:0:
320,192,63049,1,0,3:0:0:0:
64,192,63208,1,0,0:0:0:0:
448,192,63208,1,8,3:0:0:0:
64,192,63368,1,4,3:0:0:0:
192,192,63368,1,0,0:0:0:40:Bell.wav
320,192,63368,1,0,3:0:0:0:
320,192,63527,1,0,0:0:0:0:
448,192,63687,1,0,3:0:0:0:
192,192,63687,1,0,0:0:0:0:
64,192,63846,1,0,0:0:0:0:
320,192,63846,1,8,3:0:0:0:
192,192,64005,1,0,3:0:0:0:
320,192,64085,1,8,3:0:0:0:
192,192,64165,1,0,3:0:0:0:
448,192,64324,1,8,3:0:0:0:
64,192,64324,1,0,0:0:0:0:
320,192,64484,1,8,3:0:0:0:
192,192,64484,1,0,0:0:0:0:
320,192,64643,1,0,0:0:0:40:Bell.wav
448,192,64643,1,4,3:0:0:0:
64,192,64643,1,0,3:0:0:0:
192,192,64962,1,0,0:0:0:0:
448,192,64962,1,0,3:0:0:0:
320,192,65121,1,8,3:0:0:0:
64,192,65121,1,0,0:0:0:0:
192,192,65281,1,0,0:0:0:0:
448,192,65440,1,0,0:0:0:0:
320,192,65440,1,0,3:0:0:0:
64,192,65599,1,0,0:0:0:0:
320,192,65599,1,0,3:0:0:0:
448,192,65759,1,0,0:0:0:0:
192,192,65759,1,8,3:0:0:0:
320,192,65918,1,0,3:0:0:0:
64,192,65918,1,0,0:0:0:40:Bell.wav
448,192,65918,1,4,3:0:0:0:
192,192,66078,1,0,0:0:0:0:
320,192,66237,1,0,3:0:0:0:
448,192,66237,1,0,0:0:0:0:
192,192,66397,1,8,3:0:0:0:
64,192,66397,1,0,0:0:0:0:
320,192,66556,1,0,0:0:0:0:
192,192,66715,1,0,3:0:0:0:
448,192,66715,1,0,0:0:0:0:
192,192,66875,1,0,3:0:0:0:
64,192,66875,1,0,0:0:0:0:
320,192,67034,1,8,3:0:0:0:
448,192,67034,1,0,0:0:0:0:
64,192,67194,1,4,3:0:0:0:
448,192,67194,1,0,3:0:0:0:
192,192,67194,1,0,0:0:0:40:Bell.wav
320,192,67353,1,0,0:0:0:0:
192,192,67512,1,0,0:0:0:0:
448,192,67512,1,0,3:0:0:0:
64,192,67672,1,0,0:0:0:0:
320,192,67672,1,8,3:0:0:0:
192,192,67831,1,0,3:0:0:0:
320,192,67911,1,8,3:0:0:0:
192,192,67991,1,0,3:0:0:0:
64,192,67991,1,0,0:0:0:0:
448,192,68150,1,0,0:0:0:0:
320,192,68150,1,0,3:0:0:0:
64,192,68309,1,0,0:0:0:0:
192,192,68309,1,8,3:0:0:0:
448,192,68469,1,4,3:0:0:0:
320,192,68469,1,0,0:0:0:40:Bell.wav
64,192,68469,1,0,3:0:0:0:
192,192,68628,1,0,0:0:0:0:
320,192,68788,1,0,3:0:0:0:
448,192,68947,1,0,0:0:0:0:
192,192,68947,1,8,3:0:0:0:
320,192,69106,1,0,0:0:0:0:
64,192,69106,1,0,3:0:0:0:
448,192,69266,1,0,0:0:0:40:Bell.wav
320,192,69266,1,8,3:0:0:0:
64,192,69425,1,0,0:0:0:0:
192,192,69425,1,8,3:0:0:0:
448,192,69585,1,0,0:0:0:0:
320,192,69585,1,8,3:0:0:0:
64,192,69744,1,4,3:0:0:0:
192,192,69744,1,0,0:0:0:40:Bell.wav
448,192,69744,1,0,3:0:0:0:
320,192,70063,1,0,3:0:0:0:
64,192,70063,1,0,0:0:0:0:
448,192,70222,1,0,0:0:0:0:
320,192,70222,1,8,3:0:0:0:
192,192,70382,1,0,0:0:0:0:
448,192,70541,1,0,3:0:0:0:
64,192,70541,1,0,0:0:0:0:
192,192,70700,1,0,0:0:0:0:
320,192,70700,1,0,3:0:0:0:
64,192,70860,1,0,0:0:0:40:Bell.wav
192,192,70860,1,8,3:0:0:0:
448,192,70860,1,4,3:0:0:0:
448,192,71019,1,0,0:0:0:40:Bell.wav
320,192,71019,1,0,3:0:0:0:
64,192,71019,1,4,3:0:0:0:
192,192,71179,1,0,0:0:0:0:
320,192,71338,1,0,0:0:0:0:
64,192,71338,1,0,3:0:0:0:
192,192,71497,1,8,3:0:0:0:
448,192,71497,1,0,0:0:0:0:
64,192,71657,1,0,0:0:0:0:
192,192,71816,1,0,0:0:0:0:
320,192,71816,1,0,3:0:0:0:
448,192,71976,1,0,0:0:0:0:
320,192,71976,1,0,3:0:0:0:
64,192,72135,1,0,0:0:0:40:Bell.wav
448,192,72135,1,0,0:0:0:0:
192,192,72135,1,8,3:0:0:0:
192,192,72294,1,0,0:0:0:0:
320,192,72294,1,0,0:0:0:40:Bell.wav
64,192,72294,1,4,3:0:0:0:
320,192,72454,1,0,0:0:0:0:
448,192,72613,1,0,3:0:0:0:
192,192,72613,1,0,0:0:0:0:
64,192,72773,1,0,0:0:0:0:
320,192,72773,1,8,3:0:0:0:
448,192,72932,1,0,0:0:0:0:
192,192,73092,1,0,3:0:0:0:
320,192,73092,1,0,0:0:0:0:
64,192,73251,1,0,0:0:0:0:
192,192,73251,1,0,3:0:0:0:
448,192,73410,1,0,0:0:0:0:
320,192,73410,1,8,3:0:0:0:
64,192,73570,1,0,3:0:0:0:
192,192,73570,1,4,3:0:0:0:
448,192,73570,1,0,0:0:0:40:Bell.wav
192,192,73729,1,0,0:0:0:0:
320,192,73889,1,0,3:0:0:0:
448,192,73889,1,0,0:0:0:0:
64,192,74048,1,0,0:0:0:0:
320,192,74048,1,8,3:0:0:0:
192,192,74207,1,0,3:0:0:0:
320,192,74287,1,8,3:0:0:0:
448,192,74367,1,0,3:0:0:0:
64,192,74367,1,0,0:0:0:0:
320,192,74526,1,0,3:0:0:0:
192,192,74606,1,0,3:0:0:0:
448,192,74686,1,0,0:0:0:0:
320,192,74686,1,8,3:0:0:0:
64,192,74845,1,0,0:0:0:40:Bell.wav
192,192,74845,1,0,3:0:0:0:
448,192,74845,1,4,3:0:0:0:
320,192,75004,1,0,0:0:0:0:
192,192,75164,1,0,3:0:0:0:
448,192,75164,1,0,0:0:0:0:
64,192,75323,1,0,0:0:0:0:
320,192,75323,1,8,3:0:0:0:
192,192,75483,1,0,0:0:0:0:
448,192,75642,1,0,0:0:0:0:
320,192,75642,1,0,3:0:0:0:
64,192,75801,1,0,3:0:0:0:
192,192,75881,1,0,3:0:0:0:
320,192,75961,1,8,3:0:0:0:
64,192,75961,1,0,0:0:0:0:
448,192,76120,1,4,3:0:0:0:
192,192,76120,1,0,3:0:0:0:
320,192,76120,1,0,0:0:0:40:Bell.wav
64,192,76280,1,8,3:0:0:0:
192,192,76280,1,0,0:0:0:0:
320,192,76439,1,0,0:0:0:0:
448,192,76598,1,0,0:0:0:0:
192,192,76598,1,8,3:0:0:0:
64,192,76758,1,0,0:0:0:0:
192,192,76917,1,8,3:0:0:0:
320,192,76917,1,0,0:0:0:0:
448,192,77077,1,0,3:0:0:0:
320,192,77156,1,0,3:0:0:0:
192,192,77236,1,8,3:0:0:0:
64,192,77236,1,0,0:0:0:0:
320,192,77395,1,0,0:0:0:40:Bell.wav
448,192,77395,1,0,3:0:0:0:
192,192,77395,1,4,3:0:0:0:
64,192,77555,1,8,3:0:0:0:
448,192,77555,1,0,3:0:0:0:
192,192,77635,1,0,3:0:0:0:
320,192,77714,1,0,3:0:0:0:
192,192,77794,1,0,3:0:0:0:
320,192,77874,1,8,3:0:0:0:
448,192,77874,1,0,3:0:0:0:
64,192,77953,1,0,3:0:0:0:
192,192,78033,1,0,3:0:0:0:
320,192,78113,1,0,3:0:0:0:
448,192,78192,1,8,3:0:0:0:
192,192,78192,1,0,3:0:0:0:
64,192,78272,1,0,3:0:0:0:
320,192,78352,1,0,3:0:0:0:
192,192,78432,1,0,3:0:0:0:
320,192,78511,1,8,3:0:0:0:
192,192,78671,1,0,3:0:0:0:
448,192,78671,1,4,3:0:0:0:
64,192,78671,1,0,0:0:0:40:Bell.wav
320,192,79149,128,0,79946:0:0:0:0:
64,192,79468,1,8,3:0:0:0:
192,192,79468,1,0,0:0:0:0:
448,192,79627,1,0,3:0:0:0:
192,192,79627,1,0,0:0:0:0:
64,192,79946,1,4,3:0:0:0:
192,192,79946,1,0,3:0:0:0:
448,192,79946,1,0,0:0:0:40:Bell.wav
320,192,80105,1,0,0:0:0:0:
192,192,80265,1,0,3:0:0:0:
448,192,80265,1,0,0:0:0:0:
320,192,80424,1,8,3:0:0:0:
64,192,80424,1,0,0:0:0:0:
192,192,80584,1,0,0:0:0:0:
448,192,80743,1,0,0:0:0:0:
64,192,80743,1,0,3:0:0:0:
320,192,80902,1,0,0:0:0:0:
192,192,80902,1,0,3:0:0:0:
192,192,81062,1,8,3:0:0:0:
448,192,81062,1,0,0:0:0:0:
320,192,81221,1,0,0:0:0:0:
192,192,81381,1,0,3:0:0:0:
448,192,81381,1,0,0:0:0:0:
320,192,81540,1,0,0:0:0:0:
64,192,81540,1,0,3:0:0:0:
448,192,81699,1,0,0:0:0:0:
192,192,81699,1,8,3:0:0:0:
320,192,81859,1,0,3:0:0:0:
192,192,81938,1,8,3:0:0:0:
320,192,82018,1,0,3:0:0:0:
64,192,82178,1,0,0:0:0:0:
448,192,82178,1,0,3:0:0:0:
192,192,82337,1,0,0:0:0:0:
320,192,82337,1,8,3:0:0:0:
64,192,82496,1,0,3:0:0:0:
320,192,82496,1,0,0:0:0:0:
448,192,82496,1,4,3:0:0:0:
192,192,82656,1,0,0:0:0:0:
320,192,82815,1,0,3:0:0:0:
64,192,82815,1,0,0:0:0:0:
192,192,82975,1,8,3:0:0:0:
64,192,82975,1,0,0:0:0:0:
192,192,83134,1,0,0:0:0:0:
320,192,83293,1,0,3:0:0:0:
448,192,83293,1,0,0:0:0:0:
320,192,83453,1,0,3:0:0:0:
64,192,83453,1,0,0:0:0:0:
448,192,83612,1,0,0:0:0:0:
192,192,83612,1,8,3:0:0:0:
192,192,83772,1,0,0:0:0:0:
320,192,83931,1,0,0:0:0:0:
64,192,83931,1,0,3:0:0:0:
320,192,84090,1,0,3:0:0:0:
448,192,84090,1,0,0:0:0:0:
64,192,84250,1,0,0:0:0:0:
192,192,84250,1,8,3:0:0:0:
320,192,84409,1,0,3:0:0:0:
192,192,84489,1,8,3:0:0:0:
320,192,84569,1,0,3:0:0:0:
448,192,84728,1,8,3:0:0:0:
64,192,84728,1,0,0:0:0:0:
192,192,84887,1,0,0:0:0:0:
320,192,84887,1,8,3:0:0:0:
64,192,85047,1,4,3:0:0:0:
320,192,85047,1,0,0:0:0:0:
448,192,85047,1,0,3:0:0:0:
192,192,85206,1,0,0:0:0:0:
192,192,85366,1,8,3:0:0:0:
320,192,85366,1,0,0:0:0:0:
448,192,85525,1,0,0:0:0:0:
320,192,85525,1,0,3:0:0:0:
64,192,85684,1,0,0:0:0:0:
192,192,85684,1,0,3:0:0:0:
320,192,85844,1,8,3:0:0:0:
448,192,85844,1,0,0:0:0:0:
192,192,86003,1,0,3:0:0:0:
64,192,86003,1,0,0:0:0:0:
448,192,86163,1,0,0:0:0:0:
192,192,86322,1,0,3:0:0:0:
320,192,86402,1,0,3:0:0:0:
192,192,86482,1,0,3:0:0:0:
448,192,86482,1,0,0:0:0:0:
64,192,86641,1,0,3:0:0:0:
320,192,86641,1,0,0:0:0:0:
448,192,86800,1,0,0:0:0:0:
64,192,86800,1,8,3:0:0:0:
320,192,86960,1,0,0:0:0:0:
192,192,86960,1,0,3:0:0:0:
448,192,87119,1,0,0:0:0:0:
320,192,87119,1,8,3:0:0:0:
64,192,87279,1,0,0:0:0:0:
192,192,87279,1,8,3:0:0:0:
448,192,87438,1,0,0:0:0:0:
320,192,87438,1,8,3:0:0:0:
64,192,87597,1,0,3:0:0:0:
192,192,87597,1,4,3:0:0:0:
448,192,87597,1,0,0:0:0:0:
192,192,87757,1,0,0:0:0:0:
320,192,87916,1,0,3:0:0:0:
192,192,87996,1,0,3:0:0:0:
64,192,88076,1,0,3:0:0:0:
448,192,88076,1,0,0:0:0:0:
192,192,88235,1,0,3:0:0:0:
448,192,88235,1,0,0:0:0:0:
320,192,88394,1,8,3:0:0:0:
64,192,88394,1,0,0:0:0:0:
448,192,88554,1,0,0:0:0:0:
320,192,88554,1,0,3:0:0:0:
192,192,88713,1,0,3:0:0:0:
448,192,88873,1,4,3:0:0:0:
192,192,88873,1,0,3:0:0:0:
64,192,88873,1,0,0:0:0:0:
320,192,89032,1,0,0:0:0:0:
448,192,89191,1,0,0:0:0:0:
192,192,89191,1,8,3:0:0:0:
192,192,89351,1,8,3:0:0:0:
64,192,89351,1,0,0:0:0:0:
448,192,89510,1,0,0:0:0:0:
320,192,89510,1,8,3:0:0:0:
192,192,89670,1,8,3:0:0:0:
64,192,89670,1,0,0:0:0:0:
320,192,89829,1,8,3:0:0:0:
192,192,89829,1,0,0:0:0:0:
448,192,89988,1,8,3:0:0:0:
320,192,90068,1,8,3:0:0:0:
64,192,90148,1,8,3:0:0:0:
192,192,90228,1,8,3:0:0:0:
448,192,90307,1,4,3:0:0:0:
320,192,90307,1,8,3:0:0:0:
64,192,90307,1,0,0:0:0:0:
192,192,90467,1,0,0:0:0:0:
320,192,90467,1,0,3:0:0:0:
64,192,90626,1,0,3:0:0:0:
448,192,90626,1,0,0:0:0:0:
448,192,90785,1,4,3:0:0:0:
64,192,90785,1,0,0:0:0:0:
192,192,90785,1,8,3:0:0:0:
320,192,90945,1,0,0:0:0:0:
192,192,90945,1,0,3:0:0:0:
448,192,91104,1,0,0:0:0:0:
320,192,91104,1,0,3:0:0:0:
64,192,91264,1,0,0:0:0:0:
192,192,91264,1,8,3:0:0:0:
448,192,91264,1,4,3:0:0:0:
320,192,91423,1,8,3:0:0:0:
64,192,91423,128,4,93017:3:0:0:0:
192,192,91423,128,0,91901:0:0:0:0:
