osu file format v14

[General]
AudioFilename: nao - Dimension tripper!!!!.mp3
AudioLeadIn: 0
PreviewTime: 59064
Countdown: 0
SampleSet: Soft
StackLeniency: 0.7
Mode: 3
LetterboxInBreaks: 0
SpecialStyle: 0
WidescreenStoryboard: 0

[Editor]
DistanceSpacing: 1.1
BeatDivisor: 4
GridSize: 4
TimelineZoom: 1

[Metadata]
Title:Dimension tripper!!!!
TitleUnicode:Dimension tripper!!!!
Artist:nao
ArtistUnicode:nao
Creator:Feerum
Version:EZ 'Black Heart'
Source:超次元ゲイム ネプテューヌ
Tags:5pb Hyperdimension Neptunia: The Animation Choujigen Game Neptune op opening compile heart -_Bad_Apple_- Critical_Star
BeatmapID:869920
BeatmapSetID:399702

[Difficulty]
HPDrainRate:6
CircleSize:4
OverallDifficulty:6.5
ApproachRate:5
SliderMultiplier:1.4
SliderTickRate:1

[Events]
//Background and Video events
0,0,"BG.jpg",0,0
//Break Periods
//Storyboard Layer 0 (Background)
//Storyboard Layer 1 (Fail)
//Storyboard Layer 2 (Pass)
//Storyboard Layer 3 (Foreground)
//Storyboard Sound Samples
Sample,50137,0,"Bell.wav",40

[TimingPoints]
1041,318.809776833156,4,2,1,40,1,0
59542,-100,4,2,1,40,0,1
80105,-100,4,2,1,40,0,0

[HitObjects]
448,192,1041,5,0,0:0:0:0:
64,192,1678,1,0,0:0:0:0:
320,192,1997,1,0,0:0:0:0:
192,192,2156,1,0,0:0:0:0:
64,192,2475,1,0,0:0:0:0:
448,192,2794,1,0,0:0:0:0:
320,192,2953,1,0,0:0:0:0:
192,192,3272,1,0,0:0:0:0:
448,192,3591,1,0,0:0:0:0:
64,192,3750,1,0,0:0:0:0:
192,192,3910,1,0,0:0:0:0:
320,192,4229,1,0,0:0:0:0:
64,192,4547,1,0,0:0:0:0:
448,192,4707,1,0,0:0:0:0:
320,192,5026,1,0,0:0:0:0:
192,192,5185,1,0,0:0:0:0:
448,192,5504,1,8,3:0:0:0:
64,192,5663,1,8,3:0:0:0:
192,192,5823,1,8,3:0:0:0:
448,192,5982,128,4,6301:3:0:0:0:
64,192,6301,1,0,3:0:0:0:
320,192,6460,1,8,3:0:0:0:
192,192,6779,1,0,3:0:0:0:
320,192,7098,1,8,3:0:0:0:
448,192,7417,1,0,3:0:0:0:
192,192,7576,1,0,3:0:0:0:
64,192,7895,1,0,3:0:0:0:
320,192,8214,1,0,3:0:0:0:
192,192,8533,128,4,8851:3:0:0:0:
320,192,8851,1,0,3:0:0:0:
64,192,9011,1,8,3:0:0:0:
192,192,9330,1,0,3:0:0:0:
448,192,9648,1,8,3:0:0:0:
320,192,9967,1,0,3:0:0:0:
64,192,10127,1,0,3:0:0:0:
192,192,10445,1,0,3:0:0:0:
448,192,10764,1,8,3:0:0:0:
320,192,11083,128,4,11402:3:0:0:0:
192,192,11402,1,0,3:0:0:0:
448,192,11561,1,0,3:0:0:0:
64,192,11880,1,8,3:0:0:0:
320,192,12039,1,0,3:0:0:0:
64,192,12358,128,0,12677:3:0:0:0:
320,192,12677,1,0,3:0:0:0:
192,192,12836,1,8,3:0:0:0:
448,192,12996,1,0,3:0:0:0:
64,192,13155,1,8,3:0:0:0:
320,192,13315,1,8,3:0:0:0:
192,192,13474,1,8,3:0:0:0:
448,192,13633,128,4,13952:3:0:0:0:
192,192,13952,1,0,3:0:0:0:
320,192,14112,1,0,3:0:0:0:
64,192,14431,1,8,3:0:0:0:
448,192,14590,1,0,3:0:0:0:
192,192,14909,128,0,15228:3:0:0:0:
448,192,15228,1,0,3:0:0:0:
64,192,15387,1,8,3:0:0:0:
192,192,15706,1,8,3:0:0:0:
448,192,15865,1,8,3:0:0:0:
320,192,16025,1,8,3:0:0:0:
64,192,16184,128,4,16503:3:0:0:0:
320,192,16503,1,0,3:0:0:0:
192,192,16662,1,8,3:0:0:0:
448,192,16981,1,0,3:0:0:0:
192,192,17300,1,8,3:0:0:0:
64,192,17619,1,0,3:0:0:0:
320,192,17778,1,0,3:0:0:0:
448,192,18097,1,0,3:0:0:0:
192,192,18416,1,0,3:0:0:0:
320,192,18734,128,4,19053:3:0:0:0:
192,192,19053,1,0,3:0:0:0:
448,192,19213,1,8,3:0:0:0:
320,192,19531,1,0,3:0:0:0:
64,192,19850,1,8,3:0:0:0:
448,192,20169,1,0,3:0:0:0:
192,192,20328,1,0,3:0:0:0:
320,192,20647,1,0,3:0:0:0:
64,192,20966,1,8,3:0:0:0:
448,192,21285,128,4,21604:3:0:0:0:
192,192,21604,1,0,3:0:0:0:
320,192,21763,1,0,3:0:0:0:
64,192,22082,1,8,3:0:0:0:
448,192,22241,1,0,3:0:0:0:
320,192,22560,128,0,22879:3:0:0:0:
64,192,22879,1,0,3:0:0:0:
448,192,23038,1,8,3:0:0:0:
192,192,23198,1,0,3:0:0:0:
448,192,23357,1,8,3:0:0:0:
320,192,23517,1,8,3:0:0:0:
64,192,23676,1,8,3:0:0:0:
192,192,23835,128,4,24154:3:0:0:0:
320,192,24154,1,0,3:0:0:0:
448,192,24314,1,0,3:0:0:0:
320,192,24632,1,8,3:0:0:0:
192,192,24792,1,0,3:0:0:0:
64,192,25111,128,0,25429:3:0:0:0:
192,192,25429,1,0,3:0:0:0:
448,192,25589,1,8,3:0:0:0:
320,192,25908,1,8,3:0:0:0:
64,192,26067,1,8,3:0:0:0:
448,192,26226,1,8,3:0:0:0:
192,192,26386,128,4,26705:3:0:0:0:
320,192,26705,1,0,3:0:0:0:
64,192,26864,1,0,3:0:0:0:
448,192,27183,1,8,3:0:0:0:
64,192,27342,1,0,3:0:0:0:
320,192,27502,1,0,0:0:0:0:
192,192,27661,128,0,28618:3:0:0:0:
320,192,28618,128,0,29096:3:0:0:0:
448,192,29096,1,4,3:0:0:0:
192,192,29415,1,0,3:0:0:0:
320,192,29733,1,0,3:0:0:0:
64,192,30052,1,0,3:0:0:0:
192,192,30371,1,0,3:0:0:0:
448,192,30690,1,0,3:0:0:0:
320,192,31009,1,0,3:0:0:0:
64,192,31327,1,0,3:0:0:0:
448,192,31646,1,0,3:0:0:0:
320,192,31965,1,0,3:0:0:0:
192,192,32284,1,0,3:0:0:0:
64,192,32603,1,0,3:0:0:0:
320,192,32921,1,0,3:0:0:0:
448,192,33240,1,0,3:0:0:0:
64,192,33559,1,0,3:0:0:0:
192,192,33878,1,0,3:0:0:0:
448,192,34197,1,0,3:0:0:0:
64,192,34516,1,0,3:0:0:0:
320,192,34834,1,0,3:0:0:0:
192,192,35153,1,0,3:0:0:0:
448,192,35472,1,0,3:0:0:0:
320,192,35791,1,0,3:0:0:0:
64,192,36110,1,0,3:0:0:0:
448,192,36428,1,0,3:0:0:0:
192,192,36747,1,0,3:0:0:0:
320,192,36907,1,0,3:0:0:0:
64,192,37066,1,8,3:0:0:0:
448,192,37225,128,0,38022:3:0:0:0:
64,192,38022,1,0,3:0:0:0:
64,192,38182,1,0,3:0:0:0:
320,192,38341,1,12,3:0:0:0:
448,192,38660,1,0,3:0:0:0:
448,192,38819,1,0,3:0:0:0:
192,192,38979,1,12,3:0:0:0:
320,192,39298,1,4,3:0:0:0:
64,192,39616,1,8,3:0:0:0:
448,192,39935,1,0,3:0:0:0:
320,192,40254,1,8,3:0:0:0:
192,192,40414,1,0,3:0:0:0:
320,192,40732,1,0,3:0:0:0:
448,192,40892,1,8,3:0:0:0:
192,192,41211,1,0,3:0:0:0:
64,192,41529,1,8,3:0:0:0:
320,192,41848,1,0,3:0:0:0:
448,192,42167,1,8,3:0:0:0:
192,192,42486,1,0,3:0:0:0:
320,192,42805,1,8,3:0:0:0:
192,192,42964,1,0,3:0:0:0:
64,192,43283,1,0,3:0:0:0:
448,192,43442,1,8,3:0:0:0:
320,192,43761,1,8,3:0:0:0:
192,192,43920,1,8,3:0:0:0:
64,192,44239,128,4,45355:3:0:0:0:
320,192,44717,1,8,3:0:0:0:
320,192,45355,1,8,3:0:0:0:
448,192,45514,128,4,46630:3:0:0:0:
192,192,45993,1,8,3:0:0:0:
192,192,46630,1,8,3:0:0:0:
64,192,46790,128,4,47906:3:0:0:0:
320,192,47268,1,8,3:0:0:0:
448,192,47906,1,8,3:0:0:0:
192,192,48224,1,12,3:0:0:0:
192,192,48384,1,0,3:0:0:0:
320,192,48703,1,12,3:0:0:0:
192,192,49021,128,12,49500:3:0:0:0:
448,192,49500,1,4,3:0:0:0:
320,192,49818,1,8,3:0:0:0:
192,192,50137,1,8,3:0:0:0:
64,192,50615,1,4,3:0:0:0:
320,192,50934,1,0,3:0:0:0:
192,192,51253,128,4,51572:3:0:0:0:
448,192,51572,1,8,3:0:0:0:
320,192,51731,1,8,3:0:0:0:
64,192,51891,128,4,52209:3:0:0:0:
192,192,52369,1,8,3:0:0:0:
448,192,52688,1,0,3:0:0:0:
64,192,53006,1,8,3:0:0:0:
320,192,53166,128,0,53644:3:0:0:0:
192,192,53644,1,8,3:0:0:0:
448,192,53963,1,0,3:0:0:0:
64,192,54282,1,8,3:0:0:0:
320,192,54601,1,4,3:0:0:0:
448,192,54919,128,0,55238:3:0:0:0:
192,192,55238,128,8,55557:3:0:0:0:
64,192,55557,1,0,3:0:0:0:
320,192,55716,1,8,3:0:0:0:
192,192,56035,1,8,3:0:0:0:
448,192,56195,1,0,3:0:0:0:
320,192,56513,1,8,3:0:0:0:
192,192,56673,1,8,3:0:0:0:
64,192,56992,128,4,58426:3:0:0:0:
448,192,58426,1,12,3:0:0:0:
192,192,58586,1,12,3:0:0:0:
320,192,58745,1,12,3:0:0:0:
64,192,59064,1,8,3:0:0:0:
448,192,59223,1,0,3:0:0:0:
320,192,59542,128,0,60339:0:0:0:40:Bell.wav
192,192,59542,1,4,3:0:0:0:
64,192,60339,1,0,3:0:0:0:
192,192,60658,1,8,3:0:0:0:
448,192,60817,128,0,61614:0:0:0:40:Bell.wav
320,192,61614,1,0,3:0:0:0:
64,192,61933,1,8,3:0:0:0:
192,192,62093,128,0,62571:0:0:0:40:Bell.wav
448,192,62571,1,8,3:0:0:0:
320,192,62890,1,0,3:0:0:0:
192,192,63049,1,0,3:0:0:0:
64,192,63368,128,0,63846:0:0:0:55:Bell.wav
320,192,63846,1,8,3:0:0:0:
448,192,64324,1,8,3:0:0:0:
320,192,64484,1,8,3:0:0:0:
192,192,64643,128,0,64962:0:0:0:40:Bell.wav
448,192,64962,1,0,3:0:0:0:
64,192,65121,1,8,3:0:0:0:
192,192,65440,1,0,3:0:0:0:
320,192,65599,1,0,3:0:0:0:
192,192,65759,1,8,3:0:0:0:
448,192,65918,128,0,66237:3:0:0:40:Bell.wav
320,192,66237,1,0,3:0:0:0:
64,192,66397,1,8,3:0:0:0:
192,192,66715,1,0,3:0:0:0:
320,192,66875,1,0,3:0:0:0:
448,192,67034,1,8,3:0:0:0:
64,192,67194,128,0,68469:3:0:0:40:Bell.wav
448,192,68469,1,0,3:0:0:40:Bell.wav
320,192,68788,1,0,3:0:0:0:
192,192,68947,1,8,3:0:0:0:
64,192,69106,1,0,3:0:0:0:
320,192,69266,1,0,0:0:0:40:Bell.wav
448,192,69425,1,8,3:0:0:0:
192,192,69585,1,8,3:0:0:0:
320,192,69744,128,0,70860:0:0:0:40:Bell.wav
64,192,70860,1,0,0:0:0:40:Bell.wav
192,192,71019,128,0,71816:0:0:0:40:Bell.wav
64,192,71816,1,0,3:0:0:0:
320,192,72135,1,0,3:0:0:40:Bell.wav
448,192,72294,128,0,72773:0:0:0:40:Bell.wav
64,192,72773,1,8,3:0:0:0:
320,192,73092,1,0,3:0:0:0:
192,192,73251,1,0,3:0:0:0:
448,192,73570,1,0,0:0:0:40:Bell.wav
64,192,73889,1,0,3:0:0:0:
320,192,74048,1,8,3:0:0:0:
64,192,74526,1,0,3:0:0:0:
192,192,74686,1,0,3:0:0:0:
320,192,74845,128,0,75164:0:0:0:40:Bell.wav
448,192,75164,1,0,3:0:0:0:
64,192,75323,1,8,3:0:0:0:
192,192,75642,1,0,3:0:0:0:
448,192,75801,1,0,3:0:0:0:
64,192,76120,128,0,76598:3:0:0:40:Bell.wav
320,192,76598,1,8,3:0:0:0:
192,192,76917,1,8,3:0:0:0:
64,192,77077,1,0,3:0:0:0:
448,192,77236,1,8,3:0:0:0:
320,192,77395,128,0,77874:0:0:0:40:Bell.wav
192,192,77874,1,8,3:0:0:0:
64,192,78192,1,8,3:0:0:0:
448,192,78671,1,0,0:0:0:40:Bell.wav
64,192,78989,1,0,0:0:0:0:
192,192,79149,1,0,0:0:0:0:
448,192,79308,1,0,0:0:0:0:
320,192,79468,1,8,3:0:0:0:
192,192,79627,1,0,3:0:0:0:
448,192,79946,128,4,80265:3:0:0:0:
64,192,80265,1,0,3:0:0:0:
320,192,80424,1,8,3:0:0:0:
192,192,80743,1,0,3:0:0:0:
448,192,81062,1,8,3:0:0:0:
320,192,81381,1,0,3:0:0:0:
192,192,81540,1,0,3:0:0:0:
64,192,81859,1,0,3:0:0:0:
320,192,82178,1,0,3:0:0:0:
192,192,82496,128,4,82815:3:0:0:0:
320,192,82815,1,0,3:0:0:0:
64,192,82975,1,8,3:0:0:0:
192,192,83293,1,0,3:0:0:0:
448,192,83612,1,8,3:0:0:0:
320,192,83931,1,0,3:0:0:0:
192,192,84090,1,0,3:0:0:0:
64,192,84409,1,0,3:0:0:0:
448,192,84728,1,8,3:0:0:0:
320,192,85047,128,4,85366:3:0:0:0:
192,192,85366,1,0,3:0:0:0:
448,192,85525,1,0,3:0:0:0:
320,192,85844,1,8,3:0:0:0:
192,192,86003,1,0,3:0:0:0:
64,192,86322,128,0,86641:3:0:0:0:
320,192,86641,1,0,3:0:0:0:
192,192,86800,1,8,3:0:0:0:
448,192,86960,1,0,3:0:0:0:
64,192,87119,1,8,3:0:0:0:
320,192,87279,1,8,3:0:0:0:
192,192,87438,1,8,3:0:0:0:
448,192,87597,128,4,87916:3:0:0:0:
192,192,87916,1,0,3:0:0:0:
320,192,88076,1,0,3:0:0:0:
64,192,88394,1,8,3:0:0:0:
448,192,88554,1,0,3:0:0:0:
192,192,88873,128,4,89191:3:0:0:0:
448,192,89191,1,8,3:0:0:0:
64,192,89351,1,8,3:0:0:0:
192,192,89670,1,8,3:0:0:0:
448,192,89829,1,8,3:0:0:0:
320,192,89988,1,8,3:0:0:0:
64,192,90148,1,8,3:0:0:0:
448,192,90307,128,4,90467:3:0:0:0:
192,192,90467,1,0,3:0:0:0:
320,192,90626,1,0,3:0:0:0:
64,192,90785,128,4,90945:3:0:0:0:
448,192,90945,1,0,3:0:0:0:
192,192,91104,1,0,3:0:0:0:
320,192,91264,128,8,91423:3:0:0:0:
192,192,91423,128,4,93017:3:0:0:0:
