osu file format v14

[General]
AudioFilename: audio.mp3
AudioLeadIn: 0
PreviewTime:58945
Countdown: 0
SampleSet: Soft
StackLeniency: 0.7
Mode: 0
LetterboxInBreaks: 0
WidescreenStoryboard: 1

[Editor]
DistanceSpacing: 1.1
BeatDivisor: 4
GridSize: 8
TimelineZoom: 1.4

[Metadata]
Title:Dimension Tripper!!!! (TV Size)
TitleUnicode:Dimension Tripper!!!! (TV Size)
Artist:nao
ArtistUnicode:nao
Creator:Usaha
Version:Normal
Source:超次元ゲイム ネプテューヌ
Tags:choujigen game neptune the animation hyperdimension neptunia op opening japanese pop jpop anime yogurtt karia lolia no_gu skystar eggache0 fushimi rio cryo[iceeicee] kusano amamiya yuko fizz elchxyrlia arles arlequin91 lahphnya jelly_master typewriter00 nana abe
BeatmapID:3042753
BeatmapSetID:1481341

[Difficulty]
HPDrainRate:4
CircleSize:3.2
OverallDifficulty:4
ApproachRate:6
SliderMultiplier:0.999999999999999
SliderTickRate:1

[Events]
//Background and Video events
0,0,"me surrounded by my mentees.jpg",0,0
//Break Periods
2,29462,36063
//Storyboard Layer 0 (Background)
//Storyboard Layer 1 (Fail)
//Storyboard Layer 2 (Pass)
//Storyboard Layer 3 (Foreground)
//Storyboard Layer 4 (Overlay)
//Storyboard Sound Samples

[TimingPoints]
1088,318.809776833156,4,2,1,80,1,0
5551,-100,4,2,1,80,0,0
7862,-100,4,2,1,80,0,0
7942,-100,4,2,1,80,0,0
10413,-100,4,2,1,80,0,0
10492,-100,4,2,1,80,0,0
16231,-100,4,2,1,80,0,0
27708,-100,4,2,1,80,0,0
29462,-100,4,2,1,65,0,0
29940,-111.111111111111,4,2,1,65,0,0
37113,-111.111111111111,4,2,1,65,0,0
37591,-111.111111111111,4,2,1,65,0,0
37750,-111.111111111111,4,2,1,65,0,0
39345,-111.111111111111,4,2,1,72,0,0
56241,-111.111111111111,4,2,1,72,0,0
56560,-111.111111111111,4,2,1,72,0,0
57039,-111.111111111111,4,2,1,80,0,0
59589,-90.9090909090909,4,2,1,80,0,1
74892,-90.9090909090909,4,2,1,80,0,1
75211,-90.9090909090909,4,2,1,80,0,1
78718,-100,4,2,1,80,0,0
79993,-100,4,2,1,80,0,0
92905,-100,4,2,1,5,0,0

[Colours]
Combo1 : 250,180,240
Combo2 : 120,200,230
Combo3 : 255,175,96
Combo4 : 128,128,255

[HitObjects]
92,274,5551,6,0,L|81:210,2,50,8|8|8,2:0|2:0|2:0,0:0:0:0:
95,304,6029,2,0,P|141:301|170:208,1,150,4|8,1:2|0:0,0:0:0:0:
93,164,6826,1,0,1:0:0:0:
93,164,6985,2,0,P|67:122|76:74,1,99.9999999999999,0|0,1:0|2:0,0:0:0:0:
109,48,7464,5,2,1:2:0:0:
109,48,7623,1,0,1:2:0:0:
195,112,7942,1,2,2:0:0:0:
277,39,8261,1,0,1:0:0:0:
341,127,8579,6,0,P|350:189|355:246,1,99.9999999999999,6|0,1:2|1:0,2:0:0:0:
325,252,9058,1,10,2:0:0:0:
219,188,9376,2,0,L|230:125,2,50,0|0|10,1:0|1:0|2:0,0:0:0:0:
129,250,10014,1,2,1:2:0:0:
129,250,10173,2,1,P|85:217|91:172,1,99.9999999999999,0|2,1:0|2:0,0:0:0:0:
166,98,10811,1,0,1:0:0:0:
65,53,11130,6,0,B|31:98|31:98|50:197,1,150,6|2,1:2|1:2,2:0:0:0:
136,264,11927,1,10,2:0:0:0:
136,264,12086,1,2,2:0:0:0:
84,361,12405,2,0,P|134:309|206:317,1,150,2|2,1:2|1:2,0:0:0:0:
311,350,13202,2,0,L|379:327,2,50,8|4|8,2:0|2:3|2:3,0:0:0:0:
290,307,13680,6,0,L|256:147,1,150,6|2,1:2|1:2,2:0:0:0:
330,82,14477,1,10,2:0:0:0:
330,82,14637,1,2,1:2:0:0:
390,173,14956,2,1,P|461:168|515:225,1,150,2|10,1:2|2:0,0:0:0:0:
402,302,15753,2,0,L|381:257,2,50,10|8|8,2:0|2:0|2:0,0:0:0:0:
380,341,16231,6,0,P|318:323|269:322,1,99.9999999999999,6|0,1:2|1:0,2:0:0:0:
227,326,16709,1,10,2:0:0:0:
123,362,17028,1,0,1:0:0:0:
123,362,17187,2,0,P|97:320|106:272,1,99.9999999999999,0|0,1:0|2:0,0:0:0:0:
152,241,17666,5,2,1:2:0:0:
152,241,17825,1,0,1:2:0:0:
218,153,18144,1,2,2:0:0:0:
128,89,18463,1,0,1:0:0:0:
69,181,18781,6,0,P|131:172|188:167,1,99.9999999999999,6|0,1:2|1:0,2:0:0:0:
223,175,19260,1,10,2:0:0:0:
311,110,19578,2,0,L|322:47,2,50,0|0|10,1:0|1:0|2:0,0:0:0:0:
399,185,20216,1,2,1:2:0:0:
399,185,20375,2,1,P|443:152|437:107,1,99.9999999999999,0|2,1:0|2:0,0:0:0:0:
330,95,21013,1,0,1:0:0:0:
228,51,21332,6,0,B|194:96|194:96|213:195,1,150,6|2,1:2|1:2,2:0:0:0:
296,258,22129,1,10,2:0:0:0:
296,258,22288,1,2,2:0:0:0:
201,314,22607,2,0,P|144:326|76:261,1,150,2|2,1:2|1:2,0:0:0:0:
68,160,23404,2,0,L|45:92,2,50,8|4|8,2:0|2:3|2:3,0:0:0:0:
114,189,23882,6,0,P|163:142|151:54,1,150,6|2,1:2|1:2,2:0:0:0:
261,103,24679,1,10,2:0:0:0:
261,103,24839,1,2,1:2:0:0:
356,48,25158,2,1,P|412:37|481:100,1,150,2|10,1:2|2:0,0:0:0:0:
487,202,25955,2,0,L|510:272,2,50,10|8|8,2:0|2:0|2:0,0:0:0:0:
431,199,26433,1,4,1:2:0:0:
321,185,26752,5,0,0:0:0:0:
321,185,26911,2,1,L|313:304,1,99.9999999999999,2|8,0:0|0:0,0:0:0:0:
268,317,27389,1,0,1:0:0:0:
256,192,27708,12,4,29143,2:0:0:0:
308,322,37113,5,0,1:0:0:0:
389,265,37432,2,1,L|411:200,2,44.999998626709,8|8|8,0:0|2:0|2:0,0:0:0:0:
423,301,37910,1,8,2:3:0:0:
423,301,38069,2,1,P|475:276|481:208,1,89.999997253418,0|12,1:0|2:0,0:0:0:0:
455,154,38707,2,1,P|403:179|397:247,1,89.999997253418,0|12,1:0|2:0,0:0:0:0:
309,263,39345,6,0,L|191:242,2,89.999997253418,4|10|0,1:2|2:0|1:0,2:0:0:0:
331,307,40142,1,2,1:2:0:0:
242,351,40461,2,0,P|189:348|150:320,1,89.999997253418,2|0,2:0|0:0,0:0:0:0:
124,292,40939,1,8,2:0:0:0:
193,160,41417,2,1,P|255:172|320:176,1,89.999997253418,2|2,1:2|2:0,0:0:0:0:
328,158,41895,5,0,1:0:0:0:
328,158,42055,2,0,P|374:123|368:75,1,89.999997253418,0|2,1:0|2:0,0:0:0:0:
288,47,42692,2,0,P|242:82|248:130,2,89.999997253418,0|2|0,1:0|1:2|1:0,0:0:0:0:
337,50,43489,2,0,L|440:66,1,89.999997253418,8|8,2:0|2:0,0:0:0:0:
474,72,43967,1,8,2:0:0:0:
430,161,44286,6,0,B|397:180|397:180|345:171,1,89.999997253418,6|0,1:2|1:0,2:0:0:0:
297,160,44764,1,10,2:0:0:0:
243,243,45083,1,0,1:0:0:0:
243,243,45243,2,0,P|230:296|241:338,1,89.999997253418,2|6,1:2|1:2,0:0:0:0:
333,369,45880,1,0,1:0:0:0:
333,369,46040,2,1,P|346:316|335:274,2,89.999997253418,10|0|8,2:0|1:0|2:0,0:0:0:0:
283,377,46837,6,0,B|240:356|240:356|174:365,1,89.999997253418,6|0,1:2|1:0,2:0:0:0:
149,371,47315,1,10,2:0:0:0:
172,274,47634,1,0,1:0:0:0:
193,177,47953,1,8,2:0:0:0:
217,81,48271,5,12,2:0:0:0:
217,81,48431,1,8,2:0:0:0:
281,155,48750,1,8,2:0:0:0:
197,207,49068,2,1,P|129:169|122:98,1,134.999995880127,0|12,1:0|2:0,0:0:0:0:
50,207,49865,5,10,2:0:0:0:
100,292,50184,2,0,P|98:320|83:354,2,44.999998626709,8|4|8,2:0|2:3|2:3,0:0:0:0:
55,269,50662,1,6,1:2:0:0:
143,224,50981,1,0,1:2:0:0:
184,133,51300,2,0,P|162:94|173:52,1,89.999997253418,0|10,1:0|2:0,0:0:0:0:
217,29,51778,1,8,2:0:0:0:
217,29,51938,6,0,L|336:24,1,89.999997253418,6|0,1:2|1:0,2:0:0:0:
355,22,52416,1,10,2:0:0:0:
409,120,52735,2,0,L|290:125,1,89.999997253418,0|8,1:0|2:0,0:0:0:0:
269,126,53213,2,0,P|235:171|254:247,1,134.999995880127,6|8,1:2|2:0,0:0:0:0:
201,329,54010,2,0,P|192:351|167:378,1,44.999998626709,0|0,1:0|1:0,0:0:0:0:
130,378,54329,2,0,P|107:370|79:346,1,44.999998626709,8|8,2:0|2:0,0:0:0:0:
57,320,54648,6,0,L|21:198,1,89.999997253418,4|0,1:2|2:0,2:0:0:0:
90,154,55285,1,10,2:0:0:0:
32,73,55604,1,0,2:0:0:0:
32,73,55763,2,0,B|57:32|57:32|152:19,1,134.999995880127,0|0,1:0|0:0,0:0:0:0:
238,47,56560,2,0,L|247:103,1,44.999998626709,12|0,2:0|1:0,0:0:0:0:
255,139,56879,1,8,2:0:0:0:
255,139,57039,6,0,P|308:163|389:140,1,134.999995880127,6|8,1:2|2:0,2:0:0:0:
417,113,57676,1,0,1:0:0:0:
417,113,57836,2,0,L|445:277,1,134.999995880127,8|0,2:0|1:0,0:0:0:0:
454,303,58473,1,8,2:0:0:0:
454,303,58633,1,8,2:0:0:0:
454,303,58792,1,12,2:0:0:0:
111,205,59589,6,0,L|94:74,2,110.000003356934,6|0|0,1:2|1:0|2:0,2:0:0:0:
148,253,60386,1,0,1:0:0:0:
83,355,60705,1,10,2:0:0:0:
83,355,60864,2,0,P|135:323|210:350,1,110.000003356934,6|0,1:2|1:0,2:0:0:0:
231,363,61343,1,8,2:0:0:0:
329,292,61661,2,0,L|344:226,1,55.0000016784668,0|0,1:0|1:0,0:0:0:0:
363,184,61980,1,10,2:0:0:0:
363,184,62140,6,0,P|424:199|472:108,1,165.0000050354,6|10,1:2|2:0,2:0:0:0:
401,35,62937,1,0,1:0:0:0:
401,35,63096,1,2,1:2:0:0:
298,104,63415,2,0,B|251:133|251:133|186:120,1,110.000003356934,6|0,1:2|1:0,0:0:0:0:
139,102,63893,1,10,2:0:0:0:
20,244,64371,2,0,L|35:314,1,55.0000016784668,0|10,1:0|2:0,0:0:0:0:
72,342,64690,6,0,P|122:323|126:247,1,110.000003356934,6|0,1:2|1:0,2:0:0:0:
112,216,65168,1,8,2:0:0:0:
223,262,65487,1,2,1:2:0:0:
223,262,65646,1,2,1:2:0:0:
317,185,65965,2,0,P|379:166|449:238,1,165.0000050354,6|10,1:2|2:0,2:0:0:0:
441,278,66603,2,0,L|423:348,1,55.0000016784668,0|2,2:0|1:2,0:0:0:0:
397,373,66922,1,2,1:2:0:0:
301,299,67241,6,0,P|293:243|296:186,1,110.000003356934,6|0,1:2|1:0,0:0:0:0:
333,141,67719,1,8,2:0:0:0:
247,54,68038,2,0,L|154:38,1,55.0000016784668,0|0,1:0|1:0,0:0:0:0:
132,38,68356,1,8,2:0:0:0:
132,38,68516,2,0,B|120:94|120:94|153:217,1,165.0000050354,4|8,1:2|2:0,2:0:0:0:
262,238,69313,1,10,2:0:0:0:
262,238,69472,1,10,2:0:0:0:
192,340,69791,6,0,L|61:357,2,110.000003356934,6|0|0,1:2|1:0|1:2,2:0:0:0:
251,329,70588,1,0,1:0:0:0:
370,369,70907,1,10,2:0:0:0:
370,369,71066,2,0,P|402:317|375:242,1,110.000003356934,6|0,1:2|1:0,2:0:0:0:
362,221,71545,1,8,2:0:0:0:
275,137,71863,2,0,P|278:109|290:71,1,55.0000016784668,0|0,1:0|1:0,0:0:0:0:
340,58,72182,1,10,2:0:0:0:
340,58,72342,6,0,P|427:69|515:88,1,165.0000050354,6|10,1:2|2:0,2:0:0:0:
503,210,73139,1,0,1:0:0:0:
503,210,73298,1,2,1:2:0:0:
405,281,73617,2,0,B|361:248|361:248|295:257,1,110.000003356934,6|2,1:2|2:0,0:0:0:0:
264,298,74095,1,10,2:0:0:0:
84,195,74573,2,0,L|150:168,1,55.0000016784668,8|8,2:0|2:0,0:0:0:0:
194,183,74892,6,1,P|206:235|145:280,1,110.000003356934,6|0,1:2|1:0,2:0:0:0:
114,293,75370,1,10,2:0:0:0:
9,242,75689,1,10,2:0:0:0:
9,242,75848,1,0,1:0:0:0:
94,156,76167,2,0,P|116:93|52:14,1,165.0000050354,2|8,1:2|2:0,0:0:0:0:
175,106,76964,1,8,2:0:0:0:
175,106,77124,2,0,P|203:111|242:115,1,55.0000016784668,0|8,1:0|0:0,0:0:0:0:
288,101,77443,6,0,P|280:157|283:214,1,110.000003356934,6|0,2:0|1:2,0:0:0:0:
312,262,77921,1,10,1:2:0:0:
206,356,78239,2,0,L|140:346,2,55.0000016784668,10|0|8,1:2|1:2|2:0,0:0:0:0:
251,361,78718,2,1,C|284:344|322:366|364:344|402:361|442:341|474:353,1,250,6|8,1:2|2:0,2:0:0:0:
506,318,79674,1,10,2:0:0:0:
416,237,79993,6,0,P|354:219|305:218,1,99.9999999999999,6|0,1:2|1:0,2:0:0:0:
271,246,80471,1,10,2:0:0:0:
193,193,80790,1,0,1:0:0:0:
193,193,80949,2,0,P|167:151|176:103,1,99.9999999999999,0|0,1:0|2:0,0:0:0:0:
229,81,81428,5,2,1:2:0:0:
229,81,81587,1,0,1:2:0:0:
132,28,81906,1,2,2:0:0:0:
59,110,82225,1,0,1:0:0:0:
0,21,82543,6,0,P|62:30|119:35,1,99.9999999999999,6|0,1:2|1:0,2:0:0:0:
152,18,83022,1,10,2:0:0:0:
220,103,83340,2,0,L|209:166,2,50,0|0|10,1:0|1:0|2:0,0:0:0:0:
314,46,83978,1,2,1:2:0:0:
314,46,84137,2,1,P|347:92|336:147,1,99.9999999999999,0|2,1:0|2:0,0:0:0:0:
314,239,84775,1,8,0:0:0:0:
389,319,85094,6,0,B|344:353|344:353|245:334,1,150,6|2,1:2|1:2,2:0:0:0:
226,233,85891,1,10,2:0:0:0:
226,233,86050,1,2,2:0:0:0:
335,247,86369,2,0,P|392:235|429:149,1,150,2|2,1:2|1:2,0:0:0:0:
401,52,87166,2,0,L|378:-16,2,50,8|4|8,2:0|2:3|2:3,0:0:0:0:
351,77,87644,6,0,L|204:46,1,150,6|2,1:2|1:2,2:0:0:0:
98,39,88441,1,10,2:0:0:0:
98,39,88601,1,2,1:2:0:0:
136,141,88920,2,1,L|232:165,1,99.9999999999999,6|0,1:2|1:0,0:0:0:0:
286,178,89398,2,0,L|346:195,1,50,10|0,2:0|1:0,0:0:0:0:
380,220,89717,2,0,L|415:271,1,50,10|8,2:0|2:0,0:0:0:0:
404,316,90035,1,8,2:0:0:0:
300,352,90354,6,0,P|225:320|161:313,1,99.9999999999999,12|0,2:0|1:0,0:0:0:0:
152,315,90832,2,0,B|130:290|130:290|139:207,1,99.9999999999999,12|0,2:0|1:0,0:0:0:0:
200,211,91311,1,12,2:0:0:0:
200,211,91470,22,0,C|172:81|310:174|279:28,1,450,12|1,2:0|0:0,0:0:0:0:
