osu file format v14

[General]
AudioFilename: audio.mp3
AudioLeadIn: 0
PreviewTime:58945
Countdown: 0
SampleSet: Soft
StackLeniency: 0.7
Mode: 0
LetterboxInBreaks: 0
WidescreenStoryboard: 0

[Editor]
DistanceSpacing: 1.3
BeatDivisor: 4
GridSize: 4
TimelineZoom: 1

[Metadata]
Title:Dimension Tripper!!!! (TV Size)
TitleUnicode:Dimension Tripper!!!! (TV Size)
Artist:nao
ArtistUnicode:nao
Creator:Usaha
Version:Insane
Source:超次元ゲイム ネプテューヌ
Tags:choujigen game neptune the animation hyperdimension neptunia op opening japanese pop jpop anime yogurtt karia lolia no_gu skystar eggache0 fushimi rio cryo[iceeicee] kusano amamiya yuko fizz elchxyrlia arles arlequin91 lahphnya jelly_master typewriter00 nana abe
BeatmapID:3038735
BeatmapSetID:1481341

[Difficulty]
HPDrainRate:5
CircleSize:4
OverallDifficulty:8
ApproachRate:9
SliderMultiplier:1.64
SliderTickRate:1

[Events]
//Background and Video events
0,0,"me surrounded by my mentees.jpg",0,0
//Break Periods
//Storyboard Layer 0 (Background)
//Storyboard Layer 1 (Fail)
//Storyboard Layer 2 (Pass)
//Storyboard Layer 3 (Foreground)
//Storyboard Layer 4 (Overlay)
//Storyboard Sound Samples

[TimingPoints]
1088,318.809776833156,4,2,1,80,1,0
7862,-100,4,2,1,5,0,0
7942,-100,4,2,1,80,0,0
10413,-100,4,2,1,5,0,0
10492,-100,4,2,1,80,0,0
27708,-104.218537757201,4,2,1,80,0,0
29462,-108.182714641082,4,2,1,65,0,0
29940,-111.111111111111,4,2,1,65,0,0
33845,-111.111111111111,4,2,1,65,0,0
33925,-111.111111111111,4,2,1,65,0,0
37671,-111.111111111111,4,2,1,65,0,0
37751,-111.111111111111,4,2,1,65,0,0
39265,-111.111111111111,4,2,1,65,0,0
39345,-111.111111111111,4,2,1,72,0,0
40620,-111.111111111111,4,2,1,72,0,0
40938,-111.111111111111,4,2,1,72,0,0
41098,-111.111111111111,4,2,1,72,0,0
41258,-111.111111111111,4,2,1,72,0,0
41576,-111.111111111111,4,2,1,72,0,0
41736,-111.111111111111,4,2,1,72,0,0
42214,-111.111111111111,4,2,1,72,0,0
42373,-111.111111111111,4,2,1,72,0,0
49786,-111.111111111111,4,2,1,72,0,0
49866,-111.111111111111,4,2,1,72,0,0
50822,-111.111111111111,4,2,1,72,0,0
50982,-111.111111111111,4,2,1,72,0,0
51141,-111.111111111111,4,2,1,72,0,0
51300,-111.111111111111,4,2,1,72,0,0
51460,-111.111111111111,4,2,1,72,0,0
51620,-111.111111111111,4,2,1,72,0,0
54569,-111.111111111111,4,2,1,72,0,0
54648,-111.111111111111,4,2,1,72,0,0
57039,-111.111111111111,4,2,1,80,0,0
59589,-90.9090909090909,4,2,1,80,0,1
74892,-86.3157894736838,4,2,1,80,0,1
75211,-90.9090909090909,4,2,1,80,0,1
78718,-125,4,2,1,80,0,0
79993,-100,4,2,1,80,0,0

[Colours]
Combo1 : 250,180,240
Combo2 : 120,200,230
Combo3 : 255,175,96
Combo4 : 128,128,255

[HitObjects]
59,158,5551,5,8,2:0:0:0:
226,193,5710,1,8,2:0:0:0:
172,50,5870,1,8,2:0:0:0:
90,309,6029,6,0,P|76:261|163:250,1,164,6|0,1:2|1:0,2:0:0:0:
319,377,6507,2,0,P|280:364|252:335,1,82,10|0,2:0|2:0,2:0:0:0:
384,234,6826,1,0,1:0:0:0:
422,371,6985,1,0,1:0:0:0:
249,169,7145,2,0,P|230:205|231:245,1,82,10|0,2:0|2:0,2:0:0:0:
471,126,7464,5,2,1:2:0:0:
333,114,7623,2,0,P|289:101|217:42,1,123,0|0,1:2|2:0,2:0:0:0:
221,34,7942,2,0,L|205:118,1,82,2|0,2:0|1:0,2:0:0:0:
330,206,8261,1,0,1:0:0:0:
374,29,8420,1,8,2:0:0:0:
128,157,8580,6,0,B|65:153|15:111|15:111|7:134|19:154,1,164,6|0,1:2|1:0,2:0:0:0:
183,236,9058,2,0,P|221:224|262:223,1,82,10|0,2:0|2:0,2:0:0:0:
98,322,9377,1,0,1:0:0:0:
69,233,9536,1,0,1:0:0:0:
252,376,9695,2,0,L|266:290,1,82,10|0,2:0|2:0,2:0:0:0:
283,137,10014,5,2,1:2:0:0:
409,330,10174,2,0,P|458:325|435:263,1,123,0|0,1:0|2:0,2:0:0:0:
401,258,10492,2,0,P|351:252|313:231,1,82,2|0,2:0|1:0,2:0:0:0:
470,166,10811,1,8,0:0:0:0:
473,335,10971,1,8,2:0:0:0:
294,169,11130,6,0,B|278:123|278:123|306:0,1,164,6|8,1:2|2:0,2:0:0:0:
380,196,11608,2,0,P|361:240|321:255,1,82,2|0,1:2|2:0,2:0:0:0:
188,76,11927,1,10,2:0:0:0:
188,76,12086,1,2,2:0:0:0:
367,112,12246,1,0,1:0:0:0:
192,215,12405,6,0,P|111:199|30:189,1,164,2|8,1:2|2:0,2:0:0:0:
282,175,12883,2,0,L|306:84,1,82,2|0,1:2|1:0,2:0:0:0:
312,62,13123,1,0,1:0:0:0:
316,51,13202,1,8,2:0:0:0:
350,226,13362,1,4,2:3:0:0:
383,13,13521,1,8,2:3:0:0:
139,122,13680,6,0,P|103:77|179:41,1,164,6|8,1:2|2:0,2:0:0:0:
74,177,14159,2,0,P|39:144|25:96,1,82,2|0,1:2|1:0,2:0:0:0:
216,123,14478,1,10,2:0:0:0:
98,266,14637,2,0,P|49:265|6:240,1,82,2|8,1:2|2:0,2:0:0:0:
248,214,14956,6,0,B|298:202|336:217|371:232|411:225,1,164,2|0,1:2|1:0,2:0:0:0:
493,351,15434,2,0,P|449:338|398:333,1,82,10|0,2:0|1:0,2:0:0:0:
296,361,15753,1,10,2:0:0:0:
340,231,15912,1,8,2:0:0:0:
211,265,16072,1,8,2:0:0:0:
214,28,16231,6,0,L|261:194,1,164,6|0,1:2|1:0,2:0:0:0:
330,70,16709,2,0,P|371:63|413:51,1,82,10|0,2:0|2:0,2:0:0:0:
341,157,17028,1,0,1:0:0:0:
341,157,17187,1,0,1:0:0:0:
139,123,17347,2,0,P|98:129|59:140,1,82,10|0,2:0|2:0,2:0:0:0:
209,32,17666,5,2,1:2:0:0:
138,320,17825,2,0,P|194:263|273:263,1,164,0|2,1:2|2:0,2:0:0:0:
381,325,18303,1,0,1:0:0:0:
282,233,18463,2,0,P|243:222|203:227,1,82,0|8,1:0|2:0,2:0:0:0:
434,262,18781,6,0,P|486:253|474:155,1,164,6|0,1:2|1:0,2:0:0:0:
287,129,19260,2,0,P|250:106|232:63,1,82,10|0,2:0|2:0,2:0:0:0:
400,108,19578,1,0,1:0:0:0:
400,108,19738,1,0,1:0:0:0:
214,180,19897,2,0,P|168:170|127:140,1,82,10|0,2:0|2:0,2:0:0:0:
324,53,20216,5,2,1:2:0:0:
293,331,20375,2,0,P|367:322|362:248,1,164,0|2,1:0|2:0,2:0:0:0:
140,240,20854,1,0,1:0:0:0:
319,187,21013,1,0,1:0:0:0:
222,362,21173,1,8,2:0:0:0:
246,257,21332,6,0,P|228:205|207:82,1,164,6|8,1:2|2:0,2:0:0:0:
308,42,21810,1,2,1:2:0:0:
308,42,21970,1,0,2:0:0:0:
132,119,22129,2,0,P|84:118|41:97,1,82,10|2,2:0|2:0,2:0:0:0:
152,30,22448,1,0,1:0:0:0:
289,129,22607,6,0,P|368:108|448:120,1,164,2|8,1:2|2:0,2:0:0:0:
493,222,23085,2,0,P|498:271|500:315,1,82,2|0,1:2|1:0,2:0:0:0:
499,336,23324,1,0,1:0:0:0:
503,340,23404,1,8,2:0:0:0:
344,297,23564,1,4,2:3:0:0:
451,211,23723,1,8,2:3:0:0:
291,361,23882,6,0,P|243:323|261:216,1,164,6|8,1:2|2:0,2:0:0:0:
169,361,24361,2,0,P|128:373|69:368,1,82,2|0,1:2|1:0,2:0:0:0:
48,367,24600,1,0,2:0:0:0:
30,363,24679,1,10,2:0:0:0:
241,325,24839,2,0,P|282:325|321:337,1,82,2|8,1:2|2:0,2:0:0:0:
145,229,25158,6,0,P|97:191|115:84,1,164,2|0,1:2|1:0,2:0:0:0:
295,196,25636,2,0,L|206:179,1,82,10|0,2:0|1:0,2:0:0:0:
18,225,25955,1,10,2:0:0:0:
184,100,26114,1,8,2:0:0:0:
1,75,26273,1,8,2:0:0:0:
184,100,26433,6,0,B|243:79|305:140|272:220|206:232|168:204|168:204|117:166|41:208|48:292|106:324|152:307,1,492,4|0,1:2|1:0,2:0:0:0:
153,308,27708,6,0,B|278:269|249:367|379:326,1,236.042459713941,4|0,2:0|2:0,2:0:0:0:
471,271,28346,2,0,P|492:266|526:266,2,39.3404099523236,0|0|8,1:0|1:0|2:0,2:0:0:0:
405,200,28665,22,1,B|375:226|334:226|334:226|304:190|310:151|310:151|291:121|262:136|264:159,1,236.042459713941,4|4,2:0|2:0,2:0:0:0:
71,125,29462,6,0,L|55:44,2,75.7976912227167,2|0|0,1:2|2:0|1:0,2:0:0:0:
156,154,29940,2,0,P|185:91|254:97,1,147.6,2|0,2:0|2:0,2:0:0:0:
339,162,30418,2,0,P|396:173|447:82,2,147.6,2|0|0,1:2|1:0|1:0,2:0:0:0:
329,80,31215,1,2,2:0:0:0:
329,80,31374,1,0,1:0:0:0:
254,97,31534,1,0,2:0:0:0:
357,258,31693,5,2,1:2:0:0:
280,229,31853,2,0,P|236:213|195:193,1,73.8000000000001,0|0,2:0|1:0,2:0:0:0:
296,315,32171,2,0,P|357:343|429:380,1,147.6,2|0,2:0|2:0,2:0:0:0:
208,365,32650,2,0,P|163:370|126:381,1,73.8000000000001,0|0,1:0|2:0,2:0:0:0:
92,378,32889,1,0,2:0:0:0:
92,378,32968,2,0,P|74:338|159:301,2,147.6,0|0|0,1:0|1:0|1:0,2:0:0:0:
201,241,33766,2,0,L|189:183,2,36.9,0|0|0,2:0|2:0|2:0,2:0:0:0:
201,241,34244,6,0,B|234:274|234:274|334:257,1,147.6,2|2,1:2|1:2,2:0:0:0:
400,187,34722,1,0,2:0:0:0:
444,266,34881,1,0,1:0:0:0:
349,121,35041,2,0,P|324:88|309:52,1,73.8000000000001,2|0,2:0|1:0,2:0:0:0:
473,158,35360,2,0,P|500:92|458:35,1,147.6,2|0,2:0|2:0,2:0:0:0:
230,117,35838,2,0,P|276:177|303:244,1,147.6,0|0,1:0|1:0,2:0:0:0:
154,357,36316,2,0,P|154:311|241:326,1,147.6,2|0,2:0|2:0,2:0:0:0:
74,291,36794,5,0,1:0:0:0:
297,368,36954,2,0,P|323:337|326:298,1,73.8000000000001,2|0,2:0|1:0,2:0:0:0:
205,69,37272,2,0,L|249:225,1,147.6,2|8,1:0|2:0,2:0:0:0:
277,236,37671,1,8,2:0:0:0:
308,237,37751,1,8,2:0:0:0:
334,226,37830,1,8,2:0:0:0:
346,207,37910,1,8,2:3:0:0:
344,199,37990,1,12,2:3:0:0:
342,191,38069,5,0,1:0:0:0:
394,299,38229,1,0,1:0:0:0:
450,142,38388,2,0,L|475:51,1,73.8000000000001,12|0,2:0|2:0,2:0:0:0:
493,241,38707,5,0,1:0:0:0:
394,299,38866,1,0,1:0:0:0:
374,100,39026,2,0,L|399:9,1,73.8000000000001,12|8,2:0|2:0,2:0:0:0:
367,14,39265,1,8,2:0:0:0:
367,14,39345,6,0,B|356:59|369:94|383:125|377:162,1,147.6,4|10,1:2|2:0,2:0:0:0:
451,46,39823,1,0,2:0:0:0:
451,46,39982,1,0,1:0:0:0:
283,90,40142,2,0,P|237:82|202:66,1,73.8000000000001,2|8,1:2|2:0,2:0:0:0:
327,21,40461,5,2,2:0:0:0:
142,130,40620,2,0,P|84:91|100:22,1,147.6,0|8,1:0|2:0,2:0:0:0:
219,165,41098,1,0,2:0:0:0:
219,165,41258,1,0,1:0:0:0:
74,108,41417,2,0,P|36:109|-1:121,1,73.8000000000001,2|8,1:2|2:0,2:0:0:0:
84,184,41736,1,2,2:0:0:0:
246,93,41895,6,0,P|282:71|312:58,1,73.8000000000001,0|0,1:0|1:0,2:0:0:0:
206,22,42214,1,8,2:0:0:0:
304,151,42373,2,0,P|339:161|375:166,1,73.8000000000001,2|0,2:0|1:0,2:0:0:0:
473,213,42692,2,0,P|446:238|423:267,1,73.8000000000001,0|8,1:0|2:0,2:0:0:0:
476,369,43011,6,0,P|449:322|346:313,1,147.6,2|0,1:2|1:0,2:0:0:0:
206,300,43489,2,0,P|177:258|176:215,1,73.8000000000001,8|0,2:0|1:0,2:0:0:0:
300,174,43808,1,8,2:0:0:0:
253,374,43967,2,0,L|278:341,2,36.9,8|8|0,2:0|2:0|2:0,2:0:0:0:
144,83,44286,6,0,B|181:35|253:48|253:48|243:72,1,147.6,6|0,1:2|1:0,2:0:0:0:
81,133,44765,2,0,P|41:121|-13:120,1,73.8000000000001,10|0,2:0|2:0,2:0:0:0:
2,42,45084,1,0,1:0:0:0:
161,170,45243,2,0,P|197:166|232:155,1,73.8000000000001,2|8,1:2|2:0,2:0:0:0:
66,230,45562,6,0,B|57:281|57:281|59:319|59:319|52:380,1,147.6,6|0,1:2|1:0,2:0:0:0:
218,312,46040,2,0,P|230:270|220:231,1,73.8000000000001,10|0,2:0|2:0,2:0:0:0:
140,343,46359,1,0,1:0:0:0:
140,343,46519,1,0,1:0:0:0:
161,170,46678,1,8,2:0:0:0:
372,270,46837,6,0,B|405:290|444:277|444:277|461:240|438:207,1,147.6,6|0,1:2|1:0,2:0:0:0:
323,335,47316,2,0,P|293:302|288:270,1,73.8000000000001,10|0,2:0|2:0,2:0:0:0:
382,161,47634,1,0,1:0:0:0:
382,161,47794,1,0,1:0:0:0:
218,124,47953,1,8,2:0:0:0:
298,194,48113,1,0,1:0:0:0:
361,47,48272,5,12,2:0:0:0:
192,230,48431,1,8,2:0:0:0:
192,230,48750,1,8,2:0:0:0:
192,230,49069,1,0,1:0:0:0:
300,195,49228,1,8,2:0:0:0:
225,132,49388,1,0,1:0:0:0:
107,245,49547,6,0,P|50:249|-5:213,1,110.7,12|0,2:0|2:0,2:0:0:0:
0,177,49866,2,0,P|-1:136|5:102,1,73.8000000000001,10|0,2:0|2:0,2:0:0:0:
184,31,50185,1,8,2:0:0:0:
106,96,50344,1,4,2:3:0:0:
19,32,50504,1,8,2:3:0:0:
201,113,50663,6,0,L|294:99,1,73.8000000000001,6|0,1:2|2:0,2:0:0:0:
357,91,50982,1,0,1:2:0:0:
211,269,51141,2,0,P|197:235|203:199,1,73.8000000000001,2|0,1:2|1:0,2:0:0:0:
406,236,51460,1,8,2:0:0:0:
281,180,51620,1,10,2:0:0:0:
314,274,51779,1,8,2:0:0:0:
443,99,51938,6,0,B|415:69|412:39|412:39|360:58|355:103,1,147.6,6|0,1:2|1:0,2:0:0:0:
406,236,52417,2,0,P|443:255|485:249,1,73.8000000000001,10|0,2:0|2:0,2:0:0:0:
356,172,52735,1,0,1:0:0:0:
218,285,52895,2,0,P|179:301|138:291,1,73.8000000000001,2|8,1:2|2:0,2:0:0:0:
294,384,53214,6,0,L|329:224,1,147.6,6|0,1:2|1:0,2:0:0:0:
127,366,53692,2,0,P|89:346|70:308,1,73.8000000000001,8|0,2:0|2:0,2:0:0:0:
250,193,54011,1,0,1:0:0:0:
210,355,54170,1,0,1:0:0:0:
186,108,54329,1,8,2:0:0:0:
146,270,54489,1,8,2:0:0:0:
146,270,54569,1,8,2:0:0:0:
146,270,54648,6,0,L|304:243,1,147.6,4|0,1:2|2:0,2:0:0:0:
330,163,55126,1,0,1:0:0:0:
93,200,55286,2,0,P|30:168|28:98,1,147.6,10|0,2:0|2:0,2:0:0:0:
181,239,55764,2,0,P|186:186|181:152,1,73.8000000000001,0|0,1:0|2:0,2:0:0:0:
281,92,56083,6,0,P|277:169|286:249,1,147.6,10|0,2:0|1:0,2:0:0:0:
189,89,56561,1,12,2:0:0:0:
353,173,56721,1,0,1:0:0:0:
189,89,56880,1,8,2:0:0:0:
394,29,57039,6,0,P|439:86|438:159,1,147.6,6|0,1:2|1:0,2:0:0:0:
301,64,57518,1,8,2:0:0:0:
498,30,57677,1,0,1:0:0:0:
498,30,57836,1,8,2:0:0:0:
409,225,57996,1,0,1:0:0:0:
279,73,58155,2,0,P|280:35|288:-26,1,73.8000000000001,8|0,2:0|1:0,2:0:0:0:
324,248,58474,5,8,2:0:0:0:
189,113,58633,1,8,2:0:0:0:
166,296,58793,1,12,2:0:0:0:
166,296,59112,5,8,2:0:0:0:
92,83,59271,1,10,2:0:0:0:
92,83,59590,6,0,B|145:98|201:43|201:43|174:96,1,180.400005505371,6|0,1:2|1:0,2:0:0:0:
23,221,60068,2,0,P|63:188|112:190,1,90.2000027526856,8|0,2:0|2:0,2:0:0:0:
232,276,60387,1,0,1:0:0:0:
232,276,60546,1,0,1:0:0:0:
204,174,60706,1,10,2:0:0:0:
340,353,60865,6,0,L|373:172,1,180.4,6|0,1:2|1:0,2:0:0:0:
442,346,61343,2,0,P|456:298|437:256,1,90.2,8|0,2:0|2:0,2:0:0:0:
253,300,61662,1,0,1:0:0:0:
339,227,61821,1,0,1:0:0:0:
202,189,61981,1,10,2:0:0:0:
380,120,62140,6,0,P|462:128|487:48,1,180.4,6|0,1:2|1:0,2:0:0:0:
283,137,62618,2,0,P|249:109|205:99,1,90.2,10|0,2:0|2:0,2:0:0:0:
111,135,62937,1,0,1:0:0:0:
365,182,63097,2,0,P|371:137|357:95,1,90.2,2|8,1:2|2:0,2:0:0:0:
151,271,63416,6,0,B|222:264|222:264|253:271|253:271|347:260,1,180.4,6|0,1:2|1:0,2:0:0:0:
189,367,63894,6,0,B|118:360|118:360|87:367|87:367|-7:356,1,180.4,10|0,2:0|1:0,2:0:0:0:
5,204,64372,5,0,1:0:0:0:
71,282,64531,1,10,2:0:0:0:
98,127,64691,6,0,B|169:120|169:120|200:127|200:127|294:116,1,180.4,6|0,1:2|1:0,2:0:0:0:
421,67,65169,1,8,2:0:0:0:
341,199,65328,1,0,2:0:0:0:
272,45,65488,1,2,1:2:0:0:
475,149,65647,2,0,P|503:106|510:64,1,90.2,2|8,1:2|2:0,2:0:0:0:
341,199,65966,6,0,L|370:379,1,180.4,6|0,1:2|1:0,2:0:0:0:
205,188,66444,2,0,P|177:145|170:103,1,90.2,10|0,2:0|2:0,2:0:0:0:
341,199,66763,1,2,1:2:0:0:
154,261,66922,2,0,L|56:245,1,90.2,2|8,1:2|2:0,2:0:0:0:
325,323,67241,6,0,B|375:302|420:309|468:316|503:301,1,180.4,6|0,1:2|1:0,2:0:0:0:
341,199,67719,2,0,P|365:154|399:128,1,90.2,8|0,2:0|2:0,2:0:0:0:
486,161,68038,1,0,1:0:0:0:
328,78,68198,1,0,1:0:0:0:
486,161,68357,1,8,2:0:0:0:
250,210,68516,6,0,P|161:190|72:183,1,180.4,4|0,1:2|1:0,2:0:0:0:
298,79,68995,2,0,P|343:92|397:94,1,90.2,8|0,2:0|1:0,2:0:0:0:
461,37,69313,1,10,2:0:0:0:
300,159,69473,1,10,2:0:0:0:
300,159,69792,6,0,P|247:138|243:24,1,180.4,6|0,1:2|1:0,2:0:0:0:
342,275,70270,2,0,P|258:241|168:238,1,180.400005505371,8|0,2:0|1:0,2:0:0:0:
136,154,70748,1,0,1:0:0:0:
231,334,70908,1,10,2:0:0:0:
377,191,71067,6,0,B|438:162|506:179|506:179|483:153|458:145,1,180.4,6|0,1:2|1:0,2:0:0:0:
322,288,71545,2,0,P|281:267|238:256,1,90.2,8|0,2:0|2:0,2:0:0:0:
156,319,71864,1,0,1:0:0:0:
314,202,72023,1,0,1:0:0:0:
283,366,72183,1,10,2:0:0:0:
163,189,72342,6,0,P|78:167|5:216,1,180.4,6|0,1:2|1:0,2:0:0:0:
251,160,72820,2,0,L|269:63,1,90.2,10|0,2:0|2:0,2:0:0:0:
176,34,73139,1,0,1:0:0:0:
349,114,73299,1,2,1:2:0:0:
156,170,73458,1,8,2:0:0:0:
225,337,73617,6,0,P|297:288|382:310,1,180.4,6|2,1:2|2:0,2:0:0:0:
137,367,74096,2,0,P|123:291|67:188,1,180.4,10|0,2:0|1:0,2:0:0:0:
256,193,74574,1,8,2:0:0:0:
256,193,74654,1,8,2:0:0:0:
256,193,74733,1,8,2:0:0:0:
82,14,74892,6,1,B|61:47|76:105|114:121|114:121|152:125|175:102,1,190.00000265168,6|0,1:2|1:0,2:0:0:0:
341,29,75370,2,0,P|291:39|247:53,1,90.2000027526856,10|0,2:0|1:0,2:0:0:0:
396,148,75690,2,0,P|440:156|482:173,1,90.2000027526856,10|0,2:0|1:0,2:0:0:0:
502,212,75929,1,0,1:0:0:0:
505,226,76009,1,8,0:0:0:0:
301,125,76168,5,2,1:2:0:0:
294,230,76327,2,0,L|331:324,1,90.2,8|0,2:0|1:0,2:0:0:0:
165,207,76646,2,0,L|202:301,1,90.2,8|0,2:0|1:0,2:0:0:0:
29,181,76965,2,0,L|66:275,1,90.2,8|0,2:0|1:0,2:0:0:0:
75,300,77204,1,0,1:0:0:0:
83,323,77284,1,8,0:0:0:0:
185,124,77443,5,6,2:0:0:0:
303,186,77603,1,8,1:2:0:0:
327,176,77682,1,0,1:2:0:0:
348,160,77762,1,0,1:2:0:0:
362,138,77842,1,0,1:2:0:0:
370,113,77921,1,10,1:2:0:0:
370,87,78001,1,0,1:2:0:0:
362,62,78081,1,0,1:2:0:0:
346,41,78160,1,0,1:2:0:0:
325,25,78240,1,10,1:2:0:0:
301,16,78320,1,0,1:2:0:0:
275,15,78400,1,0,1:2:0:0:
249,22,78479,1,0,1:2:0:0:
227,36,78559,1,8,2:0:0:0:
297,277,78719,6,1,B|370:238|426:279|473:325|532:271|511:182|421:167|409:242,1,328,6|8,1:2|2:0,2:0:0:0:
280,106,79675,1,10,2:0:0:0:
166,345,79994,6,0,L|213:179,1,164,6|0,1:2|1:0,2:0:0:0:
282,303,80472,2,0,P|323:310|365:322,1,82,10|0,2:0|2:0,2:0:0:0:
293,216,80791,1,0,1:0:0:0:
293,216,80950,1,0,1:0:0:0:
91,250,81109,2,0,P|50:244|11:233,1,82,10|0,2:0|2:0,2:0:0:0:
236,102,81428,5,2,1:2:0:0:
356,298,81588,2,0,P|412:241|491:241,1,164,0|2,1:2|2:0,2:0:0:0:
380,150,82066,1,0,1:0:0:0:
314,374,82225,2,0,P|284:346|268:309,1,82,0|8,1:0|2:0,2:0:0:0:
292,80,82544,6,0,P|238:139|159:132,1,164,6|0,1:2|1:0,2:0:0:0:
344,25,83022,2,0,P|387:48|427:64,1,82,10|0,2:0|2:0,2:0:0:0:
507,50,83341,1,0,1:0:0:0:
507,50,83501,1,0,1:0:0:0:
432,184,83660,2,0,P|392:175|351:169,1,82,10|0,2:0|2:0,2:0:0:0:
296,320,83979,5,2,1:2:0:0:
167,264,84138,2,0,P|93:273|98:347,1,164,0|2,1:0|2:0,2:0:0:0:
135,373,84537,1,8,0:0:0:0:
135,373,84616,1,0,1:0:0:0:
239,357,84776,1,8,0:0:0:0:
243,262,84935,1,8,2:0:0:0:
176,177,85095,6,0,P|144:103|176:29,1,164,6|8,1:2|2:0,2:0:0:0:
258,148,85573,1,2,1:2:0:0:
185,195,85732,1,0,2:0:0:0:
335,128,85892,2,0,L|429:93,1,82,10|2,2:0|2:0,2:0:0:0:
262,65,86210,1,0,1:0:0:0:
385,276,86370,6,0,P|377:226|481:185,1,164,2|8,1:2|2:0,2:0:0:0:
317,326,86848,2,0,P|291:279|289:236,1,82,2|0,1:2|1:0,2:0:0:0:
293,231,87087,1,0,1:0:0:0:
300,217,87167,1,8,2:0:0:0:
467,261,87326,1,4,2:3:0:0:
397,369,87486,1,8,2:3:0:0:
356,155,87645,6,0,P|353:107|362:-12,1,164,6|8,1:2|2:0,2:0:0:0:
270,63,88123,2,0,P|225:56|170:56,1,82,2|0,1:2|1:0,2:0:0:0:
157,65,88362,1,0,2:0:0:0:
145,68,88442,1,10,2:0:0:0:
430,102,88601,2,0,P|475:95|530:95,1,82,2|8,1:2|2:0,2:0:0:0:
243,252,88920,6,0,P|195:214|248:149,1,164,6|0,1:2|1:0,2:0:0:0:
223,330,89399,2,0,P|201:376|157:390,1,82,10|0,2:0|1:0,2:0:0:0:
133,268,89717,1,10,2:0:0:0:
334,230,89877,1,8,2:0:0:0:
114,168,90036,2,0,P|72:159|30:157,1,82,8|0,2:0|1:2,2:0:0:0:
174,93,90355,5,12,2:0:0:0:
246,283,90514,1,0,1:0:0:0:
251,300,90674,1,0,1:0:0:0:
280,51,90833,5,12,2:0:0:0:
352,241,90993,1,0,1:0:0:0:
357,258,91152,1,0,1:0:0:0:
384,26,91311,5,12,2:0:0:0:
472,273,91471,1,12,2:0:0:0:
256,192,91550,12,0,93064,2:0:0:0:
