osu file format v14

[General]
AudioFilename: audio.ogg
AudioLeadIn: 0
PreviewTime: 88266
Countdown: 0
SampleSet: Soft
StackLeniency: 0.7
Mode: 0
LetterboxInBreaks: 0
WidescreenStoryboard: 0

[Editor]
Bookmarks: 465,23366,37766,63366,76166,88966,101766,108166,112766,114566,120966,127366,130366
DistanceSpacing: 0.9
BeatDivisor: 4
GridSize: 4
TimelineZoom: 1

[Metadata]
Title:Blue-Love Chime (Game Ver.)
TitleUnicode:Blue-Love Chime (Game Ver.)
Artist:nao
ArtistUnicode:nao
Creator:tomatas95
Version:Easy
Source:天色*アイルノーツ
Tags:eroge yuzusoft Amairo * Islenauts 柚子社 visual novel vn video game galgame shirahane suou japanese opening op j-pop jpop pop
BeatmapID:4028608
BeatmapSetID:1943573

[Difficulty]
HPDrainRate:2
CircleSize:2.5
OverallDifficulty:2
ApproachRate:3
SliderMultiplier:1
SliderTickRate:1

[Events]
//Background and Video events
Video,0,"erogesuki.mp4"
0,0,"KonokaPresent.jpg",0,0
//Break Periods
//Storyboard Layer 0 (Background)
//Storyboard Layer 1 (Fail)
//Storyboard Layer 2 (Pass)
//Storyboard Layer 3 (Foreground)
//Storyboard Layer 4 (Overlay)
//Storyboard Sound Samples

[TimingPoints]
465,480,4,2,8,40,1,0
465,-100,4,2,8,40,0,0
4305,-100,4,2,8,45,0,0
5025,-100,4,2,1,35,0,0
7665,-100,4,2,1,40,0,0
8145,-100,4,2,1,50,0,0
8265,-100,4,2,1,30,0,0
9825,-100,4,2,1,40,0,0
10185,-100,4,2,1,30,0,0
11745,-100,4,2,1,40,0,0
12105,-100,4,2,1,30,0,0
12705,-100,4,2,1,40,0,0
12825,-100,4,2,1,30,0,0
13425,-100,4,2,1,40,0,0
14025,-100,4,2,1,30,0,0
15585,-100,4,2,1,40,0,0
15945,-100,4,2,1,30,0,0
16545,-100,4,2,1,40,0,0
16665,-100,4,2,1,30,0,0
17265,-100,4,2,1,40,0,0
17745,476.190476190476,4,2,1,40,1,0
17865,-100,4,2,1,30,0,0
18459,-100,4,2,1,40,0,0
18579,-100,4,2,1,30,0,0
19173,-100,4,2,1,40,0,0
19293,-100,4,2,1,30,0,0
19649,487.80487804878,4,2,1,40,1,0
19769,-100,4,2,1,30,0,0
20380,-109.450090273919,4,2,1,40,0,0
20500,-124.991354737994,4,2,1,30,0,0
21600,454.545454545455,4,2,1,40,1,0
22509,428.571428571429,4,2,1,65,1,0
22723,-100,4,2,1,60,0,0
22937,-100,4,2,2,60,0,0
23259,-100,4,2,1,5,0,0
23366,400,4,2,4,75,1,0
23366,-100,4,2,4,75,0,0
23766,-100,4,2,1,70,0,0
24766,-100,4,2,1,75,0,0
24966,-100,4,2,1,70,0,0
27966,-100,4,2,1,75,0,0
28166,-100,4,2,1,70,0,0
29766,-100,4,2,3,75,0,0
30166,-100,4,2,1,70,0,0
31166,-100,4,2,1,75,0,0
31366,-100,4,2,1,70,0,0
34366,-100,4,2,4,75,0,0
34766,-100,4,2,1,70,0,0
35966,-100,4,2,5,75,0,0
36166,-100,4,2,1,60,0,0
36966,-100,4,2,1,70,0,0
37366,-100,4,2,1,65,0,0
37766,-100,4,2,1,65,0,0
38166,-100,4,2,6,60,0,0
39166,-100,4,2,6,65,0,0
39366,-100,4,2,6,60,0,0
42366,-100,4,2,6,65,0,0
42566,-100,4,2,6,60,0,0
43966,-100,4,2,6,55,0,0
44166,-100,4,2,1,65,0,0
44566,-100,4,2,6,60,0,0
45566,-100,4,2,6,65,0,0
45766,-100,4,2,6,60,0,0
48766,-100,4,2,6,65,0,0
48966,-100,4,2,6,60,0,0
49966,-100,4,2,1,55,0,0
50166,-100,4,2,6,60,0,0
50366,-100,4,2,1,55,0,0
50566,-100,4,2,3,70,0,0
50766,-100,4,2,1,65,0,0
51966,-100,4,2,1,65,0,0
56766,-100,4,2,1,60,0,0
56966,-100,4,2,3,70,0,0
57166,-100,4,2,1,65,0,0
58366,-100,4,2,1,65,0,0
61566,-100,4,2,1,65,0,0
62966,-100,4,2,1,60,0,0
63166,-100,4,2,2,55,0,0
63366,-100,4,2,5,60,0,0
63966,-100,4,2,1,60,0,0
65766,-100,4,2,1,55,0,0
66566,-100,4,2,1,60,0,0
68166,-100,4,2,1,55,0,0
69566,-100,4,2,1,60,0,0
69766,-100,4,2,1,65,0,0
70366,-100,4,2,1,60,0,0
72166,-100,4,2,1,55,0,0
72366,-100,4,2,2,55,0,0
72566,-100,4,2,1,55,0,0
72766,-100,4,2,3,55,0,0
72966,-100,4,2,1,60,0,0
74566,-100,4,2,1,55,0,0
75366,-100,4,2,2,55,0,0
75566,-100,4,2,3,55,0,0
75766,-100,4,2,1,55,0,0
75966,-100,4,2,4,55,0,0
76166,-100,4,2,3,65,0,0
76566,-100,4,2,1,65,0,0
82366,-100,4,2,1,60,0,0
82566,-100,4,2,4,70,0,0
82966,-100,4,2,1,70,0,0
86566,-100,4,2,1,75,0,0
87166,-100,4,2,3,75,0,0
87766,-100,4,2,1,50,0,0
88166,-100,4,2,1,60,0,0
88466,-100,4,2,1,5,0,0
88566,-100,4,2,1,70,0,0
88866,-100,4,2,2,70,0,0
88966,-100,4,2,4,80,0,1
89366,-100,4,2,1,80,0,1
95366,-100,4,2,3,80,0,1
95766,-100,4,2,1,80,0,1
100366,-100,4,2,1,85,0,1
100766,-100,4,2,1,75,0,1
101366,-100,4,2,1,75,0,0
101566,-100,4,2,2,75,0,0
101666,-100,4,2,3,75,0,0
101766,-100,4,2,4,80,0,1
102166,-100,4,2,1,80,0,1
106366,-100,4,2,1,85,0,1
107366,-100,4,2,1,65,0,1
107566,-100,4,2,1,85,0,1
107766,-100,4,2,1,75,0,0
107966,-100,4,2,2,70,0,0
108066,-100,4,2,3,70,0,0
108166,-100,4,2,4,80,0,1
108366,-100,4,2,1,80,0,1
108566,-100,4,2,1,85,0,1
112766,-100,4,2,1,85,0,0
113366,-100,4,2,1,60,0,0
114566,-100,4,2,3,65,0,0
115166,-100,4,2,1,65,0,0
116166,-100,4,2,1,60,0,0
116966,-100,4,2,1,65,0,0
117566,-100,4,2,1,60,0,0
117766,-100,4,2,1,65,0,0
118566,-100,4,2,1,60,0,0
119166,-100,4,2,1,65,0,0
119766,-100,4,2,1,60,0,0
120366,-100,4,2,2,60,0,0
120566,-100,4,2,1,60,0,0
120766,-100,4,2,3,60,0,0
120966,-100,4,2,4,75,0,0
121366,-100,4,2,1,75,0,0
124166,-100,4,2,1,80,0,0
127366,-100,4,2,3,80,0,0
127566,-100,4,2,1,80,0,0
130366,-100,4,2,4,80,0,0

[Colours]
Combo1 : 251,181,202
Combo2 : 206,240,125
Combo3 : 248,200,148
Combo4 : 247,183,245

[HitObjects]
138,74,465,6,0,B|100:90|69:61|69:61|37:32|-3:48,2,150,2|2|2,0:0|0:0|0:0,0:0:0:0:
208,130,2385,2,0,P|227:68|171:-7,2,150,2|2|2,0:0|0:0|0:0,0:0:0:0:
123,161,4305,5,2,0:0:0:0:
9,233,5025,2,0,P|83:245|157:254,1,150,2|0,0:0|0:0,0:0:0:0:
147,343,6225,2,0,P|72:330|-2:321,2,150,2|2|2,0:0|0:0|0:0,0:0:0:0:
231,374,8145,6,2,B|252:321|210:272|210:272|184:230|215:166|296:183|307:248,1,300,6|0,3:2|0:0,0:1:0:0:
328,334,10065,2,2,B|355:317|403:332|403:332|469:363|527:308|527:308|506:259|458:247,1,300,2|0,0:1|0:0,0:1:0:0:
376,237,11985,6,2,P|404:181|500:172,1,150,2|2,0:1|0:1,0:1:0:0:
457,32,13425,2,2,B|323:88|355:-30|271:-52|210:-6|181:25|178:78|221:118|276:101,1,400,2|0,0:1|0:0,0:1:0:0:
330,172,15825,6,2,P|382:134|466:155,2,150,2|2|2,0:1|0:1|0:1,0:1:0:0:
407,220,17745,2,2,P|413:284|353:346,2,150,2|2|2,0:1|0:1|0:1,0:1:0:0:
329,261,19649,5,2,0:1:0:0:
220,202,20380,2,2,B|320:142|330:17|214:-93|106:20|169:86,1,398.761662880055,2|8,0:1|0:0,0:1:0:0:
129,167,22937,1,4,3:0:0:0:
48,117,23366,6,0,P|41:66|23:1,2,100,6|10|2,3:2|0:0|3:2,0:0:0:0:
16,248,24766,2,0,B|31:341|31:341|78:383|132:337,1,200,2|2,3:2|0:0,0:0:0:0:
216,338,25966,1,2,3:2:0:0:
296,378,26366,6,0,B|323:320|293:240|244:291|230:206|265:146,1,250,2|2,0:0|3:2,0:0:0:0:
352,44,27966,2,0,B|401:25|401:25|461:57,1,100,6|0,3:2|3:0,0:0:0:0:
395,124,28766,2,0,P|388:191|378:293,1,150,2|10,0:0|0:0,0:0:0:0:
469,260,29766,6,0,P|473:210|479:160,2,100,4|10|0,3:2|0:0|3:0,0:0:0:0:
392,371,31166,2,0,B|340:376|311:337|311:337|257:303|196:338,1,200,2|2,3:2|0:0,0:0:0:0:
130,376,32366,1,0,3:0:0:0:
69,308,32766,6,0,B|57:341|26:354|26:354|-35:306|9:248|9:248|44:197|11:133,1,300,2|0,0:0|3:0,0:0:0:0:
26,52,34366,2,0,B|76:66|76:66|132:40,1,100,6|0,3:2|3:0,0:0:0:0:
168,121,35166,2,0,B|130:157|130:157|125:218,1,100,10|2,0:0|0:0,0:0:0:0:
216,196,35966,6,0,P|283:215|375:236,1,150,14|8,0:0|0:0,0:0:0:0:
436,282,36966,1,8,0:0:0:0:
509,229,37366,1,8,0:0:0:0:
471,147,37766,6,0,B|543:88|505:3|444:-14|401:17|392:67|418:84,1,250,6|2,3:2|3:2,0:0:0:0:
376,157,39166,2,0,B|330:170|264:140|316:111|258:70|207:79,1,200,2|2,3:2|0:0,0:0:0:0:
151,15,40366,1,2,3:2:0:0:
17,35,40966,6,0,P|28:75|40:139,1,100,2|10,3:2|0:0,0:0:0:0:
28,221,41766,2,0,B|66:237|97:208|97:208|129:179|169:195,1,150,2|2,3:2|3:2,0:0:0:0:
248,232,42766,1,2,3:2:0:0:
244,321,43166,2,0,P|187:336|96:353,1,150,2|8,0:0|0:0,0:0:0:0:
15,316,44166,5,6,3:2:0:0:
34,228,44566,2,0,L|8:60,1,150,10|2,0:0|3:2,0:0:0:0:
100,88,45566,2,0,L|115:186,2,100,2|2|2,3:2|3:2|0:0,0:0:0:0:
73,2,46766,1,2,3:2:0:0:
202,40,47366,6,0,P|252:33|319:23,1,100,2|10,3:2|0:0,0:0:0:0:
335,108,48166,2,0,P|260:118|186:129,2,150,2|2|8,3:2|3:2|0:0,0:0:0:0:
392,39,49766,1,10,0:0:0:0:
481,45,50166,1,10,0:0:0:0:
482,134,50566,6,0,B|446:172|483:236|483:236|529:309|451:361|451:361|405:341|404:282,1,350,4|2,3:2|3:2,0:0:0:0:
377,201,52366,1,0,3:0:0:0:
393,112,52766,2,0,B|347:98|281:128|333:157|275:198|224:189,1,200,2|2,0:0|0:2,0:0:0:0:
140,156,53966,6,0,B|116:207|155:258|155:258|179:302|145:364|65:343|57:277,1,300,2|2,0:0|3:2,0:0:0:0:
21,194,55566,2,0,P|18:170|9:139,1,50,0|10,3:0|0:0,0:0:0:0:
3,55,56166,1,2,3:2:0:0:
76,2,56566,1,10,0:0:0:0:
146,57,56966,6,0,B|186:90|188:171|147:181|125:156|70:259|175:355|259:262|258:220,1,350,4|2,3:2|3:2,0:0:0:0:
274,141,58766,2,0,B|319:123|373:190|323:213|376:269|463:239|463:239|458:181,1,300,0|2,3:0|0:0,0:0:0:0:
489,96,60366,6,0,P|492:72|501:41,1,50,2|10,0:0|0:0,0:0:0:0:
418,5,60966,1,2,3:2:0:0:
300,70,61566,2,0,B|262:86|231:57|231:57|199:28|159:44,1,150,2|8,3:2|0:0,0:0:0:0:
74,20,62566,1,0,3:0:0:0:
15,89,62966,1,4,3:0:0:0:
37,176,63366,6,0,P|110:163|184:150,1,150,6|2,3:2|3:2,0:0:0:0:
210,283,64566,2,0,P|136:295|62:308,2,150,2|2|8,0:0|3:2|3:0,0:0:0:0:
263,210,66166,1,2,0:0:0:0:
341,254,66566,6,0,P|354:201|292:124,2,150,2|2|0,3:2|3:2|0:0,0:0:0:0:
352,343,68166,2,0,P|297:352|243:361,2,100,2|8|4,0:0|3:0|3:0,0:0:0:0:
435,376,69366,1,2,0:0:0:0:
457,288,69766,6,0,P|456:219|472:121,1,150,6|2,3:2|3:2,0:0:0:0:
343,194,70966,2,0,P|354:268|353:343,2,150,2|0|4,0:0|3:0|3:0,0:0:0:0:
378,110,72566,1,2,0:0:0:0:
312,48,72966,6,0,B|274:32|242:61|242:61|211:90|173:74,2,150,2|2|2,3:2|3:2|0:0,0:0:0:0:
398,21,74566,2,0,P|444:11|497:31,2,100,2|2|4,0:0|0:0|3:0,0:0:0:0:
438,101,75766,1,2,0:0:0:0:
491,173,76166,6,0,P|479:234|465:333,1,150,4|2,3:2|0:0,0:0:0:0:
334,352,77366,2,0,P|319:252|300:153,1,200,10|8,0:0|0:0,0:0:0:0:
325,67,78566,1,2,3:2:0:0:
266,0,78966,1,10,0:0:0:0:
180,28,79366,6,0,P|111:26|22:11,1,150,2|2,3:2|0:0,0:0:0:0:
8,191,80766,2,0,P|88:193|168:206,1,150,2|8,3:2|0:0,0:0:0:0:
125,289,81766,2,0,P|75:281|25:279,1,100,2|10,3:2|0:0,0:0:0:0:
3,367,82566,6,0,P|77:369|152:380,1,150,6|2,3:2|0:0,0:0:0:0:
228,332,83566,1,2,3:2:0:0:
306,375,83966,2,0,P|317:335|253:244,1,150,2|10,3:2|0:0,0:0:0:0:
197,187,84966,1,2,3:2:0:0:
216,99,85366,1,10,0:0:0:0:
290,48,85766,6,0,B|308:70|337:79|375:52|349:56|352:11|416:-37|518:-2|516:118|453:156|399:159|362:134,1,350,2|12,3:2|0:0,0:0:0:0:
296,251,87766,2,0,P|304:297|312:359,1,100,8|8,0:0|0:0,0:0:0:0:
394,383,88566,1,8,0:0:0:0:
469,334,88966,6,0,P|460:284|453:235,1,100,6|8,3:2|0:0,0:0:0:0:
495,155,89766,2,0,B|501:87|501:87|483:39|426:46,1,150,2|2,3:2|3:2,0:0:0:0:
354,10,90766,1,0,3:2:0:0:
283,64,91166,1,2,0:0:0:0:
295,153,91566,1,2,3:2:0:0:
210,258,92166,6,0,P|259:264|309:270,1,100,2|10,3:2|0:0,0:0:0:0:
309,360,92966,2,0,P|228:350|148:340,1,150,2|2,3:2|3:2,0:0:0:0:
75,370,93966,1,0,3:0:0:0:
14,303,94366,1,2,0:0:0:0:
42,217,94766,1,2,0:0:0:0:
138,122,95366,6,0,L|18:105,1,100,4|10,3:2|0:0,0:0:0:0:
27,18,96166,2,0,L|175:39,1,150,2|2,3:2|3:2,0:0:0:0:
258,3,97166,1,2,3:2:0:0:
311,75,97566,1,2,0:0:0:0:
367,5,97966,1,0,3:0:0:0:
500,25,98566,6,0,P|491:73|482:128,1,100,2|8,3:2|0:0,0:0:0:0:
498,212,99366,2,0,B|460:228|429:199|429:199|397:170|357:186,1,150,2|2,3:2|3:2,0:0:0:0:
279,225,100366,2,0,P|285:258|291:297,1,50,8|8,0:0|0:0,0:0:0:0:
323,357,100966,1,10,0:2:0:0:
411,371,101366,1,10,0:0:0:0:
480,310,101766,6,0,P|488:260|497:211,1,100,6|8,3:2|0:0,0:0:0:0:
452,132,102566,2,0,P|476:59|417:-6,1,150,2|2,3:2|3:2,0:0:0:0:
383,74,103566,1,2,3:2:0:0:
310,20,103966,1,2,0:0:0:0:
241,78,104366,1,2,3:2:0:0:
117,131,104966,6,0,L|132:32,1,100,2|10,3:2|0:0,0:0:0:0:
45,12,105766,2,0,L|21:160,1,150,2|12,3:2|0:0,0:0:0:0:
82,226,106766,1,10,0:0:0:0:
17,288,107166,1,10,0:0:0:0:
70,360,107566,1,10,0:0:0:0:
204,356,108166,6,0,P|207:303|216:246,1,100,12|10,0:0|0:0,0:0:0:0:
169,178,108966,1,10,0:0:0:0:
215,101,109366,1,10,0:0:0:0:
305,103,109766,2,0,L|414:92,1,100,10|10,0:0|0:0,0:0:0:0:
487,127,110566,1,10,0:0:0:0:
435,200,110966,1,10,0:0:0:0:
482,276,111366,6,0,B|472:350|472:350|435:371|391:347,1,150,10|2,0:0|3:2,0:0:0:0:
333,290,112366,1,0,3:0:0:0:
281,363,112766,1,12,0:0:0:0:
96,233,113766,2,0,P|92:180|85:130,1,100,10|10,0:0|0:0,0:0:0:0:
132,56,114566,6,0,P|82:41|2:97,2,150,4|2|2,3:2|3:2|0:0,0:0:0:0:
176,134,116166,2,0,L|282:118,2,100,0|0|8,3:0|3:0|0:0,0:0:0:0:
85,133,117366,1,10,0:0:0:0:
23,198,117766,6,0,B|41:219|28:263|28:263|-1:319|45:369|45:369|86:365|104:317,1,250,2|2,3:2|0:0,0:0:0:0:
173,286,119166,2,0,B|109:224|154:142|217:131|257:165|261:216|245:221,1,250,2|0,3:2|3:0,0:0:0:0:
376,345,120966,6,0,L|481:334,1,100,6|10,3:2|0:0,0:0:0:0:
479,244,121766,2,0,L|329:259,2,150,2|2|10,3:2|3:2|0:0,0:0:0:0:
451,158,123366,1,2,3:2:0:0:
382,99,123766,1,10,0:0:0:0:
321,165,124166,6,0,B|238:127|236:17|236:17|227:118|173:157|173:157|104:119|96:13|96:13|94:131|5:171,1,700,2|8,3:2|0:0,0:0:0:0:
14,259,127366,6,0,B|56:251|85:267|85:267|91:276|91:276|116:295|165:286,1,150,12|10,0:0|0:0,0:0:0:0:
238,321,128366,2,0,L|229:374,2,50,10|10|10,0:0|0:0|0:0,0:0:0:0:
318,281,129166,1,10,0:0:0:0:
322,191,129566,1,10,0:0:0:0:
247,143,129966,2,0,L|256:90,2,50,10|10|14,0:0|0:0|0:0,0:0:0:0:
