osu file format v14

[General]
AudioFilename: nao - Anthem Short Version.mp3
AudioLeadIn: 1500
PreviewTime: 68895
Countdown: 0
SampleSet: Soft
StackLeniency: 0.7
Mode: 0
LetterboxInBreaks: 0
WidescreenStoryboard: 1

[Editor]
Bookmarks: 417,7373,14330,21286,28243,35199,42156,49112,56069,63025,69982,76938,83895,90851,97808,104764
DistanceSpacing: 1.4
BeatDivisor: 4
GridSize: 4
TimelineZoom: 1.6

[Metadata]
Title:Anthem Short Version
TitleUnicode:アンセム Short Version
Artist:nao
ArtistUnicode:nao
Creator:Kencho
Version:Summer
Source:1/2 summer
Tags:one side eroge galgame ending 秋田うと Akita Uto 古津ケーキ Furutsu Cake pocket Gao Minakami Yuki
BeatmapID:850263
BeatmapSetID:390071

[Difficulty]
HPDrainRate:6
CircleSize:4
OverallDifficulty:7
ApproachRate:8
SliderMultiplier:1.6
SliderTickRate:1

[Events]
//Background and Video events
0,0,"Sora.jpg",0,0
//Break Periods
//Storyboard Layer 0 (Background)
Sprite,Background,Centre,"Sora.jpg",320,240 S,0,-17,5,0.625 F,0,-17,417,0,1 F,0,417,14764,1 F,0,14764,,1
Sprite,Background,Centre,"BG\Sora1.jpg",320,240 S,0,14330,,0.625 F,0,14330,14764,0,1 F,0,14764,28677,1 F,0,28677,,0
Sprite,Background,Centre,"BG\Sora2.jpg",320,240 F,0,28243,28677,0,1 M,0,28243,42590,323.4909,240.5818,320,239.4182 S,0,28243,42590,0.6476362,0.670909 R,0,28243,42590,-0.01163635,0.0349093 F,0,28677,42590,1 F,0,42590,,0
Sprite,Background,Centre,"BG\Sora3.jpg",320,240 F,0,42156,42590,0,1 M,0,42156,56069,310.1092,239.4181,312.4363,241.1637 S,0,42156,56069,0.6592728,0.6825453 R,0,42156,56069,-0.01163696,0.0349093 F,0,42590,56069,1 F,0,56069,,0
Sprite,Background,Centre,"BG\Sora4.jpg",320,240 F,0,55634,56069,0,1 M,0,55634,69982,342.1091,238.8364,350.2545,247.5636 S,0,55634,69982,0.6825455,0.7116364 R,0,55634,69982,-0.0232727,0.05818201 F,0,56069,69982,1 F,0,69982,,0
Sprite,Background,Centre,"BG\Sora5.jpg",320,240 F,0,69547,69982,0,1 M,0,69547,83895,306.6183,237.6727,295.5637,242.3272 S,0,69547,83895,0.6669909,0.6786273 R,0,69547,83895,0.01163636,-0.03490876 F,0,69982,83895,1 F,0,83895,,0
Sprite,Background,Centre,"BG\Sora6.jpg",320,240 F,0,83460,83895,0,1 M,0,83460,97590,315.3456,239.4181,312.4364,247.5636 S,0,83460,97590,0.6553545,0.6902636 R,0,83460,97590,0.02327271,-0.03490876 F,0,83895,97590,1 F,0,97590,,0
Sprite,Background,Centre,"BG\Sora1.jpg",320,240 S,0,14330,,0.625 F,0,97156,97590,0,1 F,0,97590,104764,1 F,0,104764,105634,1,0
//Storyboard Layer 1 (Fail)
//Storyboard Layer 2 (Pass)
//Storyboard Layer 3 (Foreground)
//Storyboard Sound Samples

[TimingPoints]
417,434.782608695652,4,2,1,50,1,0
417,-83.3333333333333,4,2,1,50,0,0
1503,-133.333333333333,4,2,1,50,0,0
3895,-83.3333333333333,4,2,1,50,0,0
4982,-133.333333333333,4,2,1,50,0,0
7373,-83.3333333333333,4,2,1,50,0,0
8460,-133.333333333333,4,2,1,50,0,0
10851,-83.3333333333333,4,2,1,50,0,0
11938,-133.333333333333,4,2,1,50,0,0
12590,-100,4,2,1,50,0,0
14330,-100,4,2,1,60,0,0
28243,-100,4,2,1,55,0,0
54330,-133.333333333333,4,2,1,50,0,0
55634,-100,4,2,1,50,0,0
56069,-100,4,2,1,60,0,0
69112,-83.3333333333333,4,2,1,60,0,0
69982,-100,4,2,1,70,0,1
83786,-100,4,2,1,70,0,0
83895,-100,4,2,1,70,0,1
96069,-83.3333333333333,4,2,1,70,0,1
96721,-100,4,2,1,70,0,1
97590,-100,4,2,1,70,0,0
98243,-100,4,2,1,60,0,0
103025,-100,4,2,1,50,0,0

[Colours]
Combo1 : 255,224,128
Combo2 : 255,192,224
Combo3 : 32,128,32
Combo4 : 192,160,255

[HitObjects]
113,205,417,6,0,L|108:300,1,95.9999970703126,2|0,0:0|0:0,0:0:0:0:
218,243,851,1,0,0:0:0:0:
218,243,1069,2,0,L|213:338,1,95.9999970703126,2|0,0:0|0:0,0:0:0:0:
313,277,1503,5,0,0:0:0:0:
313,277,1721,2,0,L|316:336,1,60.0000022888184
407,233,2156,6,0,L|404:174,1,60.0000022888184,2|0,0:0|0:0,0:0:0:0:
309,186,2590,2,0,L|306:127,1,60.0000022888184,0|2,0:0|0:0,0:0:0:0:
211,139,3025,2,0,L|208:80,1,60.0000022888184
113,92,3460,2,0,L|110:33,1,60.0000022888184
39,158,3895,6,0,L|34:253,1,95.9999970703126,2|0,0:0|0:0,0:0:0:0:
151,210,4330,1,0,0:0:0:0:
151,210,4547,2,0,L|246:215,1,95.9999970703126,2|0,0:0|0:0,0:0:0:0:
253,305,4982,5,0,0:0:0:0:
253,305,5199,2,0,L|312:302,1,60.0000022888184
403,272,5634,6,0,L|406:213,1,60.0000022888184,2|0,0:0|0:0,0:0:0:0:
315,242,6069,2,0,L|312:301,1,60.0000022888184,0|2,0:0|0:0,0:0:0:0:
219,330,6503,2,0,L|222:271,1,60.0000022888184,0|0,0:0|0:0,0:0:0:0:
131,300,6938,2,0,L|128:359,1,60.0000022888184
21,262,7373,6,0,L|16:167,1,95.9999970703126,2|0,0:0|0:0,0:0:0:0:
138,189,7808,1,0,0:0:0:0:
138,189,8025,2,0,L|233:184,1,95.9999970703126,2|0,0:0|0:0,0:0:0:0:
269,101,8460,5,0,0:0:0:0:
269,101,8677,2,0,L|328:104,1,60.0000022888184
407,177,9112,6,0,L|466:174,1,60.0000022888184,2|0,0:0|0:0,0:0:0:0:
342,233,9547,2,0,L|283:230,1,60.0000022888184,0|2,0:0|0:0,0:0:0:0:
407,289,9982,2,0,L|466:286,1,60.0000022888184
342,345,10416,2,0,L|283:342,1,60.0000022888184
169,268,10851,6,0,L|174:173,1,95.9999970703126,2|0,0:0|0:0,0:0:0:0:
284,113,11286,1,0,0:0:0:0:
284,113,11503,2,0,L|289:208,1,95.9999970703126,2|0,0:0|0:0,0:0:0:0:
174,172,11938,5,0,0:0:0:0:
174,172,12156,2,0,L|172:142,3,30.0000011444092
174,172,12590,6,0,L|253:165,1,80,2|0,0:3|0:0,0:0:0:0:
81,78,13025,2,0,L|1:84,1,80,2|0,0:3|0:0,0:0:0:0:
201,88,13460,2,0,P|205:48|197:9,1,80,2|0,0:3|0:0,0:0:0:0:
54,162,13895,2,0,P|49:201|57:240,1,80,8|2,0:0|0:3,0:0:0:0:
213,322,14330,6,0,L|211:242,1,80,4|0,0:0|0:0,0:0:0:0:
248,111,14764,1,8,0:0:0:0:
133,156,14982,1,2,0:0:0:0:
133,156,15090,1,8,0:0:0:0:
133,156,15199,2,0,L|53:161,1,80,2|2,0:3|0:0,0:0:0:0:
211,242,15634,2,0,L|290:247,1,80,8|0,0:0|0:0,0:0:0:0:
334,118,16069,5,2,0:3:0:0:
201,172,16286,1,0,0:0:0:0:
247,308,16503,1,8,0:0:0:0:
364,201,16721,1,2,0:0:0:0:
364,201,16830,1,8,0:0:0:0:
364,201,16938,2,0,P|325:205|288:221,1,80,2|2,0:3|0:0,0:0:0:0:
451,266,17373,2,0,P|467:229|471:190,1,80,8|2,0:0|0:3,0:0:0:0:
346,293,17808,6,0,P|341:332|350:370,1,80,2|0,0:3|0:0,0:0:0:0:
451,266,18243,1,8,0:0:0:0:
370,147,18460,1,2,0:0:0:0:
370,147,18569,1,8,0:0:0:0:
370,147,18677,2,0,L|290:153,1,80,2|2,0:3|0:0,0:0:0:0:
338,254,19112,1,8,0:0:0:0:
461,139,19330,1,0,0:0:0:0:
323,75,19547,5,2,0:3:0:0:
477,167,19764,1,0,0:0:0:0:
394,20,19982,1,8,0:0:0:0:
351,219,20199,1,2,0:0:0:0:
351,219,20308,1,8,0:0:0:0:
351,219,20416,2,0,P|349:258|361:296,1,80,2|2,0:3|0:0,0:0:0:0:
381,133,20851,2,0,P|341:130|303:142,1,80,8|2,0:0|0:3,0:0:0:0:
477,246,21286,6,0,L|472:167,1,80,2|0,0:3|0:0,0:0:0:0:
359,265,21721,1,8,0:0:0:0:
241,243,21938,1,2,0:0:0:0:
241,243,22047,1,8,0:0:0:0:
241,243,22156,2,0,L|161:238,1,80,2|2,0:3|0:0,0:0:0:0:
312,163,22590,2,0,L|391:158,1,80,8|0,0:0|0:0,0:0:0:0:
359,265,23025,5,2,0:3:0:0:
232,170,23243,1,0,0:0:0:0:
392,158,23460,1,8,0:0:0:0:
296,322,23677,1,2,0:0:0:0:
296,322,23786,1,8,0:0:0:0:
296,322,23895,2,0,P|277:287|275:247,1,80,2|2,0:3|0:0,0:0:0:0:
476,140,24330,2,0,P|474:179|455:214,1,80,8|2,0:0|0:3,0:0:0:0:
312,130,24764,6,0,L|303:50,1,80,2|0,0:3|0:0,0:0:0:0:
411,81,25199,1,8,0:0:0:0:
337,236,25416,1,2,0:0:0:0:
337,236,25525,1,8,0:0:0:0:
337,236,25634,2,0,P|297:238|260:224,1,80,2|2,0:3|0:0,0:0:0:0:
312,130,26069,1,8,0:0:0:0:
432,258,26286,1,0,0:0:0:0:
432,258,26395,1,0,0:0:0:0:
432,258,26503,6,0,L|436:297,4,40,2|0|0|0|8,0:3|0:0|0:0|0:0|0:0,0:0:0:0:
312,130,27156,2,0,L|316:90,4,40,2|8|2|0|2,0:0|0:0|0:3|0:0|0:0,0:0:0:0:
301,233,27808,1,8,0:0:0:0:
213,100,28025,1,2,0:3:0:0:
391,35,28243,6,0,P|403:72|401:112,1,80,2|0,0:3|0:0,0:0:0:0:
301,233,28677,2,0,P|288:195|290:155,1,80,8|0,0:0|0:0,0:0:0:0:
298,128,29003,1,8,0:0:0:0:
309,102,29112,2,0,L|229:109,1,80,2|0,0:3|0:0,0:0:0:0:
389,183,29547,2,0,L|468:175,1,80,8|0,0:0|0:0,0:0:0:0:
309,102,29982,6,0,L|305:261,1,160,2|8,0:3|0:0,0:0:0:0:
234,145,30634,1,0,0:0:0:0:
234,145,30743,1,8,0:0:0:0:
234,145,30851,2,0,L|232:224,1,80,2|0,0:3|0:0,0:0:0:0:
119,340,31286,2,0,L|117:260,1,80,8|0,0:0|0:0,0:0:0:0:
232,224,31721,6,0,P|271:220|309:233,1,80,2|0,0:3|0:0,0:0:0:0:
419,149,32156,2,0,P|379:145|341:158,1,80,8|0,0:0|0:0,0:0:0:0:
318,172,32482,1,8,0:0:0:0:
301,194,32590,2,0,L|298:273,1,80,2|0,0:3|0:0,0:0:0:0:
419,149,33025,2,0,L|416:69,1,80,8|0,0:0|0:0,0:0:0:0:
296,113,33460,6,0,L|137:109,1,160,2|8,0:3|0:0,0:0:0:0:
253,38,34112,1,0,0:0:0:0:
253,38,34221,1,8,0:0:0:0:
253,38,34330,2,0,L|173:36,1,80,2|0,0:3|0:0,0:0:0:0:
133,190,34764,2,0,L|212:188,1,80,8|0,0:0|0:0,0:0:0:0:
348,87,35199,6,0,P|359:49|356:9,1,80,2|0,0:3|0:0,0:0:0:0:
253,38,35634,1,8,0:0:0:0:
288,177,35851,1,0,0:0:0:0:
288,177,35960,1,8,0:0:0:0:
288,177,36069,2,0,L|294:256,1,80,2|0,0:3|0:0,0:0:0:0:
413,350,36503,2,0,L|419:271,1,80,8|0,0:0|0:0,0:0:0:0:
288,177,36938,5,2,0:3:0:0:
299,306,37156,1,0,0:0:0:0:
358,236,37373,1,8,0:0:0:0:
229,247,37590,1,0,0:0:0:0:
229,247,37699,1,8,0:0:0:0:
229,247,37808,2,0,P|189:244|154:225,1,80,2|0,0:3|0:0,0:0:0:0:
309,186,38243,2,0,P|326:221|328:261,1,80,8|0,0:0|0:0,0:0:0:0:
217,145,38677,6,0,L|223:65,1,80,2|0,0:3|0:0,0:0:0:0:
316,112,39112,1,8,0:0:0:0:
209,242,39330,1,0,0:0:0:0:
209,242,39438,1,8,0:0:0:0:
209,242,39547,2,0,L|129:248,1,80,2|0,0:3|0:0,0:0:0:0:
287,193,39982,2,0,L|367:199,1,80,8|0,0:0|0:0,0:0:0:0:
203,282,40416,5,2,0:3:0:0:
248,103,40634,1,0,0:0:0:0:
311,249,40851,1,8,0:0:0:0:
140,197,41069,1,0,0:0:0:0:
140,197,41177,1,8,0:0:0:0:
140,197,41286,2,0,P|100:198|63:212,1,80,2|0,0:3|0:0,0:0:0:0:
225,253,41721,2,0,P|239:215|240:176,1,80,8|0,0:0|0:0,0:0:0:0:
80,87,42156,6,0,L|0:93,1,80,2|0,0:3|0:0,0:0:0:0:
161,170,42590,2,0,L|240:176,1,80,10|0,0:0|0:0,0:0:0:0:
248,103,42916,1,8,0:0:0:0:
248,103,43025,2,0,L|168:96,1,80,2|0,0:3|0:0,0:0:0:0:
5,168,43460,2,0,L|84:161,1,80,10|0,0:0|0:0,0:0:0:0:
168,96,43895,6,0,P|126:162|140:239,1,160,2|10,0:3|0:0,0:0:0:0:
301,196,44547,1,0,0:0:0:0:
301,196,44656,1,8,0:0:0:0:
301,196,44764,2,0,P|263:182|223:180,1,80,2|0,0:3|0:0,0:0:0:0:
115,326,45199,2,0,P|154:324|192:310,1,80,10|0,0:0|0:0,0:0:0:0:
301,196,45634,6,0,L|294:116,1,80,2|0,0:3|0:0,0:0:0:0:
218,277,46069,2,0,L|211:356,1,80,10|0,0:0|0:0,0:0:0:0:
285,364,46395,1,8,0:0:0:0:
285,364,46503,2,0,L|291:284,1,80,2|0,0:3|0:0,0:0:0:0:
220,121,46938,2,0,L|226:200,1,80,10|0,0:0|0:0,0:0:0:0:
135,65,47373,6,0,P|201:23|278:37,1,160,2|10,0:3|0:0,0:0:0:0:
381,97,48025,1,0,0:0:0:0:
381,97,48134,1,8,0:0:0:0:
381,97,48243,2,0,L|378:176,1,80,2|0,0:3|0:0,0:0:0:0:
286,246,48677,1,10,0:0:0:0:
263,111,48895,1,0,0:0:0:0:
375,250,49112,6,0,L|454:253,1,80,2|0,0:3|0:0,0:0:0:0:
422,138,49547,1,10,0:0:0:0:
286,246,49764,1,0,0:0:0:0:
286,246,49873,1,8,0:0:0:0:
286,246,49982,2,0,P|283:285|293:324,1,80,2|0,0:3|0:0,0:0:0:0:
415,217,50416,2,0,P|423:177|422:138,1,80,10|0,0:0|0:0,0:0:0:0:
293,149,50851,6,0,L|213:144,1,80,2|0,0:3|0:0,0:0:0:0:
315,43,51286,1,10,0:0:0:0:
422,138,51503,1,0,0:0:0:0:
422,138,51612,1,8,0:0:0:0:
422,138,51721,2,0,P|423:177|415:217,1,80,2|0,0:3|0:0,0:0:0:0:
357,313,52156,1,10,0:0:0:0:
329,171,52373,1,0,0:0:0:0:
415,217,52590,5,2,0:3:0:0:
267,246,52808,1,0,0:0:0:0:
315,101,53025,1,10,0:0:0:0:
352,289,53243,1,0,0:0:0:0:
352,289,53351,1,8,0:0:0:0:
352,289,53460,1,2,0:3:0:0:
170,228,53677,1,0,0:0:0:0:
315,101,53895,2,0,L|311:181,1,80,10|0,0:0|0:0,0:0:0:0:
311,180,54330,6,0,P|202:154|198:43,1,240.000009155274,2|0,0:3|0:0,0:0:0:0:
198,42,55634,6,0,L|118:49,1,80
83,103,56069,6,0,L|242:88,1,160,4|8,0:0|0:0,0:0:0:0:
207,240,56721,1,0,0:0:0:0:
207,240,56830,1,8,0:0:0:0:
207,240,56938,2,0,P|195:201|200:162,1,80,2|0,0:3|0:0,0:0:0:0:
276,26,57373,1,8,0:0:0:0:
290,193,57590,1,0,0:0:0:0:
195,67,57808,6,0,P|156:70|118:83,1,80,2|2,0:3|0:0,0:0:0:0:
199,162,58243,1,8,0:0:0:0:
321,98,58460,1,2,0:0:0:0:
321,98,58569,1,8,0:0:0:0:
321,98,58677,2,0,P|323:59|313:20,1,80,2|2,0:3|0:0,0:0:0:0:
195,67,59112,1,8,0:0:0:0:
290,193,59330,1,2,0:0:0:0:
399,92,59547,6,0,P|359:89|320:98,1,80,2|0,0:3|0:0,0:0:0:0:
195,177,59982,1,8,0:0:0:0:
302,231,60199,1,0,0:0:0:0:
302,231,60308,1,8,0:0:0:0:
302,231,60416,1,2,0:3:0:0:
182,319,60634,1,0,0:0:0:0:
195,177,60851,1,8,0:0:0:0:
261,352,61069,1,0,0:0:0:0:
101,282,61286,6,0,P|62:277|24:287,1,80,2|2,0:3|0:0,0:0:0:0:
147,371,61721,1,8,0:0:0:0:
187,216,61938,1,2,0:0:0:0:
187,216,62047,1,8,0:0:0:0:
187,216,62156,1,2,0:3:0:0:
66,355,62373,1,2,0:0:0:0:
226,311,62590,1,8,0:0:0:0:
157,139,62808,1,2,0:0:0:0:
287,215,63025,6,0,B|333:223|333:223|445:208,1,160,2|8,0:3|0:0,0:0:0:0:
373,46,63677,1,0,0:0:0:0:
373,46,63786,1,8,0:0:0:0:
373,46,63895,2,0,P|370:85|385:122,1,80,2|0,0:3|0:0,0:0:0:0:
445,208,64330,1,8,0:0:0:0:
458,72,64547,1,0,0:0:0:0:
324,172,64764,6,0,P|285:177|245:173,1,80,2|2,0:3|0:0,0:0:0:0:
135,145,65199,1,8,0:0:0:0:
113,254,65416,1,2,0:0:0:0:
113,254,65525,1,8,0:0:0:0:
113,254,65634,2,0,P|107:293|111:333,1,80,2|2,0:3|0:0,0:0:0:0:
208,295,66069,1,8,0:0:0:0:
135,145,66286,1,2,0:0:0:0:
35,250,66503,6,0,P|73:260|113:254,1,80,2|0,0:3|0:0,0:0:0:0:
217,212,66938,1,8,0:0:0:0:
111,332,67156,1,0,0:0:0:0:
111,332,67264,1,8,0:0:0:0:
111,332,67373,1,2,0:3:0:0:
79,175,67590,1,0,0:0:0:0:
208,295,67808,1,8,0:0:0:0:
45,251,68025,1,0,0:0:0:0:
171,107,68243,5,2,0:3:0:0:
104,358,68460,1,2,0:0:0:0:
73,144,68677,1,8,0:0:0:0:
234,323,68895,1,2,0:0:0:0:
234,323,69003,1,8,0:0:0:0:
234,323,69112,5,4,0:0:0:0:
45,251,69330,1,2,0:0:0:0:
45,251,69982,6,0,L|40:330,1,80,4|2,0:0|0:0,0:0:0:0:
226,286,70416,2,0,L|221:206,1,80,8|2,0:0|0:0,0:0:0:0:
139,316,70851,1,2,0:3:0:0:
267,362,71069,1,2,0:0:0:0:
156,281,71286,1,8,0:0:0:0:
284,327,71503,1,2,0:0:0:0:
175,243,71721,6,0,L|166:322,1,80,2|2,0:3|0:0,0:0:0:0:
253,197,72156,2,0,L|260:276,1,80,8|2,0:0|0:0,0:0:0:0:
319,136,72590,2,0,L|342:211,1,80,2|2,0:3|0:0,0:0:0:0:
371,62,73025,2,0,L|410:131,1,80,8|2,0:0|0:0,0:0:0:0:
447,230,73460,5,2,0:3:0:0:
343,212,73677,1,2,0:0:0:0:
379,311,73895,1,8,0:0:0:0:
410,131,74112,1,2,0:0:0:0:
236,195,74330,2,0,P|197:203|157:196,1,80,2|2,0:3|0:0,0:0:0:0:
300,309,74764,2,0,P|339:317|378:311,1,80,8|2,0:0|0:0,0:0:0:0:
343,212,75199,5,2,0:3:0:0:
228,267,75416,1,2,0:0:0:0:
333,339,75634,1,8,0:0:0:0:
253,173,75851,2,0,P|177:187|133:251,1,160,2|2,0:0|0:0,0:0:0:0:
228,267,76503,1,8,0:0:0:0:
184,105,76721,1,2,0:0:0:0:
38,169,76938,6,0,L|29:328,1,160,2|8,0:3|0:0,0:0:0:0:
132,252,77590,1,2,0:0:0:0:
234,299,77808,2,0,P|272:302|310:291,1,80,2|2,0:3|0:0,0:0:0:0:
261,189,78243,1,8,0:0:0:0:
159,324,78460,1,2,0:0:0:0:
344,372,78677,6,0,L|335:212,1,160,2|8,0:3|0:0,0:0:0:0:
234,299,79330,1,2,0:0:0:0:
423,328,79547,2,0,L|418:248,1,80,2|2,0:3|0:0,0:0:0:0:
330,130,79982,1,8,0:0:0:0:
234,299,80199,1,2,0:0:0:0:
131,199,80416,6,0,P|170:203|209:193,1,80,2|2,0:3|0:0,0:0:0:0:
330,130,80851,1,8,0:0:0:0:
249,277,81069,1,2,0:0:0:0:
305,105,81286,1,2,0:3:0:0:
323,343,81503,1,2,0:0:0:0:
209,193,81721,1,8,0:0:0:0:
415,217,81938,1,2,0:0:0:0:
415,217,82047,1,0,0:0:0:0:
415,217,82156,6,0,P|454:214|491:198,1,80,2|2,0:3|0:0,0:0:0:0:
305,105,82590,2,0,L|225:110,1,80,8|2,0:0|0:0,0:0:0:0:
422,116,83025,2,0,P|418:77|402:40,1,80,2|2,0:3|0:0,0:0:0:0:
310,227,83460,2,0,L|315:307,1,80,8|2,0:0|0:0,0:0:0:0:
178,326,83895,6,0,P|139:315|99:317,1,80,4|2,0:0|0:0,0:0:0:0:
14,232,84330,2,0,P|52:221|92:223,1,80,8|2,0:0|0:0,0:0:0:0:
201,304,84764,1,2,0:3:0:0:
157,175,84982,1,2,0:0:0:0:
99,317,85199,1,8,0:0:0:0:
249,218,85416,1,2,0:0:0:0:
156,85,85634,6,0,L|76:90,1,80,2|2,0:3|0:0,0:0:0:0:
248,128,86069,2,0,L|327:133,1,80,8|2,0:0|0:0,0:0:0:0:
157,175,86503,2,0,L|77:180,1,80,2|2,0:3|0:0,0:0:0:0:
249,218,86938,2,0,L|328:223,1,80,8|2,0:0|0:0,0:0:0:0:
297,82,87373,5,2,0:3:0:0:
157,175,87590,1,2,0:0:0:0:
249,218,87808,1,8,0:0:0:0:
172,58,88025,1,2,0:0:0:0:
87,229,88243,2,0,L|166:224,1,80,2|2,0:3|0:0,0:0:0:0:
299,215,88677,2,0,P|300:176|285:139,1,80,8|2,0:0|0:0,0:0:0:0:
224,44,89112,5,2,0:3:0:0:
205,195,89330,1,2,0:0:0:0:
321,71,89547,1,8,0:0:0:0:
167,114,89764,2,0,P|91:100|57:30,1,160,2|2,0:0|0:0,0:0:0:0:
193,27,90416,1,8,0:0:0:0:
205,195,90634,1,2,0:0:0:0:
91,100,90851,6,0,L|11:108,1,80,2|2,0:3|0:0,0:0:0:0:
96,181,91286,2,0,L|16:189,1,80,8|2,0:0|0:0,0:0:0:0:
162,230,91721,2,0,L|241:238,1,80,2|2,0:3|0:0,0:0:0:0:
157,311,92156,2,0,L|236:319,1,80,8|2,0:0|0:0,0:0:0:0:
331,187,92590,6,0,P|341:148|340:108,1,80,2|2,0:3|0:0,0:0:0:0:
233,160,93025,2,0,P|231:199|242:238,1,80,8|2,0:0|0:0,0:0:0:0:
339,367,93460,2,0,P|341:327|331:289,1,80,2|2,0:3|0:0,0:0:0:0:
242,238,93895,2,0,P|231:276|233:316,1,80,8|2,0:0|0:0,0:0:0:0:
408,258,94330,6,0,L|401:178,1,80,2|2,0:3|0:0,0:0:0:0:
274,129,94764,1,8,0:0:0:0:
330,288,94982,1,2,0:0:0:0:
305,103,95199,1,2,0:3:0:0:
239,267,95416,1,2,0:0:0:0:
335,77,95634,1,8,0:0:0:0:
149,247,95851,1,2,0:0:0:0:
149,247,95960,1,0,0:0:0:0:
149,247,96069,6,0,P|152:294|176:334,1,95.9999970703126,4|0,0:0|0:0,0:0:0:0:
229,171,96503,1,0,0:0:0:0:
68,181,96721,6,0,P|76:252|149:247,1,160,4|0,0:0|0:0,0:0:0:0:
204,96,97373,1,8,0:0:0:0:
302,148,97590,6,0,P|379:156|438:106,1,160,4|0,0:0|0:0,0:0:0:0:
349,58,98243,1,8,0:0:0:0:
204,96,98460,1,2,0:0:0:0:
302,226,98677,2,0,P|309:186|302:148,1,80,2|2,0:3|0:0,0:0:0:0:
265,33,99112,1,8,0:0:0:0:
214,188,99330,1,0,0:0:0:0:
333,234,99547,6,0,P|372:237|410:224,1,80,2|0,0:3|0:0,0:0:0:0:
214,188,99982,1,8,0:0:0:0:
266,305,100199,2,0,P|291:335|326:353,1,80,2|2,0:0|0:3,0:0:0:0:
214,188,100634,1,2,0:0:0:0:
168,307,100851,2,0,P|164:346|177:384,1,80,8|2,0:0|0:0,0:0:0:0:
214,188,101286,6,0,L|203:108,1,80,2|0,0:3|0:0,0:0:0:0:
108,194,101721,1,8,0:0:0:0:
168,307,101938,1,2,0:0:0:0:
285,254,102156,2,0,P|323:244|363:246,1,80,2|2,0:3|0:0,0:0:0:0:
333,346,102590,1,8,0:0:0:0:
168,307,102808,1,0,0:0:0:0:
168,307,102916,1,0,0:0:0:0:
168,307,103025,6,0,L|128:312,3,40,2|0|0|0,0:3|0:0|0:0|0:0,0:0:0:0:
311,218,103677,2,0,L|351:223,3,40,2|0|0|0,0:0|0:0|0:0|0:0,0:0:0:0:
