osu file format v14

[General]
AudioFilename: audio.mp3
AudioLeadIn: 0
PreviewTime: 112377
Countdown: 0
SampleSet: Normal
StackLeniency: 0.2
Mode: 1
LetterboxInBreaks: 0
WidescreenStoryboard: 1

[Editor]
DistanceSpacing: 1.2
BeatDivisor: 6
GridSize: 32
TimelineZoom: 2

[Metadata]
Title:Hello/How Are You ft. Hastune Miku
TitleUnicode:ハロ/ハワユ ft. 初音ミク
Artist:nanou
ArtistUnicode:ナノウ
Creator:josh1024
Version:Oni
Source:
Tags:Vocaloid ほえほえP Hoehoe-P コヤマヒデカズ Append Soft
BeatmapID:1694062
BeatmapSetID:807127

[Difficulty]
HPDrainRate:5
CircleSize:2
OverallDifficulty:5.5
ApproachRate:5
SliderMultiplier:1.4
SliderTickRate:3

[Events]
//Background and Video events
0,0,"Hello-How Are You 2.png",0,0
//Break Periods
//Storyboard Layer 0 (Background)
//Storyboard Layer 1 (Fail)
//Storyboard Layer 2 (Pass)
//Storyboard Layer 3 (Foreground)
//Storyboard Sound Samples

[TimingPoints]
8809,631.512472371329,4,1,0,100,1,0
117429,-100,4,1,0,100,0,1
137637,-100,4,1,0,100,0,0

[HitObjects]
256,192,13861,5,8,0:0:0:0:
256,192,14387,1,8,0:0:0:0:
256,192,14492,1,8,0:0:0:0:
256,192,14808,1,8,0:0:0:0:
256,192,16387,1,8,0:0:0:0:
256,192,16913,1,8,0:0:0:0:
256,192,17018,1,8,0:0:0:0:
256,192,17334,1,8,0:0:0:0:
256,192,17965,1,0,0:0:0:0:
256,192,18281,1,8,0:0:0:0:
256,192,18597,1,8,0:0:0:0:
256,192,18913,1,8,0:0:0:0:
256,192,19439,1,8,0:0:0:0:
256,192,19544,1,8,0:0:0:0:
256,192,19860,1,8,0:0:0:0:
256,192,21439,1,0,0:0:0:0:
256,192,21965,1,8,0:0:0:0:
256,192,22070,1,8,0:0:0:0:
256,192,22386,1,8,0:0:0:0:
256,192,23965,1,8,0:0:0:0:
256,192,24491,1,8,0:0:0:0:
256,192,24596,1,8,0:0:0:0:
256,192,24912,1,8,0:0:0:0:
256,192,26491,1,8,0:0:0:0:
256,192,27017,1,8,0:0:0:0:
256,192,27122,1,8,0:0:0:0:
256,192,27438,1,8,0:0:0:0:
256,192,28070,1,0,0:0:0:0:
256,192,28385,1,0,0:0:0:0:
256,192,28701,1,8,0:0:0:0:
256,192,29017,1,8,0:0:0:0:
256,192,29543,1,8,0:0:0:0:
256,192,29648,1,8,0:0:0:0:
256,192,29964,1,8,0:0:0:0:
256,192,31543,1,0,0:0:0:0:
256,192,32069,1,8,0:0:0:0:
256,192,32174,1,8,0:0:0:0:
256,192,32490,1,8,0:0:0:0:
256,192,34069,1,0,0:0:0:0:
256,192,34385,1,8,0:0:0:0:
256,192,34595,1,0,0:0:0:0:
256,192,34701,1,0,0:0:0:0:
256,192,35016,1,8,0:0:0:0:
256,192,35227,1,0,0:0:0:0:
256,192,35332,1,0,0:0:0:0:
256,192,35648,1,0,0:0:0:0:
256,192,35964,1,12,0:0:0:0:
256,192,36595,1,4,0:0:0:0:
256,192,37227,1,8,0:0:0:0:
256,192,37542,1,0,0:0:0:0:
256,192,37858,1,0,0:0:0:0:
256,192,38174,1,8,0:0:0:0:
256,192,38805,1,8,0:0:0:0:
256,192,39121,1,0,0:0:0:0:
256,192,39437,1,0,0:0:0:0:
256,192,39753,1,8,0:0:0:0:
256,192,40068,1,0,0:0:0:0:
256,192,40595,1,0,0:0:0:0:
256,192,40700,1,0,0:0:0:0:
256,192,41016,1,8,0:0:0:0:
256,192,41647,1,0,0:0:0:0:
256,192,42279,1,8,0:0:0:0:
256,192,42594,1,0,0:0:0:0:
256,192,42910,1,0,0:0:0:0:
256,192,43226,1,8,0:0:0:0:
256,192,43857,1,0,0:0:0:0:
256,192,44068,1,0,0:0:0:0:
256,192,44173,1,8,0:0:0:0:
256,192,44489,1,0,0:0:0:0:
256,192,44805,1,8,0:0:0:0:
256,192,45120,1,8,0:0:0:0:
256,192,45752,1,0,0:0:0:0:
256,192,46068,1,8,0:0:0:0:
256,192,46383,1,0,0:0:0:0:
256,192,46699,1,4,0:0:0:0:
256,192,47331,1,8,0:0:0:0:
256,192,47647,1,0,0:0:0:0:
256,192,47962,1,0,0:0:0:0:
256,192,48278,1,8,0:0:0:0:
256,192,48910,1,0,0:0:0:0:
256,192,49225,1,0,0:0:0:0:
256,192,49541,1,0,0:0:0:0:
256,192,49857,1,8,0:0:0:0:
256,192,50173,1,0,0:0:0:0:
256,192,50699,1,0,0:0:0:0:
256,192,50804,1,0,0:0:0:0:
256,192,51120,1,8,0:0:0:0:
256,192,51751,1,0,0:0:0:0:
256,192,52383,1,8,0:0:0:0:
256,192,52699,1,0,0:0:0:0:
256,192,53014,1,8,0:0:0:0:
256,192,53330,1,8,0:0:0:0:
256,192,53962,1,0,0:0:0:0:
256,192,54172,1,0,0:0:0:0:
256,192,54277,1,0,0:0:0:0:
256,192,54593,1,8,0:0:0:0:
256,192,54804,1,0,0:0:0:0:
256,192,54909,1,0,0:0:0:0:
256,192,55225,1,8,0:0:0:0:
256,192,55435,1,0,0:0:0:0:
256,192,55540,1,0,0:0:0:0:
256,192,55856,1,0,0:0:0:0:
256,192,56172,1,12,0:0:0:0:
256,192,56803,1,0,0:0:0:0:
256,192,57330,1,0,0:0:0:0:
256,192,57435,1,8,0:0:0:0:
256,192,57645,1,0,0:0:0:0:
256,192,57751,1,0,0:0:0:0:
256,192,58066,1,0,0:0:0:0:
256,192,58382,1,0,0:0:0:0:
256,192,58698,1,8,0:0:0:0:
256,192,59224,1,0,0:0:0:0:
256,192,59329,1,0,0:0:0:0:
256,192,59540,1,8,0:0:0:0:
256,192,59645,1,0,0:0:0:0:
256,192,59856,1,0,0:0:0:0:
256,192,59961,1,8,0:0:0:0:
256,192,60277,1,8,0:0:0:0:
256,192,60487,1,8,0:0:0:0:
256,192,61224,1,8,0:0:0:0:
256,192,61540,1,8,0:0:0:0:
256,192,61856,1,0,0:0:0:0:
256,192,62487,1,8,0:0:0:0:
256,192,62698,1,8,0:0:0:0:
256,192,62803,1,0,0:0:0:0:
256,192,63119,1,0,0:0:0:0:
256,192,63329,1,0,0:0:0:0:
256,192,63434,1,0,0:0:0:0:
256,192,63750,1,8,0:0:0:0:
256,192,64066,1,0,0:0:0:0:
256,192,64276,1,0,0:0:0:0:
256,192,64382,1,8,0:0:0:0:
256,192,64697,1,8,0:0:0:0:
256,192,64908,1,8,0:0:0:0:
256,192,65224,1,0,0:0:0:0:
256,192,65329,1,0,0:0:0:0:
256,192,65960,1,0,0:0:0:0:
256,192,66276,1,8,0:0:0:0:
256,192,66908,1,0,0:0:0:0:
256,192,67434,1,8,0:0:0:0:
256,192,67539,1,8,0:0:0:0:
256,192,67750,1,0,0:0:0:0:
256,192,67855,1,0,0:0:0:0:
256,192,68065,1,0,0:0:0:0:
256,192,68171,1,8,0:0:0:0:
256,192,68487,1,8,0:0:0:0:
256,192,68697,1,8,0:0:0:0:
256,192,69013,1,8,0:0:0:0:
256,192,69434,1,0,0:0:0:0:
256,192,69644,1,0,0:0:0:0:
256,192,69749,1,0,0:0:0:0:
256,192,69960,1,0,0:0:0:0:
256,192,70066,1,8,0:0:0:0:
256,192,70381,1,8,0:0:0:0:
256,192,70591,1,8,0:0:0:0:
256,192,71328,1,8,0:0:0:0:
256,192,71961,1,0,0:0:0:0:
256,192,72486,1,0,0:0:0:0:
256,192,72591,1,8,0:0:0:0:
256,192,72907,1,8,0:0:0:0:
256,192,73224,1,0,0:0:0:0:
256,192,73539,1,0,0:0:0:0:
256,192,73855,1,8,0:0:0:0:
256,192,74170,1,8,0:0:0:0:
256,192,74381,1,8,0:0:0:0:
256,192,74486,1,0,0:0:0:0:
256,192,74802,1,0,0:0:0:0:
256,192,75117,1,8,0:0:0:0:
256,192,75433,1,0,0:0:0:0:
256,192,76065,1,0,0:0:0:0:
256,192,76380,1,8,0:0:0:0:
256,192,77012,1,8,0:0:0:0:
256,192,77222,1,8,0:0:0:0:
256,192,77328,1,8,0:0:0:0:
256,192,77643,1,8,0:0:0:0:
256,192,77959,1,0,0:0:0:0:
256,192,78170,1,0,0:0:0:0:
256,192,78275,1,8,0:0:0:0:
256,192,78485,1,8,0:0:0:0:
256,192,78801,1,8,0:0:0:0:
256,192,79117,1,0,0:0:0:0:
256,192,79222,1,8,0:0:0:0:
256,192,79433,1,8,0:0:0:0:
256,192,79538,1,8,0:0:0:0:
256,192,79748,1,8,0:0:0:0:
256,192,79854,1,0,0:0:0:0:
256,192,80064,1,0,0:0:0:0:
256,192,80169,1,8,0:0:0:0:
256,192,80485,1,8,0:0:0:0:
256,192,80801,1,8,0:0:0:0:
256,192,81011,1,0,0:0:0:0:
256,192,81117,1,8,0:0:0:0:
256,192,81327,1,0,0:0:0:0:
256,192,81432,1,8,0:0:0:0:
256,192,81643,1,8,0:0:0:0:
256,192,82064,1,8,0:0:0:0:
256,192,82590,1,8,0:0:0:0:
256,192,82695,1,8,0:0:0:0:
256,192,83011,1,0,0:0:0:0:
256,192,83327,1,8,0:0:0:0:
256,192,83643,1,8,0:0:0:0:
256,192,83958,1,8,0:0:0:0:
256,192,84274,1,0,0:0:0:0:
256,192,84590,1,8,0:0:0:0:
256,192,85222,1,8,0:0:0:0:
256,192,85537,1,0,0:0:0:0:
256,192,85853,1,8,0:0:0:0:
256,192,86485,1,8,0:0:0:0:
256,192,86800,1,8,0:0:0:0:
256,192,87432,1,8,0:0:0:0:
256,192,87642,1,8,0:0:0:0:
256,192,87748,1,8,0:0:0:0:
256,192,87958,1,8,0:0:0:0:
256,192,88274,1,0,0:0:0:0:
256,192,88379,1,8,0:0:0:0:
256,192,88590,1,0,0:0:0:0:
256,192,88695,1,8,0:0:0:0:
256,192,89011,1,8,0:0:0:0:
256,192,89537,1,8,0:0:0:0:
256,192,89642,1,8,0:0:0:0:
256,192,89958,1,8,0:0:0:0:
256,192,90168,1,8,0:0:0:0:
256,192,90274,1,8,0:0:0:0:
256,192,90589,1,0,0:0:0:0:
256,192,90800,1,0,0:0:0:0:
256,192,90905,1,8,0:0:0:0:
256,192,91116,1,0,0:0:0:0:
256,192,91221,1,8,0:0:0:0:
256,192,91431,1,8,0:0:0:0:
256,192,91537,1,8,0:0:0:0:
256,192,91747,1,8,0:0:0:0:
256,192,91852,1,8,0:0:0:0:
256,192,92484,1,8,0:0:0:0:
256,192,92694,1,8,0:0:0:0:
256,192,92800,1,8,0:0:0:0:
256,192,93115,1,0,0:0:0:0:
256,192,93431,1,8,0:0:0:0:
256,192,93747,1,8,0:0:0:0:
256,192,94063,1,8,0:0:0:0:
256,192,94378,1,0,0:0:0:0:
256,192,94694,1,8,0:0:0:0:
256,192,95010,1,8,0:0:0:0:
256,192,95220,1,8,0:0:0:0:
256,192,95536,1,8,0:0:0:0:
256,192,95641,1,8,0:0:0:0:
256,192,96273,1,0,0:0:0:0:
256,192,96589,1,8,0:0:0:0:
256,192,97220,1,0,0:0:0:0:
256,192,97536,1,0,0:0:0:0:
256,192,97852,1,8,0:0:0:0:
256,192,98378,1,0,0:0:0:0:
256,192,98483,1,0,0:0:0:0:
256,192,98799,1,0,0:0:0:0:
256,192,99115,1,8,0:0:0:0:
256,192,99641,1,0,0:0:0:0:
256,192,99746,1,0,0:0:0:0:
256,192,100062,1,0,0:0:0:0:
256,192,100378,1,8,0:0:0:0:
256,192,100694,1,8,0:0:0:0:
256,192,100904,1,0,0:0:0:0:
256,192,101009,1,0,0:0:0:0:
256,192,101325,1,0,0:0:0:0:
256,192,101641,1,8,0:0:0:0:
256,192,102272,1,0,0:0:0:0:
256,192,102588,1,0,0:0:0:0:
256,192,102904,1,8,0:0:0:0:
256,192,103430,1,0,0:0:0:0:
256,192,103535,1,0,0:0:0:0:
256,192,103851,1,0,0:0:0:0:
256,192,104167,1,8,0:0:0:0:
256,192,104693,1,0,0:0:0:0:
256,192,104798,1,0,0:0:0:0:
256,192,105114,1,0,0:0:0:0:
256,192,105430,1,8,0:0:0:0:
256,192,105746,1,8,0:0:0:0:
256,192,105956,1,8,0:0:0:0:
256,192,106061,1,0,0:0:0:0:
256,192,106693,1,8,0:0:0:0:
256,192,107009,1,8,0:0:0:0:
256,192,107324,1,0,0:0:0:0:
256,192,107640,1,8,0:0:0:0:
256,192,107956,1,8,0:0:0:0:
256,192,108272,1,8,0:0:0:0:
256,192,108482,1,0,0:0:0:0:
256,192,108587,1,0,0:0:0:0:
256,192,109114,1,0,0:0:0:0:
256,192,109219,1,8,0:0:0:0:
256,192,109535,1,8,0:0:0:0:
256,192,109850,1,0,0:0:0:0:
256,192,110166,1,0,0:0:0:0:
256,192,110482,1,8,0:0:0:0:
256,192,110798,1,0,0:0:0:0:
256,192,111008,1,8,0:0:0:0:
256,192,111114,1,8,0:0:0:0:
256,192,111745,1,8,0:0:0:0:
256,192,112271,1,0,0:0:0:0:
256,192,112377,1,0,0:0:0:0:
256,192,112692,1,0,0:0:0:0:
256,192,113009,1,8,0:0:0:0:
256,192,113324,1,0,0:0:0:0:
256,192,113534,1,0,0:0:0:0:
256,192,113640,1,0,0:0:0:0:
256,192,113955,1,0,0:0:0:0:
256,192,114272,1,8,0:0:0:0:
256,192,114587,1,0,0:0:0:0:
256,192,114903,1,8,0:0:0:0:
256,192,115218,1,8,0:0:0:0:
256,192,115534,1,8,0:0:0:0:
256,192,115850,1,0,0:0:0:0:
256,192,116060,1,8,0:0:0:0:
256,192,116797,1,4,0:0:0:0:
256,192,117429,1,0,0:0:0:0:
256,192,117639,1,0,0:0:0:0:
256,192,117744,1,8,0:0:0:0:
256,192,117955,1,8,0:0:0:0:
256,192,118061,1,0,0:0:0:0:
256,192,118271,1,0,0:0:0:0:
256,192,118377,1,8,0:0:0:0:
256,192,118586,1,0,0:0:0:0:
256,192,118692,1,0,0:0:0:0:
256,192,119007,1,8,0:0:0:0:
256,192,119534,1,0,0:0:0:0:
256,192,119639,1,0,0:0:0:0:
256,192,119849,1,0,0:0:0:0:
256,192,119955,1,8,0:0:0:0:
256,192,120165,1,0,0:0:0:0:
256,192,120270,1,0,0:0:0:0:
256,192,120481,1,0,0:0:0:0:
256,192,120587,1,8,0:0:0:0:
256,192,120797,1,0,0:0:0:0:
256,192,120903,1,8,0:0:0:0:
256,192,121112,1,8,0:0:0:0:
256,192,121218,1,0,0:0:0:0:
256,192,121533,1,8,0:0:0:0:
256,192,122060,1,8,0:0:0:0:
256,192,122165,1,8,0:0:0:0:
256,192,122375,1,0,0:0:0:0:
256,192,122481,1,0,0:0:0:0:
256,192,122797,1,0,0:0:0:0:
256,192,123113,1,8,0:0:0:0:
256,192,123323,1,8,0:0:0:0:
256,192,123428,1,8,0:0:0:0:
256,192,123639,1,8,0:0:0:0:
256,192,123744,1,0,0:0:0:0:
256,192,123954,1,0,0:0:0:0:
256,192,124270,1,8,0:0:0:0:
256,192,124691,1,8,0:0:0:0:
256,192,124902,1,8,0:0:0:0:
256,192,125007,1,0,0:0:0:0:
256,192,125323,1,0,0:0:0:0:
256,192,125639,1,8,0:0:0:0:
256,192,125954,1,8,0:0:0:0:
256,192,126796,1,8,0:0:0:0:
256,192,126901,1,8,0:0:0:0:
256,192,127112,1,0,0:0:0:0:
256,192,127217,1,8,0:0:0:0:
256,192,127428,1,8,0:0:0:0:
256,192,127533,1,0,0:0:0:0:
256,192,127743,1,0,0:0:0:0:
256,192,127849,1,8,0:0:0:0:
256,192,128059,1,8,0:0:0:0:
256,192,128165,1,0,0:0:0:0:
256,192,128375,1,0,0:0:0:0:
256,192,128480,1,8,0:0:0:0:
256,192,128691,1,8,0:0:0:0:
256,192,128796,1,8,0:0:0:0:
256,192,129006,1,0,0:0:0:0:
256,192,129322,1,0,0:0:0:0:
256,192,129638,1,0,0:0:0:0:
256,192,129743,1,0,0:0:0:0:
256,192,129954,1,0,0:0:0:0:
256,192,130059,1,8,0:0:0:0:
256,192,130269,1,0,0:0:0:0:
256,192,130375,1,0,0:0:0:0:
256,192,130585,1,0,0:0:0:0:
256,192,130691,1,8,0:0:0:0:
256,192,130901,1,0,0:0:0:0:
256,192,131007,1,8,0:0:0:0:
256,192,131217,1,8,0:0:0:0:
256,192,131323,1,8,0:0:0:0:
256,192,131638,1,0,0:0:0:0:
256,192,132164,1,8,0:0:0:0:
256,192,132269,1,0,0:0:0:0:
256,192,132480,1,0,0:0:0:0:
256,192,132586,1,0,0:0:0:0:
256,192,132901,1,8,0:0:0:0:
256,192,133111,1,0,0:0:0:0:
256,192,133217,1,0,0:0:0:0:
256,192,133427,1,0,0:0:0:0:
256,192,133532,1,8,0:0:0:0:
256,192,133743,1,8,0:0:0:0:
256,192,133849,1,8,0:0:0:0:
256,192,134058,1,8,0:0:0:0:
256,192,134164,1,0,0:0:0:0:
256,192,134374,1,8,0:0:0:0:
256,192,134795,1,0,0:0:0:0:
256,192,135112,1,0,0:0:0:0:
256,192,135427,1,8,0:0:0:0:
256,192,135637,1,0,0:0:0:0:
256,192,135743,1,8,0:0:0:0:
256,192,136058,1,8,0:0:0:0:
256,192,137006,1,8,0:0:0:0:
256,192,137638,1,6,0:0:0:0:
