osu file format v14

[General]
AudioFilename: audio.mp3
AudioLeadIn: 0
PreviewTime: 112377
Countdown: 0
SampleSet: Normal
StackLeniency: 0.2
Mode: 1
LetterboxInBreaks: 0
WidescreenStoryboard: 1

[Editor]
DistanceSpacing: 1.2
BeatDivisor: 2
GridSize: 32
TimelineZoom: 1.3

[Metadata]
Title:Hello/How Are You ft. Hastune Miku
TitleUnicode:ハロ/ハワユ ft. 初音ミク
Artist:nanou
ArtistUnicode:ナノウ
Creator:josh1024
Version:Futsuu
Source:
Tags:Vocaloid ほえほえP Hoehoe-P コヤマヒデカズ Append Soft
BeatmapID:1694059
BeatmapSetID:807127

[Difficulty]
HPDrainRate:5.5
CircleSize:2
OverallDifficulty:5
ApproachRate:5
SliderMultiplier:1.4
SliderTickRate:3

[Events]
//Background and Video events
0,0,"Hello-How Are You 2.png",0,0
//Break Periods
//Storyboard Layer 0 (Background)
//Storyboard Layer 1 (Fail)
//Storyboard Layer 2 (Pass)
//Storyboard Layer 3 (Foreground)
//Storyboard Sound Samples

[TimingPoints]
8809,631.512472371329,4,1,0,100,1,0
117429,-100,4,1,0,100,0,1
137637,-100,4,1,0,100,0,0

[HitObjects]
256,192,13861,5,8,0:0:0:0:
256,192,14808,1,8,0:0:0:0:
256,192,16387,1,8,0:0:0:0:
256,192,17334,1,8,0:0:0:0:
256,192,17965,1,0,0:0:0:0:
256,192,18281,1,8,0:0:0:0:
256,192,18913,1,8,0:0:0:0:
256,192,19860,1,8,0:0:0:0:
256,192,21439,1,0,0:0:0:0:
256,192,22386,1,8,0:0:0:0:
256,192,23965,1,8,0:0:0:0:
256,192,24912,1,8,0:0:0:0:
256,192,26491,1,8,0:0:0:0:
256,192,27438,1,8,0:0:0:0:
256,192,28070,1,0,0:0:0:0:
256,192,28385,1,0,0:0:0:0:
256,192,28701,1,8,0:0:0:0:
256,192,29017,1,8,0:0:0:0:
256,192,29964,1,8,0:0:0:0:
256,192,31543,1,0,0:0:0:0:
256,192,32490,1,8,0:0:0:0:
256,192,34069,1,0,0:0:0:0:
256,192,34701,1,0,0:0:0:0:
256,192,35332,1,0,0:0:0:0:
256,192,35648,1,0,0:0:0:0:
256,192,35964,1,12,0:0:0:0:
256,192,36595,1,0,0:0:0:0:
256,192,37227,1,8,0:0:0:0:
256,192,37858,1,0,0:0:0:0:
256,192,38174,1,8,0:0:0:0:
256,192,38805,1,8,0:0:0:0:
256,192,39121,1,0,0:0:0:0:
256,192,39437,1,0,0:0:0:0:
256,192,39753,1,8,0:0:0:0:
256,192,40068,1,0,0:0:0:0:
256,192,40700,1,0,0:0:0:0:
256,192,41016,1,8,0:0:0:0:
256,192,41647,1,0,0:0:0:0:
256,192,42279,1,8,0:0:0:0:
256,192,42910,1,0,0:0:0:0:
256,192,43226,1,8,0:0:0:0:
256,192,43857,1,0,0:0:0:0:
256,192,44173,1,8,0:0:0:0:
256,192,44489,1,0,0:0:0:0:
256,192,44805,1,8,0:0:0:0:
256,192,45120,1,8,0:0:0:0:
256,192,46068,1,8,0:0:0:0:
256,192,46699,1,0,0:0:0:0:
256,192,47331,1,8,0:0:0:0:
256,192,47962,1,0,0:0:0:0:
256,192,48278,1,8,0:0:0:0:
256,192,48910,1,8,0:0:0:0:
256,192,49225,1,0,0:0:0:0:
256,192,49541,1,0,0:0:0:0:
256,192,49857,1,8,0:0:0:0:
256,192,50172,1,8,0:0:0:0:
256,192,50804,1,0,0:0:0:0:
256,192,51120,1,8,0:0:0:0:
256,192,51751,1,0,0:0:0:0:
256,192,52383,1,8,0:0:0:0:
256,192,53014,1,0,0:0:0:0:
256,192,53330,1,8,0:0:0:0:
256,192,53962,1,8,0:0:0:0:
256,192,54277,1,0,0:0:0:0:
256,192,54909,1,0,0:0:0:0:
256,192,55540,1,0,0:0:0:0:
256,192,55856,1,0,0:0:0:0:
256,192,56172,1,12,0:0:0:0:
256,192,56803,1,0,0:0:0:0:
256,192,57435,1,0,0:0:0:0:
256,192,58066,1,0,0:0:0:0:
256,192,58382,1,0,0:0:0:0:
256,192,58698,1,8,0:0:0:0:
256,192,59329,1,0,0:0:0:0:
256,192,59961,1,8,0:0:0:0:
256,192,60277,1,8,0:0:0:0:
256,192,60593,1,0,0:0:0:0:
256,192,61856,1,0,0:0:0:0:
256,192,62487,1,8,0:0:0:0:
256,192,63119,1,0,0:0:0:0:
256,192,63434,1,8,0:0:0:0:
256,192,63750,1,8,0:0:0:0:
256,192,64382,1,0,0:0:0:0:
256,192,65013,1,8,0:0:0:0:
256,192,65329,1,0,0:0:0:0:
256,192,66908,1,0,0:0:0:0:
256,192,67539,1,8,0:0:0:0:
256,192,68171,1,0,0:0:0:0:
256,192,68487,1,8,0:0:0:0:
256,192,68803,1,8,0:0:0:0:
256,192,69434,1,0,0:0:0:0:
256,192,70066,1,0,0:0:0:0:
256,192,70381,1,8,0:0:0:0:
256,192,70698,1,8,0:0:0:0:
256,192,71961,1,0,0:0:0:0:
256,192,72591,1,8,0:0:0:0:
256,192,73224,1,0,0:0:0:0:
256,192,73539,1,0,0:0:0:0:
256,192,73855,1,8,0:0:0:0:
256,192,74486,1,0,0:0:0:0:
256,192,75117,1,8,0:0:0:0:
256,192,75433,1,0,0:0:0:0:
256,192,77012,1,8,0:0:0:0:
256,192,77643,1,8,0:0:0:0:
256,192,77959,1,8,0:0:0:0:
256,192,78275,1,8,0:0:0:0:
256,192,78906,1,8,0:0:0:0:
256,192,79538,1,8,0:0:0:0:
256,192,79854,1,0,0:0:0:0:
256,192,80169,1,0,0:0:0:0:
256,192,80801,1,8,0:0:0:0:
256,192,81117,1,8,0:0:0:0:
256,192,81432,1,8,0:0:0:0:
256,192,82064,1,8,0:0:0:0:
256,192,82695,1,0,0:0:0:0:
256,192,83327,1,8,0:0:0:0:
256,192,83643,1,0,0:0:0:0:
256,192,83958,1,8,0:0:0:0:
256,192,84590,1,8,0:0:0:0:
256,192,85222,1,0,0:0:0:0:
256,192,85537,1,0,0:0:0:0:
256,192,85853,1,8,0:0:0:0:
256,192,86485,1,8,0:0:0:0:
256,192,87432,1,8,0:0:0:0:
256,192,87748,1,8,0:0:0:0:
256,192,88379,1,8,0:0:0:0:
256,192,88695,1,8,0:0:0:0:
256,192,89011,1,0,0:0:0:0:
256,192,89642,1,8,0:0:0:0:
256,192,90274,1,8,0:0:0:0:
256,192,90905,1,0,0:0:0:0:
256,192,91221,1,0,0:0:0:0:
256,192,91537,1,8,0:0:0:0:
256,192,91852,1,8,0:0:0:0:
256,192,92484,1,0,0:0:0:0:
256,192,92800,1,8,0:0:0:0:
256,192,93431,1,8,0:0:0:0:
256,192,93747,1,8,0:0:0:0:
256,192,94063,1,8,0:0:0:0:
256,192,94694,1,0,0:0:0:0:
256,192,95326,1,8,0:0:0:0:
256,192,95641,1,8,0:0:0:0:
256,192,97220,1,0,0:0:0:0:
256,192,97536,1,0,0:0:0:0:
256,192,97852,1,8,0:0:0:0:
256,192,98483,1,0,0:0:0:0:
256,192,98799,1,0,0:0:0:0:
256,192,99115,1,8,0:0:0:0:
256,192,99746,1,0,0:0:0:0:
256,192,100378,1,0,0:0:0:0:
256,192,101009,1,0,0:0:0:0:
256,192,101325,1,0,0:0:0:0:
256,192,101641,1,0,0:0:0:0:
256,192,102272,1,0,0:0:0:0:
256,192,102588,1,0,0:0:0:0:
256,192,102904,1,8,0:0:0:0:
256,192,103535,1,0,0:0:0:0:
256,192,103851,1,0,0:0:0:0:
256,192,104167,1,8,0:0:0:0:
256,192,104798,1,0,0:0:0:0:
256,192,105430,1,0,0:0:0:0:
256,192,105746,1,8,0:0:0:0:
256,192,106061,1,0,0:0:0:0:
256,192,106693,1,0,0:0:0:0:
256,192,107324,1,8,0:0:0:0:
256,192,107640,1,8,0:0:0:0:
256,192,107956,1,8,0:0:0:0:
256,192,108587,1,8,0:0:0:0:
256,192,109219,1,0,0:0:0:0:
256,192,109850,1,8,0:0:0:0:
256,192,110166,1,0,0:0:0:0:
256,192,110482,1,8,0:0:0:0:
256,192,111114,1,8,0:0:0:0:
256,192,112377,1,0,0:0:0:0:
256,192,112692,1,0,0:0:0:0:
256,192,113009,1,0,0:0:0:0:
256,192,113640,1,0,0:0:0:0:
256,192,113955,1,0,0:0:0:0:
256,192,114272,1,0,0:0:0:0:
256,192,114903,12,0,116166,0:0:0:0:
256,192,117429,5,4,0:0:0:0:
256,192,118061,1,8,0:0:0:0:
256,192,118377,1,0,0:0:0:0:
256,192,118692,1,8,0:0:0:0:
256,192,119007,1,8,0:0:0:0:
256,192,119639,1,0,0:0:0:0:
256,192,119955,1,8,0:0:0:0:
256,192,120587,1,0,0:0:0:0:
256,192,120903,1,0,0:0:0:0:
256,192,121218,1,8,0:0:0:0:
256,192,121533,1,8,0:0:0:0:
256,192,122165,1,0,0:0:0:0:
256,192,122481,1,0,0:0:0:0:
256,192,123113,1,8,0:0:0:0:
256,192,123744,1,0,0:0:0:0:
256,192,124060,1,0,0:0:0:0:
256,192,124376,1,8,0:0:0:0:
256,192,125007,1,0,0:0:0:0:
256,192,125639,1,8,0:0:0:0:
256,192,125954,1,8,0:0:0:0:
256,192,126901,1,0,0:0:0:0:
256,192,127533,1,4,0:0:0:0:
256,192,128165,1,8,0:0:0:0:
256,192,128481,1,8,0:0:0:0:
256,192,128796,1,0,0:0:0:0:
256,192,129112,1,0,0:0:0:0:
256,192,129743,1,0,0:0:0:0:
256,192,130059,1,0,0:0:0:0:
256,192,130691,1,8,0:0:0:0:
256,192,131007,1,8,0:0:0:0:
256,192,131323,1,0,0:0:0:0:
256,192,131638,1,0,0:0:0:0:
256,192,132269,1,0,0:0:0:0:
256,192,132586,1,0,0:0:0:0:
256,192,133217,1,8,0:0:0:0:
256,192,133849,1,0,0:0:0:0:
256,192,134164,1,0,0:0:0:0:
256,192,134480,1,8,0:0:0:0:
256,192,135112,1,0,0:0:0:0:
256,192,135743,1,8,0:0:0:0:
256,192,136058,1,8,0:0:0:0:
256,192,137006,1,8,0:0:0:0:
256,192,137638,1,12,0:0:0:0:
