osu file format v14

[General]
AudioFilename: audio.mp3
AudioLeadIn: 0
PreviewTime: 67794
Countdown: 0
SampleSet: Normal
StackLeniency: 0.7
Mode: 1
LetterboxInBreaks: 0
WidescreenStoryboard: 1

[Editor]
DistanceSpacing: 0.8
BeatDivisor: 4
GridSize: 32
TimelineZoom: 2.3

[Metadata]
Title:sugar rush (vocal mix)
TitleUnicode:sugar rush (vocal mix)
Artist:nanobii
ArtistUnicode:nanobii
Creator:duski
Version:Muzukashii
Source:osu!
Tags:fa featured artist mappers guild happy hardcore happycore techno
BeatmapID:2046208
BeatmapSetID:973336

[Difficulty]
HPDrainRate:5.5
CircleSize:5
OverallDifficulty:4.5
ApproachRate:5
SliderMultiplier:1.4
SliderTickRate:1

[Events]
//Background and Video events
0,0,"sugarrush.jpg",0,0
//Break Periods
2,22818,27065
//Storyboard Layer 0 (Background)
//Storyboard Layer 1 (Fail)
//Storyboard Layer 2 (Pass)
//Storyboard Layer 3 (Foreground)
//Storyboard Sound Samples

[TimingPoints]
30,352.941176470588,4,1,0,70,1,0
18735,-100,4,1,0,80,0,0
21206,-100,4,1,0,70,0,0
21912,-100,4,1,0,60,0,0
22618,-100,4,1,0,50,0,0
30559,-100,4,1,0,60,0,0
33912,-100,4,1,0,70,0,0
45206,-100,4,1,0,80,0,0
67794,-100,4,1,0,80,0,1
87559,-100,4,1,0,80,0,0
90382,-100,4,1,0,80,0,1
107324,-100,4,1,0,80,0,0
111912,-100,4,1,0,70,0,0
112971,-100,4,1,0,60,0,0
123206,-100,4,1,0,70,0,0
135559,-100,4,1,0,80,0,0
158147,-100,4,1,0,80,0,1
177912,-100,4,1,0,80,0,0
180735,-100,4,1,0,80,0,1
197677,-100,4,1,0,80,0,0
203147,-100,4,1,0,70,0,0

[HitObjects]
256,192,30,5,0,0:0:0:0:
256,192,382,1,8,0:0:0:0:
256,192,912,1,0,0:0:0:0:
256,192,1088,1,8,0:0:0:0:
256,192,1618,1,0,0:0:0:0:
256,192,1794,1,8,0:0:0:0:
256,192,2324,1,0,0:0:0:0:
256,192,2500,1,8,0:0:0:0:
256,192,2853,1,0,0:0:0:0:
256,192,3206,1,8,0:0:0:0:
256,192,3735,1,0,0:0:0:0:
256,192,3912,1,8,0:0:0:0:
256,192,4441,1,0,0:0:0:0:
256,192,4618,1,8,0:0:0:0:
256,192,5147,1,0,0:0:0:0:
256,192,5324,1,8,0:0:0:0:
256,192,5677,1,0,0:0:0:0:
256,192,6029,1,8,0:0:0:0:
256,192,6559,1,0,0:0:0:0:
256,192,6735,1,8,0:0:0:0:
256,192,7265,1,0,0:0:0:0:
256,192,7441,1,8,0:0:0:0:
256,192,7971,1,0,0:0:0:0:
256,192,8147,1,8,0:0:0:0:
256,192,8324,1,0,0:0:0:0:
256,192,8500,1,0,0:0:0:0:
256,192,8853,1,8,0:0:0:0:
256,192,9382,1,0,0:0:0:0:
256,192,9559,1,8,0:0:0:0:
256,192,9735,1,0,0:0:0:0:
256,192,10088,1,0,0:0:0:0:
256,192,10265,1,8,0:0:0:0:
256,192,10794,1,0,0:0:0:0:
256,192,10971,1,8,0:0:0:0:
256,192,11147,1,0,0:0:0:0:
256,192,11235,1,0,0:0:0:0:
256,192,11324,1,0,0:0:0:0:
256,192,11677,1,8,0:0:0:0:
256,192,12206,1,0,0:0:0:0:
256,192,12382,1,8,0:0:0:0:
256,192,12912,1,0,0:0:0:0:
256,192,13088,1,8,0:0:0:0:
256,192,13618,1,0,0:0:0:0:
256,192,13794,1,8,0:0:0:0:
256,192,14147,1,0,0:0:0:0:
256,192,14500,1,8,0:0:0:0:
256,192,15029,1,0,0:0:0:0:
256,192,15206,1,8,0:0:0:0:
256,192,15735,1,0,0:0:0:0:
256,192,15912,1,8,0:0:0:0:
256,192,16441,1,0,0:0:0:0:
256,192,16618,1,8,0:0:0:0:
256,192,16971,1,0,0:0:0:0:
256,192,17324,1,8,0:0:0:0:
256,192,17853,1,0,0:0:0:0:
256,192,18029,1,8,0:0:0:0:
256,192,18559,1,0,0:0:0:0:
256,192,18735,1,8,0:0:0:0:
256,192,19265,1,0,0:0:0:0:
256,192,19441,1,8,0:0:0:0:
256,192,19794,1,0,0:0:0:0:
256,192,20147,1,8,0:0:0:0:
256,192,20500,1,0,0:0:0:0:
256,192,20677,1,0,0:0:0:0:
256,192,20853,1,8,0:0:0:0:
256,192,21206,1,8,0:0:0:0:
256,192,21382,1,0,0:0:0:0:
256,192,21559,1,8,0:0:0:0:
256,192,21912,1,0,0:0:0:0:
256,192,22265,1,8,0:0:0:0:
256,192,22618,1,0,0:0:0:0:
256,192,28265,12,0,30383,0:0:0:0:
256,192,30559,5,8,0:0:0:0:
256,192,30735,1,0,0:0:0:0:
256,192,30912,1,0,0:0:0:0:
256,192,31971,1,8,0:0:0:0:
256,192,32147,1,8,0:0:0:0:
256,192,32324,1,0,0:0:0:0:
256,192,33735,5,0,0:0:0:0:
256,192,33824,1,0,0:0:0:0:
256,192,33912,1,0,0:0:0:0:
256,192,34265,1,8,0:0:0:0:
256,192,34618,1,8,0:0:0:0:
256,192,34971,1,8,0:0:0:0:
256,192,35324,1,8,0:0:0:0:
256,192,35677,1,8,0:0:0:0:
256,192,36029,1,8,0:0:0:0:
256,192,36382,1,8,0:0:0:0:
256,192,36735,1,8,0:0:0:0:
256,192,37088,1,8,0:0:0:0:
256,192,37441,1,8,0:0:0:0:
256,192,37794,1,8,0:0:0:0:
256,192,38147,1,8,0:0:0:0:
256,192,38500,1,8,0:0:0:0:
256,192,38853,1,0,0:0:0:0:
256,192,39206,1,0,0:0:0:0:
256,192,39559,1,8,0:0:0:0:
256,192,39912,1,8,0:0:0:0:
256,192,40265,1,8,0:0:0:0:
256,192,40618,1,8,0:0:0:0:
256,192,40971,1,8,0:0:0:0:
256,192,41324,1,8,0:0:0:0:
256,192,41677,1,8,0:0:0:0:
256,192,42029,1,8,0:0:0:0:
256,192,42382,1,0,0:0:0:0:
256,192,42735,1,8,0:0:0:0:
256,192,42912,1,0,0:0:0:0:
256,192,43265,1,0,0:0:0:0:
256,192,43441,1,8,0:0:0:0:
256,192,43794,1,8,0:0:0:0:
256,192,43971,1,0,0:0:0:0:
256,192,44147,1,8,0:0:0:0:
256,192,44324,1,0,0:0:0:0:
256,192,44677,1,0,0:0:0:0:
256,192,44853,1,8,0:0:0:0:
256,192,45206,1,4,0:0:0:0:
256,192,45735,1,4,0:0:0:0:
256,192,46265,1,12,0:0:0:0:
256,192,48029,1,4,0:0:0:0:
256,192,48559,1,12,0:0:0:0:
256,192,49088,1,4,0:0:0:0:
256,192,50500,1,8,0:0:0:0:
256,192,50853,1,4,0:0:0:0:
256,192,51382,1,4,0:0:0:0:
256,192,51912,1,12,0:0:0:0:
256,192,53147,1,8,0:0:0:0:
256,192,53500,1,8,0:0:0:0:
256,192,53677,1,4,0:0:0:0:
256,192,54206,1,8,0:0:0:0:
256,192,54735,1,8,0:0:0:0:
256,192,55265,1,8,0:0:0:0:
256,192,55794,1,8,0:0:0:0:
256,192,56147,1,8,0:0:0:0:
256,192,56324,1,8,0:0:0:0:
256,192,56500,1,8,0:0:0:0:
256,192,57029,1,8,0:0:0:0:
256,192,57559,1,8,0:0:0:0:
256,192,58088,1,8,0:0:0:0:
256,192,58618,1,8,0:0:0:0:
256,192,58971,1,8,0:0:0:0:
256,192,59147,1,8,0:0:0:0:
256,192,59324,1,8,0:0:0:0:
256,192,59853,1,8,0:0:0:0:
256,192,60382,1,8,0:0:0:0:
256,192,60912,1,8,0:0:0:0:
256,192,61441,1,8,0:0:0:0:
256,192,61706,1,0,0:0:0:0:
256,192,61794,1,8,0:0:0:0:
256,192,62147,1,4,0:0:0:0:
256,192,62500,1,8,0:0:0:0:
256,192,62853,1,0,0:0:0:0:
256,192,63029,1,8,0:0:0:0:
256,192,63206,1,0,0:0:0:0:
256,192,63559,1,4,0:0:0:0:
256,192,63912,1,8,0:0:0:0:
256,192,64088,1,8,0:0:0:0:
256,192,64265,1,0,0:0:0:0:
256,192,64618,1,0,0:0:0:0:
256,192,64971,1,0,0:0:0:0:
256,192,65059,1,0,0:0:0:0:
256,192,65147,1,0,0:0:0:0:
256,192,65324,1,8,0:0:0:0:
256,192,65500,1,8,0:0:0:0:
256,192,65677,1,0,0:0:0:0:
256,192,65765,1,0,0:0:0:0:
256,192,65853,1,0,0:0:0:0:
256,192,66029,1,8,0:0:0:0:
256,192,66206,1,8,0:0:0:0:
256,192,66382,1,0,0:0:0:0:
256,192,67088,1,8,0:0:0:0:
256,192,67353,1,8,0:0:0:0:
256,192,67618,1,8,0:0:0:0:
256,192,67794,1,4,0:0:0:0:
256,192,68147,1,8,0:0:0:0:
256,192,68324,1,8,0:0:0:0:
256,192,68500,1,0,0:0:0:0:
256,192,68853,1,8,0:0:0:0:
256,192,69206,1,0,0:0:0:0:
256,192,69559,1,8,0:0:0:0:
256,192,69912,1,0,0:0:0:0:
256,192,70265,1,8,0:0:0:0:
256,192,70353,1,8,0:0:0:0:
256,192,70441,1,8,0:0:0:0:
256,192,70618,1,0,0:0:0:0:
256,192,70971,1,8,0:0:0:0:
256,192,71324,1,0,0:0:0:0:
256,192,71500,1,0,0:0:0:0:
256,192,71677,1,8,0:0:0:0:
256,192,72029,1,0,0:0:0:0:
256,192,72382,1,8,0:0:0:0:
256,192,72559,1,8,0:0:0:0:
256,192,72735,1,0,0:0:0:0:
256,192,73088,1,8,0:0:0:0:
256,192,73441,1,0,0:0:0:0:
256,192,73794,1,8,0:0:0:0:
256,192,73971,1,8,0:0:0:0:
256,192,74059,1,8,0:0:0:0:
256,192,74147,1,8,0:0:0:0:
256,192,74500,1,0,0:0:0:0:
256,192,74677,1,8,0:0:0:0:
256,192,74853,1,0,0:0:0:0:
256,192,75206,1,8,0:0:0:0:
256,192,75559,1,0,0:0:0:0:
256,192,75735,1,8,0:0:0:0:
256,192,75912,1,8,0:0:0:0:
256,192,76265,1,0,0:0:0:0:
256,192,76618,1,8,0:0:0:0:
256,192,76971,1,0,0:0:0:0:
256,192,77324,1,8,0:0:0:0:
256,192,77677,1,0,0:0:0:0:
256,192,77765,1,0,0:0:0:0:
256,192,77853,1,0,0:0:0:0:
251,193,78029,1,8,0:0:0:0:
256,192,78382,1,0,0:0:0:0:
256,192,78735,1,8,0:0:0:0:
256,192,79088,1,4,0:0:0:0:
256,192,79618,1,8,0:0:0:0:
256,192,79794,1,0,0:0:0:0:
256,192,79971,1,0,0:0:0:0:
256,192,80147,1,8,0:0:0:0:
256,192,80500,1,0,0:0:0:0:
256,192,80853,1,8,0:0:0:0:
256,192,81206,1,0,0:0:0:0:
256,192,81559,1,8,0:0:0:0:
256,192,81647,1,8,0:0:0:0:
256,192,81735,1,8,0:0:0:0:
256,192,81912,1,0,0:0:0:0:
256,192,82265,1,8,0:0:0:0:
256,192,82618,1,0,0:0:0:0:
256,192,82794,1,0,0:0:0:0:
256,192,82971,1,8,0:0:0:0:
256,192,83324,1,0,0:0:0:0:
256,192,83677,1,8,0:0:0:0:
256,192,84029,1,0,0:0:0:0:
256,192,84206,1,0,0:0:0:0:
256,192,84382,1,8,0:0:0:0:
256,192,84735,1,12,0:0:0:0:
256,192,85088,1,8,0:0:0:0:
256,192,85441,1,0,0:0:0:0:
256,192,85618,1,0,0:0:0:0:
256,192,85794,1,8,0:0:0:0:
256,192,86147,1,4,0:0:0:0:
256,192,86500,1,8,0:0:0:0:
256,192,86853,1,0,0:0:0:0:
256,192,87029,1,0,0:0:0:0:
256,192,87206,1,8,0:0:0:0:
256,192,87559,1,12,0:0:0:0:
256,192,88088,1,8,0:0:0:0:
256,192,88618,1,8,0:0:0:0:
256,192,89147,1,8,0:0:0:0:
256,192,89500,1,0,0:0:0:0:
256,192,89588,1,0,0:0:0:0:
256,192,89677,1,0,0:0:0:0:
256,192,90029,1,8,0:0:0:0:
256,192,90382,1,0,0:0:0:0:
256,192,90559,1,8,0:0:0:0:
256,192,90912,1,0,0:0:0:0:
256,192,91088,1,8,0:0:0:0:
256,192,91353,1,0,0:0:0:0:
256,192,91618,1,8,0:0:0:0:
256,192,91971,1,0,0:0:0:0:
256,192,92147,1,8,0:0:0:0:
256,192,92324,1,0,0:0:0:0:
256,192,92500,1,8,0:0:0:0:
256,192,92853,1,8,0:0:0:0:
256,192,93206,1,0,0:0:0:0:
256,192,93559,1,8,0:0:0:0:
256,192,93912,1,0,0:0:0:0:
256,192,94088,1,8,0:0:0:0:
256,192,94441,1,8,0:0:0:0:
256,192,94618,1,0,0:0:0:0:
256,192,94794,1,8,0:0:0:0:
256,192,94971,1,0,0:0:0:0:
256,192,95324,1,8,0:0:0:0:
256,192,95677,1,8,0:0:0:0:
256,192,96029,1,0,0:0:0:0:
256,192,96206,1,8,0:0:0:0:
256,192,96559,1,0,0:0:0:0:
256,192,96735,1,0,0:0:0:0:
256,192,97000,1,8,0:0:0:0:
256,192,97265,1,8,0:0:0:0:
256,192,97618,1,0,0:0:0:0:
256,192,97794,1,8,0:0:0:0:
256,192,97971,1,0,0:0:0:0:
256,192,98147,1,0,0:0:0:0:
256,192,98500,1,8,0:0:0:0:
256,192,98853,1,0,0:0:0:0:
256,192,99029,1,8,0:0:0:0:
256,192,99206,1,8,0:0:0:0:
256,192,99559,1,8,0:0:0:0:
256,192,99912,1,8,0:0:0:0:
256,192,100265,1,0,0:0:0:0:
256,192,100441,1,8,0:0:0:0:
256,192,100618,1,0,0:0:0:0:
256,192,100794,1,8,0:0:0:0:
256,192,100971,1,0,0:0:0:0:
256,192,101324,1,8,0:0:0:0:
256,192,101677,1,4,0:0:0:0:
256,192,102206,1,8,0:0:0:0:
256,192,102382,1,0,0:0:0:0:
256,192,102647,1,8,0:0:0:0:
256,192,102912,1,8,0:0:0:0:
256,192,103265,1,0,0:0:0:0:
256,192,103441,1,8,0:0:0:0:
256,192,103618,1,0,0:0:0:0:
256,192,103794,1,8,0:0:0:0:
256,192,104147,1,8,0:0:0:0:
256,192,104500,1,0,0:0:0:0:
256,192,104677,1,0,0:0:0:0:
256,192,104853,1,8,0:0:0:0:
256,192,105029,1,0,0:0:0:0:
256,192,105382,1,8,0:0:0:0:
256,192,105735,1,0,0:0:0:0:
256,192,105912,1,8,0:0:0:0:
256,192,106088,1,8,0:0:0:0:
256,192,106265,1,0,0:0:0:0:
256,192,106618,1,8,0:0:0:0:
256,192,106971,1,8,0:0:0:0:
256,192,107324,1,4,0:0:0:0:
256,192,107853,1,4,0:0:0:0:
256,192,108382,1,12,0:0:0:0:
256,192,109618,1,0,0:0:0:0:
256,192,109794,1,8,0:0:0:0:
256,192,109971,1,0,0:0:0:0:
256,192,110147,1,4,0:0:0:0:
256,192,110677,1,4,0:0:0:0:
256,192,111206,1,4,0:0:0:0:
256,192,111912,1,0,0:0:0:0:
256,192,112088,1,0,0:0:0:0:
256,192,112265,1,0,0:0:0:0:
256,192,112441,1,8,0:0:0:0:
256,192,112618,1,8,0:0:0:0:
256,192,112794,1,8,0:0:0:0:
256,192,112971,1,0,0:0:0:0:
256,192,113853,1,0,0:0:0:0:
256,192,114029,1,0,0:0:0:0:
256,192,114206,1,8,0:0:0:0:
256,192,115265,1,8,0:0:0:0:
256,192,115441,1,0,0:0:0:0:
256,192,115618,1,0,0:0:0:0:
256,192,117559,1,0,0:0:0:0:
256,192,117735,1,0,0:0:0:0:
256,192,117912,1,0,0:0:0:0:
256,192,118088,1,8,0:0:0:0:
256,192,118265,1,8,0:0:0:0:
256,192,118441,1,8,0:0:0:0:
256,192,119500,1,8,0:0:0:0:
256,192,119677,1,8,0:0:0:0:
256,192,119853,1,0,0:0:0:0:
256,192,120912,1,0,0:0:0:0:
256,192,121088,1,8,0:0:0:0:
256,192,121265,1,0,0:0:0:0:
256,192,123206,1,0,0:0:0:0:
256,192,123382,1,0,0:0:0:0:
256,192,123559,1,0,0:0:0:0:
256,192,123735,1,8,0:0:0:0:
256,192,123912,1,8,0:0:0:0:
256,192,124088,1,8,0:0:0:0:
256,192,124265,1,0,0:0:0:0:
256,192,124441,1,8,0:0:0:0:
256,192,124794,1,0,0:0:0:0:
256,192,124971,1,0,0:0:0:0:
256,192,125235,1,0,0:0:0:0:
256,192,125500,1,8,0:0:0:0:
256,192,125853,1,0,0:0:0:0:
256,192,126029,1,8,0:0:0:0:
256,192,126206,1,0,0:0:0:0:
256,192,126382,1,8,0:0:0:0:
256,192,126735,1,8,0:0:0:0:
256,192,127088,1,0,0:0:0:0:
256,192,127265,1,0,0:0:0:0:
256,192,127441,1,8,0:0:0:0:
256,192,127618,1,0,0:0:0:0:
256,192,127971,1,8,0:0:0:0:
256,192,128324,1,0,0:0:0:0:
256,192,128500,1,8,0:0:0:0:
256,192,128677,1,0,0:0:0:0:
256,192,128853,1,8,0:0:0:0:
256,192,129206,1,8,0:0:0:0:
256,192,129559,1,8,0:0:0:0:
256,192,129912,1,0,0:0:0:0:
256,192,130088,1,8,0:0:0:0:
256,192,130441,1,0,0:0:0:0:
256,192,130618,1,0,0:0:0:0:
256,192,130882,1,8,0:0:0:0:
256,192,131147,1,8,0:0:0:0:
256,192,131500,1,0,0:0:0:0:
256,192,131677,1,8,0:0:0:0:
256,192,131853,1,0,0:0:0:0:
256,192,132029,1,8,0:0:0:0:
256,192,132382,1,8,0:0:0:0:
256,192,132912,1,0,0:0:0:0:
256,192,133088,1,8,0:0:0:0:
256,192,133265,1,0,0:0:0:0:
256,192,133441,1,8,0:0:0:0:
256,192,133794,1,8,0:0:0:0:
256,192,134147,1,0,0:0:0:0:
256,192,134324,1,8,0:0:0:0:
256,192,134500,1,0,0:0:0:0:
256,192,134677,1,8,0:0:0:0:
256,192,134853,1,0,0:0:0:0:
256,192,135206,1,8,0:0:0:0:
256,192,135559,1,4,0:0:0:0:
256,192,136618,1,8,0:0:0:0:
256,192,138382,1,0,0:0:0:0:
256,192,139441,1,0,0:0:0:0:
256,192,141206,1,8,0:0:0:0:
256,192,142265,1,8,0:0:0:0:
256,192,144029,1,0,0:0:0:0:
256,192,145088,1,0,0:0:0:0:
256,192,145794,1,8,0:0:0:0:
256,192,146147,1,8,0:0:0:0:
256,192,146500,1,8,0:0:0:0:
256,192,146853,1,4,0:0:0:0:
256,192,147206,1,8,0:0:0:0:
256,192,147382,1,8,0:0:0:0:
256,192,147559,1,0,0:0:0:0:
256,192,147647,1,0,0:0:0:0:
256,192,147735,1,0,0:0:0:0:
256,192,147912,1,8,0:0:0:0:
256,192,148265,1,0,0:0:0:0:
256,192,148618,1,8,0:0:0:0:
256,192,148794,1,0,0:0:0:0:
256,192,148882,1,0,0:0:0:0:
256,192,148971,1,0,0:0:0:0:
256,192,149147,1,0,0:0:0:0:
256,192,149324,1,8,0:0:0:0:
256,192,149677,1,0,0:0:0:0:
256,192,150029,1,8,0:0:0:0:
256,192,150206,1,0,0:0:0:0:
256,192,150294,1,0,0:0:0:0:
256,192,150382,1,0,0:0:0:0:
256,192,150559,1,8,0:0:0:0:
256,192,150735,1,8,0:0:0:0:
256,192,151088,1,0,0:0:0:0:
256,192,151265,1,8,0:0:0:0:
256,192,151353,1,8,0:0:0:0:
256,192,151441,1,8,0:0:0:0:
256,192,151618,1,0,0:0:0:0:
256,192,151794,1,8,0:0:0:0:
256,192,152147,1,8,0:0:0:0:
256,192,152500,1,0,0:0:0:0:
256,192,152677,1,8,0:0:0:0:
256,192,152765,1,8,0:0:0:0:
256,192,152853,1,8,0:0:0:0:
256,192,153029,1,0,0:0:0:0:
256,192,153206,1,8,0:0:0:0:
256,192,153294,1,8,0:0:0:0:
256,192,153382,1,8,0:0:0:0:
256,192,153559,1,0,0:0:0:0:
256,192,153912,1,0,0:0:0:0:
256,192,154000,1,0,0:0:0:0:
256,192,154088,1,0,0:0:0:0:
256,192,154265,1,8,0:0:0:0:
256,192,154441,1,0,0:0:0:0:
256,192,154529,1,0,0:0:0:0:
256,192,154618,1,0,0:0:0:0:
256,192,154794,1,8,0:0:0:0:
256,192,154971,1,8,0:0:0:0:
256,192,155147,1,0,0:0:0:0:
256,192,155324,1,8,0:0:0:0:
256,192,155500,1,8,0:0:0:0:
256,192,155677,1,8,0:0:0:0:
256,192,155853,1,8,0:0:0:0:
256,192,156029,1,8,0:0:0:0:
256,192,156206,1,8,0:0:0:0:
256,192,156382,1,8,0:0:0:0:
256,192,156559,1,8,0:0:0:0:
256,192,157441,1,8,0:0:0:0:
256,192,157706,1,8,0:0:0:0:
256,192,157971,1,8,0:0:0:0:
256,192,158147,1,4,0:0:0:0:
256,192,158500,1,8,0:0:0:0:
256,192,158677,1,8,0:0:0:0:
256,192,158853,1,0,0:0:0:0:
256,192,159206,1,8,0:0:0:0:
256,192,159559,1,0,0:0:0:0:
256,192,159912,1,8,0:0:0:0:
256,192,160265,1,0,0:0:0:0:
256,192,160618,1,8,0:0:0:0:
256,192,160706,1,8,0:0:0:0:
256,192,160794,1,8,0:0:0:0:
256,192,160971,1,0,0:0:0:0:
256,192,161324,1,8,0:0:0:0:
256,192,161677,1,0,0:0:0:0:
256,192,161853,1,0,0:0:0:0:
256,192,162029,1,8,0:0:0:0:
256,192,162382,1,0,0:0:0:0:
256,192,162735,1,8,0:0:0:0:
256,192,162912,1,8,0:0:0:0:
256,192,163088,1,0,0:0:0:0:
256,192,163441,1,8,0:0:0:0:
256,192,163794,1,0,0:0:0:0:
256,192,164147,1,8,0:0:0:0:
256,192,164324,1,8,0:0:0:0:
256,192,164412,1,8,0:0:0:0:
256,192,164500,1,8,0:0:0:0:
256,192,164853,1,0,0:0:0:0:
256,192,165029,1,8,0:0:0:0:
256,192,165206,1,0,0:0:0:0:
256,192,165559,1,8,0:0:0:0:
256,192,165912,1,0,0:0:0:0:
256,192,166088,1,8,0:0:0:0:
256,192,166265,1,8,0:0:0:0:
256,192,166618,1,0,0:0:0:0:
256,192,166971,1,8,0:0:0:0:
256,192,167324,1,0,0:0:0:0:
256,192,167677,1,8,0:0:0:0:
256,192,168029,1,0,0:0:0:0:
256,192,168118,1,0,0:0:0:0:
256,192,168206,1,0,0:0:0:0:
251,193,168382,1,8,0:0:0:0:
256,192,168735,1,0,0:0:0:0:
256,192,169088,1,8,0:0:0:0:
256,192,169441,1,4,0:0:0:0:
256,192,169971,1,8,0:0:0:0:
256,192,170147,1,0,0:0:0:0:
256,192,170324,1,0,0:0:0:0:
256,192,170500,1,8,0:0:0:0:
256,192,170853,1,0,0:0:0:0:
256,192,171206,1,8,0:0:0:0:
256,192,171559,1,0,0:0:0:0:
256,192,171912,1,8,0:0:0:0:
256,192,172000,1,8,0:0:0:0:
256,192,172088,1,8,0:0:0:0:
256,192,172265,1,0,0:0:0:0:
256,192,172618,1,8,0:0:0:0:
256,192,172971,1,0,0:0:0:0:
256,192,173147,1,0,0:0:0:0:
256,192,173324,1,8,0:0:0:0:
256,192,173677,1,0,0:0:0:0:
256,192,174029,1,8,0:0:0:0:
256,192,174382,1,0,0:0:0:0:
256,192,174559,1,0,0:0:0:0:
256,192,174735,1,8,0:0:0:0:
256,192,175088,1,12,0:0:0:0:
256,192,175441,1,8,0:0:0:0:
256,192,175794,1,0,0:0:0:0:
256,192,175971,1,0,0:0:0:0:
256,192,176147,1,8,0:0:0:0:
256,192,176500,1,4,0:0:0:0:
256,192,176853,1,8,0:0:0:0:
256,192,177206,1,0,0:0:0:0:
256,192,177382,1,0,0:0:0:0:
256,192,177559,1,8,0:0:0:0:
256,192,177912,1,4,0:0:0:0:
256,192,178441,1,4,0:0:0:0:
256,192,178794,1,8,0:0:0:0:
256,192,178971,1,4,0:0:0:0:
256,192,179324,1,8,0:0:0:0:
256,192,179500,1,8,0:0:0:0:
256,192,179677,1,8,0:0:0:0:
256,192,179853,1,0,0:0:0:0:
256,192,179941,1,0,0:0:0:0:
256,192,180029,1,0,0:0:0:0:
256,192,180382,1,8,0:0:0:0:
256,192,180735,1,0,0:0:0:0:
256,192,180912,1,8,0:0:0:0:
256,192,181265,1,0,0:0:0:0:
256,192,181441,1,8,0:0:0:0:
256,192,181706,1,0,0:0:0:0:
256,192,181971,1,8,0:0:0:0:
256,192,182324,1,0,0:0:0:0:
256,192,182500,1,8,0:0:0:0:
256,192,182677,1,0,0:0:0:0:
256,192,182853,1,8,0:0:0:0:
256,192,183206,1,8,0:0:0:0:
256,192,183559,1,0,0:0:0:0:
256,192,183912,1,8,0:0:0:0:
256,192,184265,1,0,0:0:0:0:
256,192,184441,1,8,0:0:0:0:
256,192,184794,1,8,0:0:0:0:
256,192,184971,1,0,0:0:0:0:
256,192,185147,1,8,0:0:0:0:
256,192,185324,1,0,0:0:0:0:
256,192,185677,1,8,0:0:0:0:
256,192,186029,1,8,0:0:0:0:
256,192,186382,1,0,0:0:0:0:
256,192,186559,1,8,0:0:0:0:
256,192,186912,1,0,0:0:0:0:
256,192,187088,1,0,0:0:0:0:
256,192,187353,1,8,0:0:0:0:
256,192,187618,1,8,0:0:0:0:
256,192,187971,1,0,0:0:0:0:
256,192,188147,1,8,0:0:0:0:
256,192,188324,1,0,0:0:0:0:
256,192,188500,1,0,0:0:0:0:
256,192,188853,1,8,0:0:0:0:
256,192,189206,1,0,0:0:0:0:
256,192,189382,1,8,0:0:0:0:
256,192,189559,1,8,0:0:0:0:
256,192,189912,1,8,0:0:0:0:
256,192,190265,1,8,0:0:0:0:
256,192,190618,1,0,0:0:0:0:
256,192,190794,1,8,0:0:0:0:
256,192,190971,1,0,0:0:0:0:
256,192,191147,1,8,0:0:0:0:
256,192,191324,1,0,0:0:0:0:
256,192,191677,1,8,0:0:0:0:
256,192,192029,1,4,0:0:0:0:
256,192,192559,1,8,0:0:0:0:
256,192,192735,1,0,0:0:0:0:
256,192,193000,1,8,0:0:0:0:
256,192,193265,1,8,0:0:0:0:
256,192,193618,1,0,0:0:0:0:
256,192,193794,1,8,0:0:0:0:
256,192,193971,1,0,0:0:0:0:
256,192,194147,1,8,0:0:0:0:
256,192,194500,1,8,0:0:0:0:
256,192,194853,1,0,0:0:0:0:
256,192,195029,1,0,0:0:0:0:
256,192,195206,1,8,0:0:0:0:
256,192,195382,1,0,0:0:0:0:
256,192,195735,1,8,0:0:0:0:
256,192,196088,1,0,0:0:0:0:
256,192,196265,1,8,0:0:0:0:
256,192,196441,1,8,0:0:0:0:
256,192,196618,1,0,0:0:0:0:
256,192,196971,1,8,0:0:0:0:
256,192,197324,1,8,0:0:0:0:
256,192,197677,1,4,0:0:0:0:
256,192,198206,1,4,0:0:0:0:
256,192,198735,1,12,0:0:0:0:
256,192,200147,1,8,0:0:0:0:
256,192,200500,1,4,0:0:0:0:
256,192,201029,1,4,0:0:0:0:
256,192,201559,1,4,0:0:0:0:
256,192,203147,1,0,0:0:0:0:
256,192,203235,1,0,0:0:0:0:
256,192,203324,1,0,0:0:0:0:
256,192,203677,1,8,0:0:0:0:
256,192,204029,1,0,0:0:0:0:
256,192,204206,1,0,0:0:0:0:
256,192,204382,1,8,0:0:0:0:
256,192,204735,1,0,0:0:0:0:
256,192,205088,1,8,0:0:0:0:
256,192,205441,1,8,0:0:0:0:
256,192,205618,1,0,0:0:0:0:
256,192,205794,1,8,0:0:0:0:
256,192,206147,1,0,0:0:0:0:
256,192,206500,1,8,0:0:0:0:
256,192,206853,1,0,0:0:0:0:
256,192,207029,1,0,0:0:0:0:
256,192,207206,1,8,0:0:0:0:
256,192,207559,1,0,0:0:0:0:
256,192,207912,1,8,0:0:0:0:
256,192,208088,1,8,0:0:0:0:
256,192,208265,1,0,0:0:0:0:
256,192,208618,1,8,0:0:0:0:
256,192,208971,1,0,0:0:0:0:
256,192,209324,1,8,0:0:0:0:
256,192,209677,1,0,0:0:0:0:
256,192,209853,1,0,0:0:0:0:
256,192,210029,1,8,0:0:0:0:
256,192,210382,1,0,0:0:0:0:
256,192,210735,1,8,0:0:0:0:
256,192,211088,1,0,0:0:0:0:
256,192,211265,1,0,0:0:0:0:
256,192,211441,1,8,0:0:0:0:
256,192,211794,1,0,0:0:0:0:
256,192,212147,1,8,0:0:0:0:
256,192,212324,1,8,0:0:0:0:
256,192,212500,1,0,0:0:0:0:
256,192,212853,1,8,0:0:0:0:
256,192,213206,1,4,0:0:0:0:
256,192,213559,1,8,0:0:0:0:
256,192,214265,1,8,0:0:0:0:
256,192,214618,1,4,0:0:0:0:
256,192,214971,1,8,0:0:0:0:
256,192,215500,1,0,0:0:0:0:
256,192,215677,1,8,0:0:0:0:
256,192,216206,1,0,0:0:0:0:
256,192,216382,1,8,0:0:0:0:
256,192,216912,1,0,0:0:0:0:
256,192,217088,1,8,0:0:0:0:
256,192,217441,1,0,0:0:0:0:
256,192,217794,1,8,0:0:0:0:
256,192,218324,1,0,0:0:0:0:
256,192,218500,1,8,0:0:0:0:
256,192,219029,1,0,0:0:0:0:
256,192,219206,1,8,0:0:0:0:
256,192,219735,1,0,0:0:0:0:
256,192,219912,1,8,0:0:0:0:
256,192,220265,1,0,0:0:0:0:
256,192,220618,1,8,0:0:0:0:
256,192,221147,1,0,0:0:0:0:
256,192,221324,1,8,0:0:0:0:
256,192,221853,1,0,0:0:0:0:
256,192,222029,1,8,0:0:0:0:
256,192,222559,1,0,0:0:0:0:
256,192,222735,1,8,0:0:0:0:
256,192,223088,1,0,0:0:0:0:
256,192,223441,1,8,0:0:0:0:
256,192,223971,1,0,0:0:0:0:
256,192,224147,1,8,0:0:0:0:
256,192,224677,1,0,0:0:0:0:
256,192,224853,1,8,0:0:0:0:
256,192,225382,1,0,0:0:0:0:
256,192,225559,1,8,0:0:0:0:
256,192,225735,1,0,0:0:0:0:
