osu file format v14

[General]
AudioFilename: [Hard Dance] Nanobii - Rainbow Road [Monstercat Release].mp3
AudioLeadIn: 0
PreviewTime: 125764
Countdown: 0
SampleSet: Normal
StackLeniency: 0.7
Mode: 3
LetterboxInBreaks: 0
SpecialStyle: 0
WidescreenStoryboard: 0

[Editor]
DistanceSpacing: 0.8
BeatDivisor: 4
GridSize: 4
TimelineZoom: 1.7

[Metadata]
Title:rainbow road
TitleUnicode:rainbow road
Artist:nanobii
ArtistUnicode:nanobii
Creator:Adiopulse
Version:Yellow
Source:Monstercat
Tags:happy hardcore monstercat techno electric
BeatmapID:914825
BeatmapSetID:422861

[Difficulty]
HPDrainRate:8
CircleSize:4
OverallDifficulty:8
ApproachRate:5
SliderMultiplier:1.4
SliderTickRate:1

[Events]
//Background and Video events
0,0,"maxresdefault.jpg",0,0
//Break Periods
2,846,4564
//Storyboard Layer 0 (Background)
//Storyboard Layer 1 (Fail)
//Storyboard Layer 2 (Pass)
//Storyboard Layer 3 (Foreground)
//Storyboard Sound Samples

[TimingPoints]
117,352.941176470588,4,1,1,15,1,0
33999,-100,4,1,1,15,0,1
53764,-100,4,1,1,5,0,1
55175,-100,4,1,1,10,0,1
56587,-100,4,1,1,15,0,0
125764,-100,4,1,1,15,0,1
148352,-100,4,1,1,15,0,0

[HitObjects]
64,192,117,5,0,0:0:0:0:
192,192,293,1,0,0:0:0:0:
320,192,469,1,0,0:0:0:0:
448,192,646,1,0,0:0:0:0:
64,192,5764,5,0,0:0:0:0:
192,192,5940,1,0,0:0:0:0:
320,192,6116,1,0,0:0:0:0:
448,192,6293,1,0,0:0:0:0:
320,192,8234,1,0,0:0:0:0:
448,192,8411,1,0,0:0:0:0:
448,192,9646,1,0,0:0:0:0:
320,192,9822,1,0,0:0:0:0:
192,192,9999,128,0,11411:0:0:0:0:
64,192,11411,128,4,11764:0:0:0:0:
448,192,11411,1,4,0:0:0:0:
192,192,11764,128,0,12116:0:0:0:0:
320,192,12116,128,0,12469:0:0:0:0:
448,192,12469,128,0,13175:0:0:0:0:
64,192,13175,128,0,13528:0:0:0:0:
448,192,13528,128,0,13881:0:0:0:0:
320,192,13881,128,0,14587:0:0:0:0:
192,192,14587,128,0,14940:0:0:0:0:
320,192,14940,128,0,15293:0:0:0:0:
448,192,15293,128,0,16705:0:0:0:0:
448,192,17058,128,0,17411:0:0:0:0:
320,192,17411,128,0,17764:0:0:0:0:
192,192,17764,128,0,18116:0:0:0:0:
64,192,18116,128,0,18822:0:0:0:0:
192,192,18822,128,0,19175:0:0:0:0:
320,192,19175,128,0,19528:0:0:0:0:
448,192,19528,128,0,20940:0:0:0:0:
192,192,21116,1,0,0:0:0:0:
320,192,21205,1,0,0:0:0:0:
192,192,21293,1,0,0:0:0:0:
448,192,21469,1,0,0:0:0:0:
64,192,21646,1,0,0:0:0:0:
320,192,22087,128,0,22352:0:0:0:0:
64,192,22352,1,0,0:0:0:0:
192,192,22352,1,0,0:0:0:0:
192,192,22528,1,0,0:0:0:0:
320,192,22528,1,0,0:0:0:0:
64,192,22705,1,8,0:0:0:0:
448,192,22705,1,8,0:0:0:0:
192,192,22881,1,0,0:0:0:0:
448,192,23058,1,8,0:0:0:0:
320,192,23058,1,8,0:0:0:0:
192,192,23234,1,0,0:0:0:0:
320,192,23411,1,8,0:0:0:0:
64,192,23411,1,8,0:0:0:0:
192,192,23587,1,0,0:0:0:0:
320,192,23764,1,8,0:0:0:0:
448,192,23764,1,8,0:0:0:0:
192,192,23940,1,0,0:0:0:0:
320,192,24116,1,8,0:0:0:0:
192,192,24293,1,0,0:0:0:0:
64,192,24469,1,8,0:0:0:0:
192,192,24646,1,0,0:0:0:0:
320,192,24822,1,8,0:0:0:0:
192,192,24999,1,0,0:0:0:0:
64,192,25175,1,8,0:0:0:0:
448,192,25175,1,8,0:0:0:0:
192,192,25352,1,0,0:0:0:0:
320,192,25469,1,0,0:0:0:0:
448,192,25528,1,8,0:0:0:0:
64,192,25528,1,8,0:0:0:0:
320,192,25705,1,0,0:0:0:0:
192,192,25881,1,8,0:0:0:0:
320,192,26058,1,0,0:0:0:0:
192,192,26234,1,8,0:0:0:0:
448,192,26234,1,8,0:0:0:0:
320,192,26411,1,0,0:0:0:0:
64,192,26587,1,8,0:0:0:0:
448,192,26587,1,8,0:0:0:0:
192,192,26764,1,0,0:0:0:0:
448,192,26940,1,8,0:0:0:0:
320,192,27116,1,0,0:0:0:0:
64,192,27293,1,8,0:0:0:0:
192,192,27293,1,8,0:0:0:0:
448,192,27469,1,0,0:0:0:0:
320,192,27646,1,8,0:0:0:0:
64,192,27646,1,8,0:0:0:0:
192,192,27822,1,0,0:0:0:0:
64,192,27999,1,8,0:0:0:0:
448,192,27999,1,8,0:0:0:0:
64,192,28175,1,0,0:0:0:0:
448,192,28175,1,0,0:0:0:0:
320,192,28352,1,8,0:0:0:0:
192,192,28352,1,8,0:0:0:0:
64,192,28440,1,0,0:0:0:0:
192,192,28528,1,0,0:0:0:0:
448,192,28616,1,0,0:0:0:0:
320,192,28705,1,8,0:0:0:0:
64,192,28705,1,8,0:0:0:0:
192,192,28793,1,0,0:0:0:0:
448,192,28881,1,0,0:0:0:0:
64,192,28969,1,0,0:0:0:0:
448,192,29058,1,8,0:0:0:0:
320,192,29058,1,8,0:0:0:0:
192,192,29146,1,0,0:0:0:0:
64,192,29234,1,0,0:0:0:0:
320,192,29322,1,0,0:0:0:0:
448,192,29411,1,8,0:0:0:0:
192,192,29411,1,8,0:0:0:0:
64,192,29499,1,0,0:0:0:0:
320,192,29587,1,0,0:0:0:0:
448,192,29675,1,0,0:0:0:0:
192,192,29764,1,8,0:0:0:0:
320,192,29764,1,8,0:0:0:0:
64,192,29852,1,0,0:0:0:0:
192,192,29940,1,0,0:0:0:0:
448,192,30028,1,0,0:0:0:0:
320,192,30116,1,8,0:0:0:0:
64,192,30116,1,8,0:0:0:0:
192,192,30205,1,0,0:0:0:0:
64,192,30293,1,0,0:0:0:0:
448,192,30381,1,0,0:0:0:0:
64,192,30469,1,8,0:0:0:0:
192,192,30469,1,8,0:0:0:0:
320,192,30558,1,0,0:0:0:0:
192,192,30646,1,0,0:0:0:0:
448,192,30734,1,0,0:0:0:0:
64,192,30822,1,8,0:0:0:0:
320,192,30822,1,8,0:0:0:0:
448,192,30911,1,0,0:0:0:0:
192,192,30999,1,0,0:0:0:0:
64,192,31087,1,0,0:0:0:0:
320,192,31175,1,0,0:0:0:0:
448,192,31264,1,0,0:0:0:0:
320,192,31352,1,0,0:0:0:0:
192,192,31440,1,0,0:0:0:0:
64,192,31528,1,0,0:0:0:0:
448,192,31616,1,0,0:0:0:0:
320,192,31705,1,0,0:0:0:0:
64,192,31793,1,0,0:0:0:0:
192,192,31881,1,0,0:0:0:0:
448,192,31969,1,0,0:0:0:0:
320,192,32058,1,0,0:0:0:0:
64,192,32146,1,0,0:0:0:0:
192,192,32234,1,0,0:0:0:0:
320,192,32322,1,0,0:0:0:0:
448,192,32411,1,0,0:0:0:0:
64,192,32499,1,0,0:0:0:0:
192,192,32587,1,0,0:0:0:0:
448,192,32675,1,0,0:0:0:0:
320,192,32764,1,0,0:0:0:0:
64,192,32852,1,0,0:0:0:0:
192,192,32940,1,0,0:0:0:0:
448,192,33028,1,0,0:0:0:0:
320,192,33116,1,0,0:0:0:0:
192,192,33205,1,0,0:0:0:0:
448,192,33293,128,0,33381:0:0:0:0:
64,192,33469,128,0,33558:0:0:0:0:
320,192,33646,128,0,33734:0:0:0:0:
448,192,33822,1,0,0:0:0:0:
320,192,33911,1,0,0:0:0:0:
64,192,33999,1,4,0:0:0:0:
448,192,33999,1,4,0:0:0:0:
192,192,33999,1,4,0:0:0:0:
192,192,34175,1,0,0:0:0:0:
448,192,34352,1,2,0:0:0:0:
320,192,34352,1,2,0:0:0:0:
192,192,34528,1,0,0:0:0:0:
320,192,34705,1,4,0:0:0:0:
64,192,34705,1,4,0:0:0:0:
448,192,34881,1,0,0:0:0:0:
192,192,35058,1,0,0:0:0:0:
320,192,35058,1,0,0:0:0:0:
64,192,35234,1,0,0:0:0:0:
192,192,35411,1,4,0:0:0:0:
448,192,35411,1,4,0:0:0:0:
320,192,35587,1,0,0:0:0:0:
64,192,35764,1,2,0:0:0:0:
192,192,35764,1,2,0:0:0:0:
320,192,35940,1,0,0:0:0:0:
448,192,36116,1,4,0:0:0:0:
64,192,36116,1,4,0:0:0:0:
192,192,36293,1,0,0:0:0:0:
320,192,36469,1,2,0:0:0:0:
64,192,36469,1,2,0:0:0:0:
448,192,36646,1,0,0:0:0:0:
192,192,36822,1,4,0:0:0:0:
320,192,36822,1,4,0:0:0:0:
64,192,36999,1,0,0:0:0:0:
192,192,37175,1,2,0:0:0:0:
448,192,37175,1,2,0:0:0:0:
320,192,37352,1,0,0:0:0:0:
192,192,37528,1,4,0:0:0:0:
64,192,37528,1,4,0:0:0:0:
320,192,37705,1,0,0:0:0:0:
64,192,37881,1,2,0:0:0:0:
448,192,37881,1,2,0:0:0:0:
192,192,38058,1,0,0:0:0:0:
320,192,38234,1,4,0:0:0:0:
448,192,38234,1,4,0:0:0:0:
192,192,38411,1,0,0:0:0:0:
64,192,38587,1,2,0:0:0:0:
320,192,38587,1,2,0:0:0:0:
192,192,38764,1,0,0:0:0:0:
448,192,38940,1,4,0:0:0:0:
320,192,38940,1,4,0:0:0:0:
192,192,39116,1,0,0:0:0:0:
448,192,39293,1,2,0:0:0:0:
64,192,39293,1,2,0:0:0:0:
320,192,39469,1,0,0:0:0:0:
192,192,39646,1,4,0:0:0:0:
64,192,39646,1,4,0:0:0:0:
320,192,39822,1,0,0:0:0:0:
192,192,39999,1,2,0:0:0:0:
448,192,39999,1,2,0:0:0:0:
64,192,40175,1,0,0:0:0:0:
192,192,40352,1,4,0:0:0:0:
320,192,40352,1,4,0:0:0:0:
448,192,40528,1,0,0:0:0:0:
320,192,40705,1,2,0:0:0:0:
64,192,40705,1,2,0:0:0:0:
192,192,40881,1,0,0:0:0:0:
448,192,41058,1,4,0:0:0:0:
64,192,41058,1,4,0:0:0:0:
320,192,41234,1,0,0:0:0:0:
64,192,41411,1,2,0:0:0:0:
192,192,41411,1,2,0:0:0:0:
320,192,41587,1,0,0:0:0:0:
448,192,41764,1,4,0:0:0:0:
192,192,41764,1,4,0:0:0:0:
64,192,41940,1,0,0:0:0:0:
192,192,42116,1,2,0:0:0:0:
320,192,42116,1,2,0:0:0:0:
448,192,42293,1,0,0:0:0:0:
320,192,42469,1,4,0:0:0:0:
64,192,42469,1,4,0:0:0:0:
192,192,42646,1,0,0:0:0:0:
320,192,42822,1,2,0:0:0:0:
448,192,42822,1,2,0:0:0:0:
192,192,42999,1,0,0:0:0:0:
64,192,43175,1,4,0:0:0:0:
320,192,43175,1,4,0:0:0:0:
192,192,43352,1,0,0:0:0:0:
64,192,43528,1,2,0:0:0:0:
448,192,43528,1,2,0:0:0:0:
320,192,43705,1,0,0:0:0:0:
448,192,43881,1,4,0:0:0:0:
320,192,43881,1,4,0:0:0:0:
64,192,43969,1,0,0:0:0:0:
448,192,44058,1,0,0:0:0:0:
64,192,44146,1,0,0:0:0:0:
320,192,44234,1,2,0:0:0:0:
192,192,44322,1,0,0:0:0:0:
320,192,44411,1,0,0:0:0:0:
192,192,44499,1,0,0:0:0:0:
448,192,44587,1,0,0:0:0:0:
320,192,44675,1,0,0:0:0:0:
192,192,44764,1,4,0:0:0:0:
64,192,44852,1,0,0:0:0:0:
448,192,44940,1,2,0:0:0:0:
192,192,44940,1,2,0:0:0:0:
448,192,45293,1,4,0:0:0:0:
64,192,45293,1,4,0:0:0:0:
320,192,45293,1,4,0:0:0:0:
192,192,45469,1,0,0:0:0:0:
320,192,45646,1,2,0:0:0:0:
448,192,45646,1,2,0:0:0:0:
192,192,45822,1,0,0:0:0:0:
320,192,45999,1,4,0:0:0:0:
64,192,45999,1,4,0:0:0:0:
192,192,46175,1,0,0:0:0:0:
320,192,46352,1,2,0:0:0:0:
448,192,46352,1,2,0:0:0:0:
192,192,46528,1,0,0:0:0:0:
64,192,46705,1,4,0:0:0:0:
320,192,46705,1,4,0:0:0:0:
448,192,46881,1,0,0:0:0:0:
192,192,47058,1,2,0:0:0:0:
320,192,47058,1,2,0:0:0:0:
64,192,47234,1,0,0:0:0:0:
192,192,47411,1,4,0:0:0:0:
448,192,47411,1,4,0:0:0:0:
320,192,47587,1,0,0:0:0:0:
448,192,47764,1,2,0:0:0:0:
64,192,47764,1,2,0:0:0:0:
192,192,47940,1,0,0:0:0:0:
320,192,48116,1,4,0:0:0:0:
64,192,48116,1,4,0:0:0:0:
448,192,48293,1,0,0:0:0:0:
320,192,48469,1,2,0:0:0:0:
192,192,48469,1,2,0:0:0:0:
64,192,48646,1,0,0:0:0:0:
448,192,48822,1,4,0:0:0:0:
192,192,48822,1,4,0:0:0:0:
320,192,48999,1,0,0:0:0:0:
192,192,49175,1,2,0:0:0:0:
64,192,49175,1,2,0:0:0:0:
320,192,49352,1,0,0:0:0:0:
448,192,49528,1,4,0:0:0:0:
64,192,49528,1,4,0:0:0:0:
192,192,49705,1,0,0:0:0:0:
320,192,49881,1,2,0:0:0:0:
448,192,49881,1,2,0:0:0:0:
192,192,50058,1,0,0:0:0:0:
64,192,50234,1,4,0:0:0:0:
320,192,50234,1,4,0:0:0:0:
448,192,50411,1,0,0:0:0:0:
192,192,50587,1,2,0:0:0:0:
320,192,50587,1,2,0:0:0:0:
64,192,50764,1,0,0:0:0:0:
448,192,50940,1,4,0:0:0:0:
192,192,50940,1,4,0:0:0:0:
64,192,50940,1,4,0:0:0:0:
320,192,51116,1,0,0:0:0:0:
64,192,51293,1,2,0:0:0:0:
192,192,51293,1,2,0:0:0:0:
320,192,51469,1,0,0:0:0:0:
448,192,51646,1,4,0:0:0:0:
64,192,51646,1,4,0:0:0:0:
192,192,51822,1,0,0:0:0:0:
448,192,51999,1,2,0:0:0:0:
320,192,51999,1,2,0:0:0:0:
192,192,52175,1,0,0:0:0:0:
64,192,52352,1,4,0:0:0:0:
320,192,52352,1,4,0:0:0:0:
448,192,52352,1,4,0:0:0:0:
192,192,52528,1,0,0:0:0:0:
448,192,52705,1,2,0:0:0:0:
64,192,52705,1,0,0:0:0:0:
320,192,52881,1,0,0:0:0:0:
64,192,53058,1,0,0:0:0:0:
192,192,53058,1,0,0:0:0:0:
320,192,53234,1,0,0:0:0:0:
64,192,53411,1,2,0:0:0:0:
448,192,53411,1,2,0:0:0:0:
192,192,53587,1,0,0:0:0:0:
320,192,53764,1,4,0:0:0:0:
448,192,53764,1,4,0:0:0:0:
64,192,53764,1,4,0:0:0:0:
192,192,53852,1,2,0:0:0:0:
64,192,53940,1,2,0:0:0:0:
320,192,54028,1,2,0:0:0:0:
64,192,54116,1,2,0:0:0:0:
448,192,54116,1,2,0:0:0:0:
192,192,54205,1,2,0:0:0:0:
320,192,54293,1,2,0:0:0:0:
64,192,54293,1,2,0:0:0:0:
448,192,54381,1,2,0:0:0:0:
64,192,54469,1,2,0:0:0:0:
192,192,54558,1,2,0:0:0:0:
448,192,54646,1,2,0:0:0:0:
320,192,54646,1,2,0:0:0:0:
64,192,54734,1,2,0:0:0:0:
320,192,54822,1,2,0:0:0:0:
192,192,54911,1,2,0:0:0:0:
448,192,54999,1,2,0:0:0:0:
64,192,54999,1,2,0:0:0:0:
320,192,55087,1,2,0:0:0:0:
192,192,55175,1,2,0:0:0:0:
64,192,55264,1,2,0:0:0:0:
320,192,55352,1,2,0:0:0:0:
448,192,55440,1,2,0:0:0:0:
64,192,55528,1,2,0:0:0:0:
192,192,55616,1,2,0:0:0:0:
448,192,55705,1,2,0:0:0:0:
320,192,55793,1,2,0:0:0:0:
64,192,55881,1,2,0:0:0:0:
448,192,56058,1,2,0:0:0:0:
320,192,56058,1,2,0:0:0:0:
448,192,56234,1,2,0:0:0:0:
320,192,56234,1,2,0:0:0:0:
64,192,56411,1,2,0:0:0:0:
192,192,56411,1,2,0:0:0:0:
448,192,56587,1,4,0:0:0:0:
64,192,56587,1,4,0:0:0:0:
320,192,56587,1,4,0:0:0:0:
448,192,56852,1,0,0:0:0:0:
64,192,56852,1,0,0:0:0:0:
320,192,56940,1,2,0:0:0:0:
192,192,56940,1,2,0:0:0:0:
320,192,57116,1,0,0:0:0:0:
64,192,57116,1,0,0:0:0:0:
64,192,57293,1,4,0:0:0:0:
320,192,57293,1,4,0:0:0:0:
192,192,57469,1,0,0:0:0:0:
448,192,57646,1,2,0:0:0:0:
320,192,57646,1,2,0:0:0:0:
192,192,57822,1,0,0:0:0:0:
64,192,57999,1,6,0:0:0:0:
448,192,57999,1,6,0:0:0:0:
64,192,58264,1,0,0:0:0:0:
448,192,58264,1,0,0:0:0:0:
192,192,58352,1,2,0:0:0:0:
320,192,58352,1,2,0:0:0:0:
64,192,58528,1,0,0:0:0:0:
320,192,58528,1,0,0:0:0:0:
320,192,58705,1,4,0:0:0:0:
64,192,58705,1,4,0:0:0:0:
448,192,58881,1,0,0:0:0:0:
320,192,59058,1,2,0:0:0:0:
192,192,59058,1,2,0:0:0:0:
64,192,59234,1,0,0:0:0:0:
192,192,59411,1,4,0:0:0:0:
448,192,59411,1,4,0:0:0:0:
448,192,59675,1,0,0:0:0:0:
320,192,59675,1,0,0:0:0:0:
192,192,59764,1,2,0:0:0:0:
64,192,59764,1,2,0:0:0:0:
192,192,59940,1,0,0:0:0:0:
448,192,59940,1,0,0:0:0:0:
192,192,60116,1,4,0:0:0:0:
448,192,60116,1,4,0:0:0:0:
320,192,60293,1,0,0:0:0:0:
64,192,60469,1,2,0:0:0:0:
448,192,60469,1,2,0:0:0:0:
192,192,60646,1,0,0:0:0:0:
320,192,60822,1,4,0:0:0:0:
64,192,60822,1,4,0:0:0:0:
192,192,60999,1,0,0:0:0:0:
320,192,61175,1,2,0:0:0:0:
448,192,61175,1,2,0:0:0:0:
192,192,61352,1,0,0:0:0:0:
320,192,61528,1,4,0:0:0:0:
64,192,61528,1,4,0:0:0:0:
448,192,61705,1,0,0:0:0:0:
192,192,61705,1,0,0:0:0:0:
320,192,61881,1,2,0:0:0:0:
192,192,61881,1,2,0:0:0:0:
320,192,62058,1,0,0:0:0:0:
64,192,62058,1,0,0:0:0:0:
64,192,62234,1,4,0:0:0:0:
448,192,62234,1,4,0:0:0:0:
64,192,62499,1,0,0:0:0:0:
448,192,62499,1,0,0:0:0:0:
320,192,62587,1,2,0:0:0:0:
192,192,62587,1,2,0:0:0:0:
320,192,62764,1,0,0:0:0:0:
64,192,62764,1,0,0:0:0:0:
64,192,62940,1,4,0:0:0:0:
320,192,62940,1,4,0:0:0:0:
192,192,63116,1,0,0:0:0:0:
320,192,63293,1,2,0:0:0:0:
448,192,63293,1,2,0:0:0:0:
192,192,63469,1,0,0:0:0:0:
448,192,63646,1,4,0:0:0:0:
64,192,63646,1,4,0:0:0:0:
448,192,63911,1,0,0:0:0:0:
64,192,63911,1,0,0:0:0:0:
192,192,63999,1,2,0:0:0:0:
320,192,63999,1,2,0:0:0:0:
64,192,64175,1,0,0:0:0:0:
320,192,64175,1,0,0:0:0:0:
64,192,64352,1,4,0:0:0:0:
320,192,64352,1,4,0:0:0:0:
192,192,64528,1,0,0:0:0:0:
448,192,64705,1,2,0:0:0:0:
64,192,64705,1,2,0:0:0:0:
320,192,64881,1,0,0:0:0:0:
64,192,65058,1,4,0:0:0:0:
320,192,65058,1,4,0:0:0:0:
448,192,65322,1,0,0:0:0:0:
320,192,65322,1,0,0:0:0:0:
64,192,65411,1,2,0:0:0:0:
192,192,65411,1,2,0:0:0:0:
448,192,65587,1,0,0:0:0:0:
192,192,65587,1,0,0:0:0:0:
192,192,65764,1,4,0:0:0:0:
448,192,65764,1,4,0:0:0:0:
320,192,65940,1,0,0:0:0:0:
64,192,66116,1,4,0:0:0:0:
448,192,66116,1,4,0:0:0:0:
192,192,66293,1,0,0:0:0:0:
320,192,66469,1,4,0:0:0:0:
64,192,66469,1,4,0:0:0:0:
448,192,66469,1,4,0:0:0:0:
320,192,66822,1,2,0:0:0:0:
448,192,66822,1,2,0:0:0:0:
192,192,67352,1,4,0:0:0:0:
320,192,67352,1,4,0:0:0:0:
448,192,67528,1,2,0:0:0:0:
64,192,67528,1,2,0:0:0:0:
320,192,67705,1,0,0:0:0:0:
192,192,67705,1,0,0:0:0:0:
448,192,67881,1,4,0:0:0:0:
64,192,67881,1,4,0:0:0:0:
320,192,67881,1,4,0:0:0:0:
320,192,68146,1,0,0:0:0:0:
192,192,68146,1,0,0:0:0:0:
448,192,68234,1,2,0:0:0:0:
64,192,68234,1,2,0:0:0:0:
320,192,68411,1,0,0:0:0:0:
64,192,68411,1,0,0:0:0:0:
64,192,68587,1,4,0:0:0:0:
320,192,68587,1,4,0:0:0:0:
192,192,68764,1,0,0:0:0:0:
448,192,68940,1,2,0:0:0:0:
320,192,68940,1,2,0:0:0:0:
64,192,69116,1,0,0:0:0:0:
64,192,69293,1,4,0:0:0:0:
448,192,69293,1,4,0:0:0:0:
64,192,69558,1,0,0:0:0:0:
448,192,69558,1,0,0:0:0:0:
320,192,69646,1,2,0:0:0:0:
192,192,69646,1,2,0:0:0:0:
320,192,69822,1,0,0:0:0:0:
64,192,69822,1,0,0:0:0:0:
64,192,69999,1,4,0:0:0:0:
320,192,69999,1,4,0:0:0:0:
448,192,70175,1,0,0:0:0:0:
64,192,70352,1,4,0:0:0:0:
192,192,70352,1,4,0:0:0:0:
320,192,70528,1,0,0:0:0:0:
64,192,70705,1,2,0:0:0:0:
448,192,70705,1,2,0:0:0:0:
192,192,70705,1,2,0:0:0:0:
64,192,71058,1,2,0:0:0:0:
448,192,71058,1,2,0:0:0:0:
192,192,71058,1,2,0:0:0:0:
192,192,71411,1,2,0:0:0:0:
320,192,71411,1,2,0:0:0:0:
64,192,71587,128,0,71764:0:0:0:0:
448,192,71587,128,0,71764:0:0:0:0:
64,192,71940,128,4,72469:0:0:0:0:
448,192,71940,128,4,72469:0:0:0:0:
320,192,72469,1,2,0:0:0:0:
192,192,72469,1,2,0:0:0:0:
64,192,72822,1,4,0:0:0:0:
448,192,72822,1,4,0:0:0:0:
320,192,72999,1,0,0:0:0:0:
192,192,72999,1,0,0:0:0:0:
64,192,73175,1,2,0:0:0:0:
448,192,73175,1,2,0:0:0:0:
64,192,73352,1,0,0:0:0:0:
320,192,73352,1,0,0:0:0:0:
448,192,73528,1,0,0:0:0:0:
320,192,73616,1,0,0:0:0:0:
192,192,73705,1,0,0:0:0:0:
64,192,73793,1,0,0:0:0:0:
448,192,73881,1,2,0:0:0:0:
192,192,73881,1,2,0:0:0:0:
320,192,73881,1,2,0:0:0:0:
320,192,74058,1,0,0:0:0:0:
64,192,74234,1,4,0:0:0:0:
448,192,74234,1,4,0:0:0:0:
192,192,74411,1,0,0:0:0:0:
448,192,74587,1,2,0:0:0:0:
320,192,74587,1,2,0:0:0:0:
192,192,74764,1,0,0:0:0:0:
64,192,74940,1,4,0:0:0:0:
448,192,74940,1,4,0:0:0:0:
64,192,75205,1,0,0:0:0:0:
448,192,75205,1,0,0:0:0:0:
320,192,75293,1,2,0:0:0:0:
192,192,75293,1,2,0:0:0:0:
320,192,75469,1,0,0:0:0:0:
64,192,75469,1,0,0:0:0:0:
64,192,75646,1,4,0:0:0:0:
320,192,75646,1,4,0:0:0:0:
448,192,75822,1,0,0:0:0:0:
320,192,75999,1,2,0:0:0:0:
192,192,75999,1,2,0:0:0:0:
64,192,76175,1,0,0:0:0:0:
192,192,76352,1,0,0:0:0:0:
320,192,76616,1,0,0:0:0:0:
448,192,76881,1,0,0:0:0:0:
64,192,80587,1,0,0:0:0:0:
192,192,80764,1,0,0:0:0:0:
320,192,80940,1,0,0:0:0:0:
448,192,81116,1,0,0:0:0:0:
192,192,83411,1,0,0:0:0:0:
64,192,83587,1,0,0:0:0:0:
320,192,83764,1,0,0:0:0:0:
448,192,83940,1,0,0:0:0:0:
320,192,86234,1,0,0:0:0:0:
64,192,86411,1,0,0:0:0:0:
192,192,86587,1,0,0:0:0:0:
448,192,86764,1,0,0:0:0:0:
448,192,89058,1,0,0:0:0:0:
64,192,89234,1,0,0:0:0:0:
192,192,89411,1,0,0:0:0:0:
320,192,89587,1,0,0:0:0:0:
64,192,91881,1,0,0:0:0:0:
192,192,92058,1,0,0:0:0:0:
320,192,92234,1,0,0:0:0:0:
448,192,92411,1,0,0:0:0:0:
192,192,94705,1,0,0:0:0:0:
64,192,94881,1,0,0:0:0:0:
320,192,95058,1,0,0:0:0:0:
448,192,95234,1,0,0:0:0:0:
320,192,97528,1,0,0:0:0:0:
64,192,97705,1,0,0:0:0:0:
192,192,97881,1,0,0:0:0:0:
448,192,98058,1,0,0:0:0:0:
192,192,101764,128,0,102469:0:0:0:0:
64,192,102469,1,0,0:0:0:0:
320,192,102558,1,0,0:0:0:0:
448,192,102646,1,0,0:0:0:0:
64,192,102734,1,0,0:0:0:0:
320,192,102822,1,0,0:0:0:0:
192,192,102911,1,0,0:0:0:0:
448,192,102999,1,0,0:0:0:0:
64,192,103087,1,0,0:0:0:0:
320,192,103175,5,8,0:0:0:0:
448,192,103175,1,8,0:0:0:0:
64,192,103352,1,0,0:0:0:0:
448,192,103528,1,8,0:0:0:0:
192,192,103528,1,8,0:0:0:0:
320,192,103705,1,0,0:0:0:0:
192,192,103881,1,8,0:0:0:0:
64,192,103881,1,8,0:0:0:0:
320,192,104058,1,0,0:0:0:0:
64,192,104234,1,8,0:0:0:0:
448,192,104234,1,8,0:0:0:0:
192,192,104411,1,0,0:0:0:0:
320,192,104587,1,8,0:0:0:0:
64,192,104587,1,8,0:0:0:0:
448,192,104764,1,0,0:0:0:0:
192,192,104940,1,8,0:0:0:0:
320,192,104940,1,8,0:0:0:0:
64,192,105116,1,0,0:0:0:0:
192,192,105293,1,8,0:0:0:0:
448,192,105293,1,8,0:0:0:0:
320,192,105469,1,0,0:0:0:0:
64,192,105646,1,8,0:0:0:0:
448,192,105646,1,8,0:0:0:0:
192,192,105822,1,0,0:0:0:0:
320,192,105999,1,8,0:0:0:0:
64,192,105999,1,8,0:0:0:0:
448,192,106175,1,0,0:0:0:0:
320,192,106352,1,8,0:0:0:0:
192,192,106352,1,8,0:0:0:0:
64,192,106528,1,0,0:0:0:0:
192,192,106705,1,8,0:0:0:0:
448,192,106705,1,8,0:0:0:0:
320,192,106881,1,0,0:0:0:0:
64,192,107058,1,8,0:0:0:0:
448,192,107058,1,8,0:0:0:0:
192,192,107234,1,0,0:0:0:0:
320,192,107411,1,8,0:0:0:0:
448,192,107411,1,8,0:0:0:0:
192,192,107587,1,0,0:0:0:0:
64,192,107764,1,8,0:0:0:0:
320,192,107764,1,8,0:0:0:0:
448,192,107940,1,0,0:0:0:0:
192,192,108116,1,8,0:0:0:0:
320,192,108116,1,8,0:0:0:0:
64,192,108293,1,0,0:0:0:0:
192,192,108469,1,8,0:0:0:0:
320,192,108646,1,0,0:0:0:0:
448,192,108822,1,0,0:0:0:0:
448,192,109175,1,8,0:0:0:0:
320,192,109352,1,0,0:0:0:0:
64,192,109705,1,0,0:0:0:0:
448,192,110058,1,0,0:0:0:0:
320,192,110411,1,0,0:0:0:0:
192,192,110764,1,0,0:0:0:0:
64,192,111116,1,0,0:0:0:0:
64,192,111469,1,0,0:0:0:0:
64,192,111646,1,0,0:0:0:0:
320,192,111999,1,0,0:0:0:0:
64,192,112175,1,0,0:0:0:0:
320,192,112528,1,0,0:0:0:0:
448,192,112705,1,0,0:0:0:0:
192,192,112881,1,0,0:0:0:0:
64,192,113058,1,8,0:0:0:0:
448,192,113234,1,0,0:0:0:0:
64,192,113411,1,8,0:0:0:0:
448,192,113587,1,0,0:0:0:0:
64,192,113764,1,8,0:0:0:0:
448,192,113940,1,0,0:0:0:0:
64,192,114116,1,8,0:0:0:0:
448,192,114293,1,0,0:0:0:0:
192,192,114469,1,12,0:0:0:0:
448,192,114469,1,12,0:0:0:0:
64,192,114558,1,0,0:0:0:0:
320,192,114646,1,0,0:0:0:0:
448,192,114734,1,0,0:0:0:0:
192,192,114822,1,8,0:0:0:0:
64,192,114911,1,0,0:0:0:0:
448,192,114999,1,0,0:0:0:0:
320,192,115087,1,0,0:0:0:0:
64,192,115175,1,8,0:0:0:0:
448,192,115264,1,0,0:0:0:0:
192,192,115352,1,0,0:0:0:0:
448,192,115440,1,0,0:0:0:0:
64,192,115528,1,8,0:0:0:0:
320,192,115616,1,0,0:0:0:0:
64,192,115705,1,0,0:0:0:0:
192,192,115793,1,0,0:0:0:0:
448,192,115881,1,8,0:0:0:0:
64,192,115969,1,0,0:0:0:0:
320,192,116058,1,0,0:0:0:0:
448,192,116146,1,0,0:0:0:0:
64,192,116234,1,8,0:0:0:0:
192,192,116322,1,0,0:0:0:0:
448,192,116411,1,0,0:0:0:0:
64,192,116499,1,0,0:0:0:0:
448,192,116587,1,8,0:0:0:0:
192,192,116675,1,0,0:0:0:0:
448,192,116764,1,0,0:0:0:0:
64,192,116852,1,0,0:0:0:0:
320,192,116940,1,8,0:0:0:0:
64,192,117028,1,0,0:0:0:0:
192,192,117116,1,0,0:0:0:0:
448,192,117205,1,0,0:0:0:0:
64,192,117293,1,8,0:0:0:0:
192,192,117381,1,0,0:0:0:0:
448,192,117469,1,0,0:0:0:0:
320,192,117558,1,0,0:0:0:0:
64,192,117646,1,8,0:0:0:0:
192,192,117734,1,0,0:0:0:0:
448,192,117822,1,0,0:0:0:0:
64,192,117911,1,0,0:0:0:0:
320,192,117999,1,8,0:0:0:0:
448,192,118087,1,0,0:0:0:0:
192,192,118175,1,0,0:0:0:0:
448,192,118264,1,0,0:0:0:0:
192,192,118352,1,8,0:0:0:0:
320,192,118440,1,0,0:0:0:0:
64,192,118528,1,0,0:0:0:0:
192,192,118616,1,0,0:0:0:0:
64,192,118705,1,8,0:0:0:0:
320,192,118793,1,0,0:0:0:0:
448,192,118881,1,0,0:0:0:0:
64,192,118969,1,0,0:0:0:0:
192,192,119058,1,8,0:0:0:0:
448,192,119146,1,0,0:0:0:0:
64,192,119234,1,0,0:0:0:0:
320,192,119322,1,0,0:0:0:0:
448,192,119411,1,8,0:0:0:0:
320,192,119499,1,0,0:0:0:0:
64,192,119587,1,0,0:0:0:0:
448,192,119675,1,0,0:0:0:0:
192,192,119764,1,8,0:0:0:0:
320,192,119852,1,0,0:0:0:0:
64,192,119940,1,0,0:0:0:0:
448,192,120028,1,0,0:0:0:0:
64,192,120116,128,4,120205:0:0:0:0:
192,192,120116,128,4,120205:0:0:0:0:
448,192,120293,1,0,0:0:0:0:
320,192,120381,1,0,0:0:0:0:
192,192,120469,1,0,0:0:0:0:
64,192,120558,1,0,0:0:0:0:
320,192,120646,128,4,120734:0:0:0:0:
448,192,120646,128,4,120734:0:0:0:0:
64,192,120822,1,0,0:0:0:0:
192,192,120911,1,0,0:0:0:0:
320,192,120999,1,0,0:0:0:0:
448,192,121087,1,0,0:0:0:0:
64,192,121175,128,4,121264:0:0:0:0:
192,192,121175,128,4,121264:0:0:0:0:
320,192,121352,1,0,0:0:0:0:
192,192,121440,1,0,0:0:0:0:
448,192,121528,128,4,121616:0:0:0:0:
320,192,121528,128,4,121616:0:0:0:0:
64,192,121705,1,0,0:0:0:0:
192,192,121793,1,0,0:0:0:0:
320,192,121881,1,0,0:0:0:0:
448,192,121969,1,0,0:0:0:0:
192,192,122058,128,4,122146:0:0:0:0:
64,192,122058,128,4,122146:0:0:0:0:
448,192,122234,1,0,0:0:0:0:
320,192,122322,1,0,0:0:0:0:
192,192,122411,1,0,0:0:0:0:
64,192,122499,1,0,0:0:0:0:
320,192,122587,128,4,122675:0:0:0:0:
448,192,122587,128,4,122675:0:0:0:0:
192,192,122764,1,0,0:0:0:0:
320,192,122852,1,0,0:0:0:0:
64,192,122940,128,4,123028:0:0:0:0:
192,192,122940,128,4,123028:0:0:0:0:
448,192,123116,1,0,0:0:0:0:
320,192,123205,1,0,0:0:0:0:
192,192,123293,1,0,0:0:0:0:
64,192,123381,1,0,0:0:0:0:
320,192,123469,1,0,0:0:0:0:
192,192,123558,1,0,0:0:0:0:
448,192,123646,1,0,0:0:0:0:
64,192,123734,1,0,0:0:0:0:
192,192,123822,1,0,0:0:0:0:
320,192,123911,1,0,0:0:0:0:
64,192,123999,1,0,0:0:0:0:
192,192,124087,1,0,0:0:0:0:
448,192,124175,1,0,0:0:0:0:
320,192,124264,1,0,0:0:0:0:
448,192,124352,128,0,124440:0:0:0:0:
64,192,124528,128,0,124616:0:0:0:0:
320,192,124705,128,0,124793:0:0:0:0:
64,192,125058,1,0,0:0:0:0:
448,192,125058,1,0,0:0:0:0:
320,192,125146,1,0,0:0:0:0:
192,192,125146,1,0,0:0:0:0:
64,192,125411,1,0,0:0:0:0:
448,192,125411,1,0,0:0:0:0:
320,192,125587,1,0,0:0:0:0:
192,192,125587,1,0,0:0:0:0:
320,192,125764,1,4,0:0:0:0:
448,192,125764,1,4,0:0:0:0:
64,192,125764,128,4,126116:0:0:0:0:
192,192,125764,1,4,0:0:0:0:
192,192,126116,128,0,126469:0:0:0:0:
448,192,126116,1,2,0:0:0:0:
64,192,126293,1,0,0:0:0:0:
320,192,126469,128,0,126822:0:0:0:0:
448,192,126469,1,4,0:0:0:0:
192,192,126646,1,0,0:0:0:0:
448,192,126822,128,0,127528:0:0:0:0:
64,192,126822,1,2,0:0:0:0:
320,192,126999,1,0,0:0:0:0:
192,192,127175,1,4,0:0:0:0:
320,192,127352,1,0,0:0:0:0:
192,192,127528,128,0,127881:0:0:0:0:
64,192,127528,1,2,0:0:0:0:
320,192,127705,1,0,0:0:0:0:
448,192,127881,128,0,128234:0:0:0:0:
64,192,127881,1,4,0:0:0:0:
192,192,128058,1,0,0:0:0:0:
320,192,128234,128,0,128940:0:0:0:0:
64,192,128234,1,2,0:0:0:0:
448,192,128411,1,0,0:0:0:0:
64,192,128587,1,4,0:0:0:0:
192,192,128764,1,0,0:0:0:0:
64,192,128940,128,0,129293:0:0:0:0:
448,192,128940,1,2,0:0:0:0:
320,192,129116,1,0,0:0:0:0:
192,192,129293,128,0,129646:0:0:0:0:
448,192,129293,1,4,0:0:0:0:
64,192,129469,1,0,0:0:0:0:
448,192,129646,1,2,0:0:0:0:
320,192,129646,128,0,131411:0:0:0:0:
192,192,129822,1,0,0:0:0:0:
448,192,129999,1,4,0:0:0:0:
64,192,130175,1,0,0:0:0:0:
192,192,130352,1,2,0:0:0:0:
448,192,130352,1,2,0:0:0:0:
64,192,130528,1,0,0:0:0:0:
192,192,130705,1,4,0:0:0:0:
448,192,130881,1,0,0:0:0:0:
64,192,131058,1,2,0:0:0:0:
192,192,131058,1,2,0:0:0:0:
192,192,131234,1,0,0:0:0:0:
448,192,131411,128,0,131764:0:0:0:0:
64,192,131411,1,4,0:0:0:0:
192,192,131587,1,0,0:0:0:0:
320,192,131764,128,0,132116:0:0:0:0:
64,192,131764,1,2,0:0:0:0:
192,192,131940,1,0,0:0:0:0:
192,192,132116,128,0,132469:0:0:0:0:
448,192,132116,1,4,0:0:0:0:
320,192,132293,1,0,0:0:0:0:
64,192,132469,128,0,133175:0:0:0:0:
448,192,132469,1,2,0:0:0:0:
192,192,132646,1,0,0:0:0:0:
320,192,132822,1,4,0:0:0:0:
448,192,132999,1,0,0:0:0:0:
192,192,133175,128,0,133528:0:0:0:0:
320,192,133175,1,2,0:0:0:0:
448,192,133352,1,0,0:0:0:0:
320,192,133528,128,0,133881:0:0:0:0:
64,192,133528,1,4,0:0:0:0:
192,192,133705,1,0,0:0:0:0:
64,192,133881,1,2,0:0:0:0:
448,192,133881,128,0,135293:0:0:0:0:
320,192,134058,1,0,0:0:0:0:
64,192,134234,1,4,0:0:0:0:
192,192,134411,1,0,0:0:0:0:
192,192,134587,1,2,0:0:0:0:
320,192,134587,1,2,0:0:0:0:
64,192,134764,1,0,0:0:0:0:
320,192,134940,1,4,0:0:0:0:
192,192,135116,1,0,0:0:0:0:
320,192,135293,1,2,0:0:0:0:
64,192,135293,1,2,0:0:0:0:
192,192,135469,1,0,0:0:0:0:
448,192,135646,1,4,0:0:0:0:
64,192,135646,1,0,0:0:0:0:
320,192,135734,1,0,0:0:0:0:
192,192,135822,1,0,0:0:0:0:
320,192,135911,1,0,0:0:0:0:
64,192,135999,1,2,0:0:0:0:
192,192,136087,1,0,0:0:0:0:
320,192,136175,1,0,0:0:0:0:
192,192,136264,1,0,0:0:0:0:
448,192,136352,1,0,0:0:0:0:
320,192,136440,1,0,0:0:0:0:
192,192,136528,1,4,0:0:0:0:
64,192,136528,1,4,0:0:0:0:
320,192,136705,1,2,0:0:0:0:
448,192,136705,1,2,0:0:0:0:
64,192,136705,1,0,0:0:0:0:
64,192,137058,128,0,137411:0:0:0:0:
192,192,137058,1,4,0:0:0:0:
448,192,137058,1,4,0:0:0:0:
320,192,137234,1,0,0:0:0:0:
192,192,137411,128,0,137764:0:0:0:0:
448,192,137411,1,2,0:0:0:0:
320,192,137587,1,0,0:0:0:0:
320,192,137764,128,0,138116:0:0:0:0:
64,192,137764,1,4,0:0:0:0:
192,192,137940,1,0,0:0:0:0:
448,192,138116,128,0,138822:0:0:0:0:
64,192,138116,1,2,0:0:0:0:
320,192,138293,1,0,0:0:0:0:
64,192,138469,1,4,0:0:0:0:
320,192,138646,1,0,0:0:0:0:
192,192,138822,128,0,139175:0:0:0:0:
64,192,138822,1,2,0:0:0:0:
320,192,138999,1,0,0:0:0:0:
448,192,139175,128,0,139528:0:0:0:0:
64,192,139175,1,4,0:0:0:0:
192,192,139352,1,0,0:0:0:0:
320,192,139528,128,0,140234:0:0:0:0:
64,192,139528,1,2,0:0:0:0:
448,192,139705,1,0,0:0:0:0:
64,192,139881,1,4,0:0:0:0:
448,192,140058,1,0,0:0:0:0:
64,192,140234,128,0,140587:0:0:0:0:
192,192,140234,1,2,0:0:0:0:
320,192,140411,1,0,0:0:0:0:
192,192,140587,128,0,140940:0:0:0:0:
320,192,140587,1,4,0:0:0:0:
448,192,140764,1,0,0:0:0:0:
320,192,140940,128,0,142352:0:0:0:0:
64,192,140940,1,2,0:0:0:0:
64,192,141116,1,0,0:0:0:0:
448,192,141293,1,4,0:0:0:0:
64,192,141469,1,0,0:0:0:0:
64,192,141646,1,2,0:0:0:0:
448,192,141646,1,2,0:0:0:0:
448,192,141822,1,0,0:0:0:0:
64,192,141999,1,4,0:0:0:0:
192,192,142175,1,0,0:0:0:0:
64,192,142352,1,2,0:0:0:0:
448,192,142352,1,2,0:0:0:0:
320,192,142528,1,0,0:0:0:0:
448,192,142705,128,0,143058:0:0:0:0:
64,192,142705,1,4,0:0:0:0:
320,192,142881,1,0,0:0:0:0:
320,192,143058,128,0,143411:0:0:0:0:
64,192,143058,1,2,0:0:0:0:
192,192,143234,1,0,0:0:0:0:
192,192,143411,128,0,143764:0:0:0:0:
448,192,143411,1,4,0:0:0:0:
320,192,143587,1,0,0:0:0:0:
64,192,143764,128,0,144469:0:0:0:0:
448,192,143764,1,2,0:0:0:0:
192,192,143940,1,0,0:0:0:0:
448,192,144116,1,4,0:0:0:0:
320,192,144293,1,0,0:0:0:0:
192,192,144469,128,0,144822:0:0:0:0:
448,192,144469,1,2,0:0:0:0:
64,192,144646,1,0,0:0:0:0:
320,192,144822,128,0,145175:0:0:0:0:
448,192,144822,1,4,0:0:0:0:
192,192,144999,1,0,0:0:0:0:
64,192,145175,1,2,0:0:0:0:
448,192,145175,128,0,148175:0:0:0:0:
64,192,145528,1,4,0:0:0:0:
320,192,145528,1,4,0:0:0:0:
320,192,145881,1,2,0:0:0:0:
192,192,145881,1,2,0:0:0:0:
320,192,146058,1,4,0:0:0:0:
64,192,146058,1,4,0:0:0:0:
64,192,146411,1,2,0:0:0:0:
320,192,146411,1,2,0:0:0:0:
192,192,146587,1,4,0:0:0:0:
320,192,146587,1,4,0:0:0:0:
320,192,146940,1,2,0:0:0:0:
64,192,146940,1,2,0:0:0:0:
192,192,147116,1,4,0:0:0:0:
64,192,147116,1,4,0:0:0:0:
192,192,147469,1,4,0:0:0:0:
320,192,147469,1,4,0:0:0:0:
64,192,147646,1,2,0:0:0:0:
320,192,147646,1,2,0:0:0:0:
64,192,147822,1,2,0:0:0:0:
192,192,147822,1,2,0:0:0:0:
64,192,147999,1,2,0:0:0:0:
320,192,147999,1,2,0:0:0:0:
192,192,148175,1,4,0:0:0:0:
320,192,148175,1,4,0:0:0:0:
448,192,148352,1,4,0:0:0:0:
64,192,148352,1,4,0:0:0:0:
192,192,148352,1,4,0:0:0:0:
448,192,148616,1,0,0:0:0:0:
64,192,148616,1,0,0:0:0:0:
320,192,148705,1,2,0:0:0:0:
192,192,148705,1,2,0:0:0:0:
320,192,148881,1,0,0:0:0:0:
64,192,148881,1,0,0:0:0:0:
64,192,149058,1,4,0:0:0:0:
320,192,149058,1,4,0:0:0:0:
192,192,149234,1,0,0:0:0:0:
448,192,149411,1,2,0:0:0:0:
320,192,149411,1,2,0:0:0:0:
192,192,149587,1,0,0:0:0:0:
64,192,149764,1,4,0:0:0:0:
448,192,149764,1,4,0:0:0:0:
64,192,150028,1,0,0:0:0:0:
448,192,150028,1,0,0:0:0:0:
192,192,150116,1,2,0:0:0:0:
320,192,150116,1,2,0:0:0:0:
64,192,150293,1,0,0:0:0:0:
320,192,150293,1,0,0:0:0:0:
320,192,150469,1,4,0:0:0:0:
64,192,150469,1,4,0:0:0:0:
192,192,150646,1,0,0:0:0:0:
448,192,150822,1,2,0:0:0:0:
320,192,150822,1,2,0:0:0:0:
192,192,150999,1,0,0:0:0:0:
192,192,151175,1,4,0:0:0:0:
448,192,151175,1,4,0:0:0:0:
448,192,151440,1,0,0:0:0:0:
320,192,151440,1,0,0:0:0:0:
192,192,151528,1,2,0:0:0:0:
64,192,151528,1,2,0:0:0:0:
192,192,151705,1,0,0:0:0:0:
448,192,151705,1,0,0:0:0:0:
192,192,151881,1,4,0:0:0:0:
448,192,151881,1,4,0:0:0:0:
320,192,152058,1,0,0:0:0:0:
64,192,152234,1,2,0:0:0:0:
448,192,152234,1,2,0:0:0:0:
192,192,152411,1,0,0:0:0:0:
320,192,152587,1,4,0:0:0:0:
64,192,152587,1,4,0:0:0:0:
192,192,152764,1,0,0:0:0:0:
320,192,152940,1,2,0:0:0:0:
448,192,152940,1,2,0:0:0:0:
192,192,153116,1,0,0:0:0:0:
320,192,153293,1,4,0:0:0:0:
64,192,153293,1,4,0:0:0:0:
448,192,153469,1,0,0:0:0:0:
192,192,153469,1,0,0:0:0:0:
320,192,153646,1,2,0:0:0:0:
192,192,153646,1,2,0:0:0:0:
320,192,153822,1,0,0:0:0:0:
64,192,153822,1,0,0:0:0:0:
64,192,153999,1,4,0:0:0:0:
448,192,153999,1,4,0:0:0:0:
64,192,154264,1,0,0:0:0:0:
448,192,154264,1,0,0:0:0:0:
320,192,154352,1,2,0:0:0:0:
192,192,154352,1,2,0:0:0:0:
320,192,154528,1,0,0:0:0:0:
64,192,154528,1,0,0:0:0:0:
64,192,154705,1,4,0:0:0:0:
320,192,154705,1,4,0:0:0:0:
192,192,154881,1,0,0:0:0:0:
320,192,155058,1,2,0:0:0:0:
64,192,155058,1,2,0:0:0:0:
192,192,155234,1,0,0:0:0:0:
448,192,155411,1,4,0:0:0:0:
64,192,155411,1,4,0:0:0:0:
448,192,155675,1,0,0:0:0:0:
64,192,155675,1,0,0:0:0:0:
192,192,155764,1,2,0:0:0:0:
320,192,155764,1,2,0:0:0:0:
64,192,155940,1,0,0:0:0:0:
320,192,155940,1,0,0:0:0:0:
64,192,156116,1,4,0:0:0:0:
320,192,156116,1,4,0:0:0:0:
192,192,156293,1,0,0:0:0:0:
448,192,156469,1,2,0:0:0:0:
192,192,156469,1,2,0:0:0:0:
320,192,156646,1,0,0:0:0:0:
64,192,156822,1,4,0:0:0:0:
320,192,156822,1,4,0:0:0:0:
448,192,157087,1,0,0:0:0:0:
320,192,157087,1,0,0:0:0:0:
64,192,157175,1,2,0:0:0:0:
192,192,157175,1,2,0:0:0:0:
448,192,157352,1,0,0:0:0:0:
192,192,157352,1,0,0:0:0:0:
320,192,157528,1,4,0:0:0:0:
192,192,157705,1,0,0:0:0:0:
64,192,157881,1,2,0:0:0:0:
448,192,157881,1,2,0:0:0:0:
192,192,158058,1,0,0:0:0:0:
320,192,158234,1,4,0:0:0:0:
64,192,158234,1,4,0:0:0:0:
448,192,158234,1,4,0:0:0:0:
320,192,158587,1,2,0:0:0:0:
448,192,158587,1,2,0:0:0:0:
192,192,159116,1,4,0:0:0:0:
320,192,159116,1,4,0:0:0:0:
448,192,159293,1,2,0:0:0:0:
64,192,159293,1,2,0:0:0:0:
320,192,159469,1,0,0:0:0:0:
192,192,159469,1,0,0:0:0:0:
448,192,159646,1,4,0:0:0:0:
64,192,159646,1,4,0:0:0:0:
320,192,159646,1,4,0:0:0:0:
320,192,159911,1,0,0:0:0:0:
192,192,159911,1,0,0:0:0:0:
448,192,159999,1,2,0:0:0:0:
64,192,159999,1,2,0:0:0:0:
320,192,160175,1,0,0:0:0:0:
64,192,160175,1,0,0:0:0:0:
64,192,160352,1,4,0:0:0:0:
320,192,160352,1,4,0:0:0:0:
192,192,160528,1,0,0:0:0:0:
448,192,160705,1,2,0:0:0:0:
320,192,160705,1,2,0:0:0:0:
64,192,160881,1,0,0:0:0:0:
64,192,161058,1,4,0:0:0:0:
448,192,161058,1,4,0:0:0:0:
64,192,161322,1,0,0:0:0:0:
448,192,161322,1,0,0:0:0:0:
320,192,161411,1,2,0:0:0:0:
192,192,161411,1,2,0:0:0:0:
320,192,161587,1,0,0:0:0:0:
64,192,161587,1,0,0:0:0:0:
64,192,161764,1,4,0:0:0:0:
320,192,161764,1,4,0:0:0:0:
448,192,161940,1,0,0:0:0:0:
64,192,162116,1,2,0:0:0:0:
192,192,162116,1,2,0:0:0:0:
320,192,162293,1,0,0:0:0:0:
64,192,162469,1,4,0:0:0:0:
448,192,162469,1,4,0:0:0:0:
192,192,162646,1,0,0:0:0:0:
64,192,162822,1,2,0:0:0:0:
448,192,162822,1,2,0:0:0:0:
320,192,162999,1,0,0:0:0:0:
192,192,163175,1,4,0:0:0:0:
320,192,163175,1,4,0:0:0:0:
64,192,163352,1,0,0:0:0:0:
192,192,163528,1,2,0:0:0:0:
448,192,163528,1,2,0:0:0:0:
320,192,163705,1,0,0:0:0:0:
64,192,163881,1,4,0:0:0:0:
448,192,163881,1,4,0:0:0:0:
192,192,163881,1,4,0:0:0:0:
320,192,164234,1,2,0:0:0:0:
192,192,164234,1,2,0:0:0:0:
448,192,164940,1,2,0:0:0:0:
64,192,164940,1,2,0:0:0:0:
448,192,165293,128,4,165822:0:0:0:0:
64,192,165293,1,4,0:0:0:0:
320,192,165293,1,0,0:0:0:0:
320,192,165822,128,4,166175:0:0:0:0:
64,192,165822,1,4,0:0:0:0:
192,192,166175,128,4,166528:0:0:0:0:
448,192,166175,1,4,0:0:0:0:
64,192,166528,128,0,169352:0:0:0:0:
320,192,166528,1,4,0:0:0:0:
192,192,167411,1,0,0:0:0:0:
320,192,167764,1,0,0:0:0:0:
448,192,168116,1,0,0:0:0:0:
448,192,168999,1,0,0:0:0:0:
320,192,169175,1,0,0:0:0:0:
192,192,169352,1,0,0:0:0:0:
