osu file format v14

[General]
AudioFilename: audio.mp3
AudioLeadIn: 0
PreviewTime: 121522
Countdown: 1
SampleSet: Normal
StackLeniency: 0.7
Mode: 1
LetterboxInBreaks: 0
WidescreenStoryboard: 1

[Editor]
Bookmarks: 22254,33289,44323,66392,88461,110530,121565,143634,165703
DistanceSpacing: 1.1
BeatDivisor: 2
GridSize: 32
TimelineZoom: 1.8

[Metadata]
Title:popsicle beach
TitleUnicode:popsicle beach
Artist:nanobii
ArtistUnicode:nanobii
Creator:vrnl
Version:Futsuu
Source:osu!
Tags:mappers guild happy hardcore happycore techno
BeatmapID:2037399
BeatmapSetID:973173

[Difficulty]
HPDrainRate:7
CircleSize:5
OverallDifficulty:4
ApproachRate:5
SliderMultiplier:1.4
SliderTickRate:1

[Events]
//Background and Video events
0,0,"POPSICLEBEACHbysing.png",0,0
//Break Periods
//Storyboard Layer 0 (Background)
//Storyboard Layer 1 (Fail)
//Storyboard Layer 2 (Pass)
//Storyboard Layer 3 (Foreground)
//Storyboard Sound Samples

[TimingPoints]
206,344.827586206897,4,1,0,30,1,0
2878,-100,4,1,0,30,0,0
5464,-100,4,1,0,35,0,0
8395,-100,4,1,0,40,0,0
11154,-100,4,1,0,50,0,0
16671,-100,4,1,0,60,0,0
20809,-100,4,1,0,25,0,0
22188,-100,4,1,0,70,0,0
38740,-100,4,1,0,80,0,0
43568,-100,4,1,0,60,0,0
44257,-100,4,1,0,90,0,0
44343,-100,4,1,0,90,0,1
66412,-100,4,1,0,90,0,0
82878,-100,4,1,0,45,0,0
84343,-100,4,1,0,35,0,0
85723,-100,4,1,0,25,0,0
88395,-100,4,1,0,50,0,0
98912,-100,4,1,0,60,0,0
110464,-100,4,1,0,80,0,0
115981,-100,4,1,0,70,0,0
117361,-100,4,1,0,75,0,0
118740,-100,4,1,0,80,0,0
120162,-100,4,1,0,40,0,0
121499,-100,4,1,0,90,0,0
121585,-100,4,1,0,90,0,1
142921,-100,4,1,0,70,0,1
143654,-100,4,1,0,90,0,0
160119,-100,4,1,0,70,0,0
160464,-100,4,1,0,63,0,0
160809,-100,4,1,0,57,0,0
161154,-100,4,1,0,51,0,0
161499,-100,4,1,0,45,0,0
161843,-100,4,1,0,38,0,0
162188,-100,4,1,0,32,0,0
162533,-100,4,1,0,26,0,0
162878,-100,4,1,0,20,0,0
163223,-100,4,1,0,18,0,0
163568,-100,4,1,0,16,0,0
163912,-100,4,1,0,14,0,0
164257,-100,4,1,0,12,0,0
164602,-100,4,1,0,10,0,0
164947,-100,4,1,0,8,0,0
165292,-100,4,1,0,6,0,0
165637,-100,4,1,0,5,0,0

[HitObjects]
276,107,206,5,2,0:0:0:0:
223,277,550,1,0,0:0:0:0:
276,107,895,1,2,0:0:0:0:
276,107,1412,1,0,0:0:0:0:
276,107,2964,1,2,0:0:0:0:
276,107,3309,1,0,0:0:0:0:
276,107,3654,1,2,0:0:0:0:
276,107,4171,1,2,0:0:0:0:
276,107,5723,1,2,0:0:0:0:
276,107,6068,1,0,0:0:0:0:
276,107,6412,1,2,0:0:0:0:
276,107,6930,1,0,0:0:0:0:
276,107,8481,1,2,0:0:0:0:
276,107,8826,1,0,0:0:0:0:
276,107,9171,1,2,0:0:0:0:
276,107,9688,1,2,0:0:0:0:
276,107,10895,1,2,0:0:0:0:
276,107,11240,1,2,0:0:0:0:
276,107,11585,1,0,0:0:0:0:
276,107,11930,1,2,0:0:0:0:
276,107,12447,1,0,0:0:0:0:
276,107,13999,1,2,0:0:0:0:
276,107,14343,1,0,0:0:0:0:
24,107,14688,1,2,0:0:0:0:
276,107,15206,1,2,0:0:0:0:
127,171,15895,1,2,0:0:0:0:
127,171,16068,1,0,0:0:0:0:
127,171,16412,1,2,0:0:0:0:
276,107,16757,1,0,0:0:0:0:
276,107,17102,1,2,0:0:0:0:
276,107,17447,1,2,0:0:0:0:
83,114,17619,1,0,0:0:0:0:
276,107,17792,1,0,0:0:0:0:
276,107,17964,1,0,0:0:0:0:
276,107,18309,1,2,0:0:0:0:
276,107,18654,1,0,0:0:0:0:
276,107,19516,1,2,0:0:0:0:
276,107,19861,1,2,0:0:0:0:
276,107,20206,1,0,0:0:0:0:
276,107,20723,1,2,0:0:0:0:
256,192,20895,12,0,21585,0:0:0:0:
197,158,22274,5,6,0:0:0:0:
292,144,22792,1,2,0:0:0:0:
292,144,23309,1,2,0:0:0:0:
292,144,23654,1,0,0:0:0:0:
292,144,24171,1,0,0:0:0:0:
292,144,24688,1,0,0:0:0:0:
292,144,25033,1,2,0:0:0:0:
292,144,25550,1,2,0:0:0:0:
292,144,26068,1,2,0:0:0:0:
292,144,26412,1,0,0:0:0:0:
292,144,26930,1,0,0:0:0:0:
292,144,27792,1,2,0:0:0:0:
292,144,28309,1,2,0:0:0:0:
292,144,28826,1,2,0:0:0:0:
292,144,29171,1,0,0:0:0:0:
292,144,29688,1,0,0:0:0:0:
292,144,30206,1,0,0:0:0:0:
292,144,30550,1,2,0:0:0:0:
292,144,31068,1,2,0:0:0:0:
292,144,31585,1,2,0:0:0:0:
292,144,31930,1,0,0:0:0:0:
292,144,32447,1,0,0:0:0:0:
292,144,32964,1,0,0:0:0:0:
292,144,33309,1,4,0:0:0:0:
196,109,33654,1,2,0:0:0:0:
196,109,33999,1,2,0:0:0:0:
196,109,34171,1,2,0:0:0:0:
196,109,34516,1,2,0:0:0:0:
196,109,34861,1,2,0:0:0:0:
196,109,35206,1,2,0:0:0:0:
196,109,35895,1,2,0:0:0:0:
196,109,36240,1,2,0:0:0:0:
196,109,36585,1,2,0:0:0:0:
196,109,37274,1,2,0:0:0:0:
196,109,37619,1,2,0:0:0:0:
196,109,37964,1,2,0:0:0:0:
196,109,38309,1,2,0:0:0:0:
196,109,38481,1,2,0:0:0:0:
196,109,38826,1,4,0:0:0:0:
141,144,39171,1,2,0:0:0:0:
141,144,39343,1,0,0:0:0:0:
141,144,39516,1,2,0:0:0:0:
141,144,39861,1,0,0:0:0:0:
141,144,40206,1,2,0:0:0:0:
141,144,40378,1,0,0:0:0:0:
141,144,40550,1,2,0:0:0:0:
141,144,40895,1,0,0:0:0:0:
236,63,41240,1,0,0:0:0:0:
141,144,41585,1,2,0:0:0:0:
309,190,41757,1,0,0:0:0:0:
309,190,41930,1,2,0:0:0:0:
309,190,42102,1,0,0:0:0:0:
309,190,42274,1,2,0:0:0:0:
309,190,42619,1,0,0:0:0:0:
288,170,42964,1,2,0:0:0:0:
248,51,43137,1,2,0:0:0:0:
288,170,43309,1,0,0:0:0:0:
288,170,43481,1,0,0:0:0:0:
63,83,43654,2,0,L|183:191,1,140
236,83,44343,1,6,0:0:0:0:
236,83,45033,1,0,0:0:0:0:
236,83,45206,1,0,0:0:0:0:
236,83,45378,1,2,0:0:0:0:
236,83,45550,1,0,0:0:0:0:
236,83,45895,1,2,0:0:0:0:
81,149,46240,1,0,0:0:0:0:
187,78,46757,1,2,0:0:0:0:
187,78,46930,1,2,0:0:0:0:
65,221,47102,1,0,0:0:0:0:
65,221,47274,1,2,0:0:0:0:
146,223,47619,1,0,0:0:0:0:
196,224,48137,1,2,0:0:0:0:
196,224,48309,1,0,0:0:0:0:
122,129,48481,1,0,0:0:0:0:
196,224,48654,1,2,0:0:0:0:
196,224,48999,1,0,0:0:0:0:
196,224,49516,1,2,0:0:0:0:
196,224,49861,1,0,0:0:0:0:
133,167,50550,1,0,0:0:0:0:
133,167,50723,1,0,0:0:0:0:
133,167,50895,1,2,0:0:0:0:
133,167,51068,1,0,0:0:0:0:
126,194,51412,1,2,0:0:0:0:
160,124,51757,1,0,0:0:0:0:
309,210,52274,1,0,0:0:0:0:
309,210,52447,1,2,0:0:0:0:
309,210,52792,1,2,0:0:0:0:
155,186,52964,1,0,0:0:0:0:
155,186,53309,1,0,0:0:0:0:
184,182,53481,1,2,0:0:0:0:
184,182,53654,1,2,0:0:0:0:
184,182,53826,1,0,0:0:0:0:
184,182,54343,1,2,0:0:0:0:
172,179,54688,1,0,0:0:0:0:
172,179,55378,1,6,0:0:0:0:
236,83,56068,1,0,0:0:0:0:
236,83,56241,1,0,0:0:0:0:
236,83,56413,1,2,0:0:0:0:
236,83,56585,1,0,0:0:0:0:
236,83,56930,1,2,0:0:0:0:
126,148,57274,1,0,0:0:0:0:
187,78,57792,1,2,0:0:0:0:
187,78,57965,1,2,0:0:0:0:
187,78,58137,1,0,0:0:0:0:
65,221,58309,1,2,0:0:0:0:
146,223,58654,1,0,0:0:0:0:
196,224,59172,1,2,0:0:0:0:
196,224,59343,1,0,0:0:0:0:
206,94,59516,1,0,0:0:0:0:
196,224,59689,1,2,0:0:0:0:
196,224,60034,1,0,0:0:0:0:
196,224,60378,1,0,0:0:0:0:
196,224,60551,1,2,0:0:0:0:
196,224,60723,1,2,0:0:0:0:
196,224,60896,1,4,0:0:0:0:
133,167,61585,1,0,0:0:0:0:
133,167,61758,1,0,0:0:0:0:
133,167,61930,1,2,0:0:0:0:
133,167,62103,1,0,0:0:0:0:
189,22,62274,1,6,0:0:0:0:
126,194,62620,1,2,0:0:0:0:
160,124,62792,1,0,0:0:0:0:
309,210,63137,1,0,0:0:0:0:
309,210,63309,1,2,0:0:0:0:
246,139,63654,1,6,0:0:0:0:
238,249,64171,1,0,0:0:0:0:
152,96,64516,1,0,0:0:0:0:
238,249,64688,1,2,0:0:0:0:
238,249,64861,1,0,0:0:0:0:
238,249,65206,1,2,0:0:0:0:
238,249,65550,1,2,0:0:0:0:
238,249,65723,1,0,0:0:0:0:
238,249,65894,1,2,0:0:0:0:
134,280,66412,1,6,0:0:0:0:
163,170,67102,1,0,0:0:0:0:
163,170,67274,1,2,0:0:0:0:
163,170,67447,1,0,0:0:0:0:
176,135,67792,1,0,0:0:0:0:
180,134,68481,1,0,0:0:0:0:
180,134,68654,1,2,0:0:0:0:
180,134,68826,1,0,0:0:0:0:
202,159,69171,1,0,0:0:0:0:
203,173,69516,1,2,0:0:0:0:
204,173,69688,1,0,0:0:0:0:
204,173,69861,1,2,0:0:0:0:
214,165,70206,1,0,0:0:0:0:
214,165,70550,1,0,0:0:0:0:
214,165,70895,1,2,0:0:0:0:
214,165,71068,1,0,0:0:0:0:
109,195,71240,1,0,0:0:0:0:
109,195,71585,1,2,0:0:0:0:
109,195,71757,1,2,0:0:0:0:
109,195,71930,1,0,0:0:0:0:
163,170,72619,1,0,0:0:0:0:
163,170,72791,1,2,0:0:0:0:
163,170,72964,1,0,0:0:0:0:
176,135,73309,1,0,0:0:0:0:
180,134,73998,1,0,0:0:0:0:
180,134,74171,1,2,0:0:0:0:
180,134,74343,1,0,0:0:0:0:
202,159,74688,1,0,0:0:0:0:
203,173,75033,1,2,0:0:0:0:
204,173,75205,1,0,0:0:0:0:
204,173,75378,1,2,0:0:0:0:
214,165,75723,1,0,0:0:0:0:
214,165,76068,1,4,0:0:0:0:
214,165,76412,1,2,0:0:0:0:
214,165,76585,1,4,0:0:0:0:
109,195,76929,1,2,0:0:0:0:
109,195,77447,1,6,0:0:0:0:
172,131,77792,1,2,0:0:0:0:
172,131,77964,1,0,0:0:0:0:
172,131,78137,1,0,0:0:0:0:
172,131,78309,1,2,0:0:0:0:
172,131,78826,1,0,0:0:0:0:
165,59,79171,1,2,0:0:0:0:
165,59,79343,1,0,0:0:0:0:
165,59,79516,1,0,0:0:0:0:
165,59,79688,1,2,0:0:0:0:
165,59,80206,1,0,0:0:0:0:
62,203,80550,1,2,0:0:0:0:
62,203,80723,1,0,0:0:0:0:
62,203,80895,1,0,0:0:0:0:
131,199,81068,1,2,0:0:0:0:
131,199,81585,1,4,0:0:0:0:
131,199,82102,1,4,0:0:0:0:
131,199,82447,1,0,0:0:0:0:
131,199,82792,1,6,0:0:0:0:
256,192,82964,12,0,87102,0:0:0:0:
276,107,88481,5,4,0:0:0:0:
223,277,88825,1,0,0:0:0:0:
276,107,89170,1,2,0:0:0:0:
276,107,89687,1,0,0:0:0:0:
276,107,91239,1,2,0:0:0:0:
276,107,91584,1,0,0:0:0:0:
276,107,91929,1,2,0:0:0:0:
276,107,92446,1,2,0:0:0:0:
276,107,93998,1,2,0:0:0:0:
276,107,94343,1,0,0:0:0:0:
276,107,94687,1,2,0:0:0:0:
276,107,95205,1,0,0:0:0:0:
276,107,96756,1,2,0:0:0:0:
276,107,97101,1,0,0:0:0:0:
276,107,97446,1,2,0:0:0:0:
276,107,97963,1,2,0:0:0:0:
276,107,99515,1,2,0:0:0:0:
276,107,99860,1,0,0:0:0:0:
276,107,100205,1,2,0:0:0:0:
276,107,100722,1,0,0:0:0:0:
276,107,102274,1,2,0:0:0:0:
276,107,102618,1,0,0:0:0:0:
24,107,102963,1,2,0:0:0:0:
276,107,103481,1,2,0:0:0:0:
276,107,105032,1,0,0:0:0:0:
276,107,105377,1,2,0:0:0:0:
276,107,105722,1,2,0:0:0:0:
276,107,106239,1,0,0:0:0:0:
276,107,107791,1,2,0:0:0:0:
276,107,108136,1,2,0:0:0:0:
276,107,108481,1,0,0:0:0:0:
276,107,108825,1,2,0:0:0:0:
109,168,109861,1,4,0:0:0:0:
95,158,110550,1,6,0:0:0:0:
150,227,110895,1,2,0:0:0:0:
150,227,111412,1,2,0:0:0:0:
150,227,111757,1,0,0:0:0:0:
150,227,113309,1,2,0:0:0:0:
150,227,113654,1,0,0:0:0:0:
150,227,114171,1,2,0:0:0:0:
150,227,114516,1,0,0:0:0:0:
212,146,115378,1,0,0:0:0:0:
212,146,115723,1,0,0:0:0:0:
153,169,116068,1,4,0:0:0:0:
153,169,116240,1,0,0:0:0:0:
150,227,116412,1,2,0:0:0:0:
153,169,116757,1,0,0:0:0:0:
150,227,116930,1,2,0:0:0:0:
179,40,117102,1,2,0:0:0:0:
232,158,117447,1,4,0:0:0:0:
328,157,117792,1,0,0:0:0:0:
224,77,118137,1,0,0:0:0:0:
331,160,118309,1,0,0:0:0:0:
227,80,118481,1,0,0:0:0:0:
233,105,118826,1,4,0:0:0:0:
91,205,118999,1,0,0:0:0:0:
91,205,119171,1,0,0:0:0:0:
91,205,119343,1,0,0:0:0:0:
91,205,119516,1,2,0:0:0:0:
91,205,119861,1,2,0:0:0:0:
256,192,120206,12,0,121240,0:0:0:0:
236,83,121585,5,6,0:0:0:0:
236,83,122275,1,0,0:0:0:0:
236,83,122448,1,0,0:0:0:0:
236,83,122620,1,2,0:0:0:0:
236,83,122792,1,0,0:0:0:0:
236,83,123137,1,2,0:0:0:0:
81,149,123482,1,0,0:0:0:0:
187,78,123999,1,2,0:0:0:0:
187,78,124172,1,2,0:0:0:0:
65,221,124344,1,0,0:0:0:0:
65,221,124516,1,2,0:0:0:0:
146,223,124861,1,0,0:0:0:0:
196,224,125379,1,2,0:0:0:0:
196,224,125551,1,0,0:0:0:0:
122,129,125723,1,0,0:0:0:0:
196,224,125896,1,2,0:0:0:0:
196,224,126241,1,0,0:0:0:0:
196,224,126758,1,2,0:0:0:0:
196,224,127103,1,0,0:0:0:0:
133,167,127792,1,0,0:0:0:0:
133,167,127965,1,0,0:0:0:0:
133,167,128137,1,2,0:0:0:0:
133,167,128310,1,0,0:0:0:0:
126,194,128654,1,2,0:0:0:0:
160,124,128999,1,0,0:0:0:0:
309,210,129516,1,0,0:0:0:0:
309,210,129689,1,2,0:0:0:0:
309,210,130034,1,2,0:0:0:0:
155,186,130206,1,0,0:0:0:0:
155,186,130551,1,0,0:0:0:0:
184,182,130723,1,2,0:0:0:0:
184,182,130896,1,2,0:0:0:0:
184,182,131068,1,0,0:0:0:0:
184,182,131585,1,2,0:0:0:0:
172,179,131930,1,0,0:0:0:0:
172,179,132620,1,6,0:0:0:0:
236,83,133310,1,0,0:0:0:0:
236,83,133481,1,0,0:0:0:0:
236,83,133655,1,2,0:0:0:0:
236,83,133827,1,0,0:0:0:0:
236,83,134172,1,2,0:0:0:0:
126,148,134516,1,0,0:0:0:0:
187,78,135034,1,2,0:0:0:0:
187,78,135207,1,2,0:0:0:0:
187,78,135379,1,0,0:0:0:0:
65,221,135551,1,2,0:0:0:0:
146,223,135896,1,0,0:0:0:0:
196,224,136412,1,2,0:0:0:0:
196,224,136585,1,0,0:0:0:0:
206,94,136758,1,0,0:0:0:0:
196,224,136931,1,2,0:0:0:0:
196,224,137274,1,0,0:0:0:0:
196,224,137620,1,0,0:0:0:0:
196,224,137793,1,2,0:0:0:0:
196,224,137965,1,2,0:0:0:0:
196,224,138138,1,4,0:0:0:0:
133,167,138827,1,0,0:0:0:0:
133,167,139000,1,0,0:0:0:0:
133,167,139172,1,2,0:0:0:0:
133,167,139343,1,0,0:0:0:0:
189,22,139516,1,6,0:0:0:0:
126,194,139862,1,2,0:0:0:0:
160,124,140034,1,0,0:0:0:0:
309,210,140379,1,0,0:0:0:0:
309,210,140551,1,2,0:0:0:0:
246,139,140896,1,6,0:0:0:0:
238,249,141413,1,0,0:0:0:0:
152,96,141758,1,0,0:0:0:0:
238,249,141930,1,2,0:0:0:0:
238,249,142103,1,0,0:0:0:0:
238,249,142448,1,2,0:0:0:0:
238,249,142792,1,2,0:0:0:0:
238,249,142965,1,0,0:0:0:0:
238,249,143136,1,2,0:0:0:0:
134,280,143654,1,6,0:0:0:0:
163,170,144344,1,0,0:0:0:0:
163,170,144516,1,2,0:0:0:0:
163,170,144689,1,0,0:0:0:0:
176,135,145034,1,0,0:0:0:0:
180,134,145723,1,0,0:0:0:0:
180,134,145896,1,2,0:0:0:0:
180,134,146068,1,0,0:0:0:0:
202,159,146413,1,0,0:0:0:0:
203,173,146758,1,2,0:0:0:0:
204,173,146930,1,0,0:0:0:0:
204,173,147103,1,2,0:0:0:0:
214,165,147448,1,0,0:0:0:0:
214,165,147792,1,0,0:0:0:0:
214,165,148137,1,2,0:0:0:0:
214,165,148309,1,0,0:0:0:0:
109,195,148482,1,0,0:0:0:0:
109,195,148827,1,2,0:0:0:0:
109,195,148999,1,2,0:0:0:0:
109,195,149172,1,0,0:0:0:0:
163,170,149861,1,0,0:0:0:0:
163,170,150033,1,2,0:0:0:0:
163,170,150206,1,0,0:0:0:0:
176,135,150551,1,0,0:0:0:0:
180,134,151240,1,0,0:0:0:0:
180,134,151413,1,2,0:0:0:0:
180,134,151585,1,0,0:0:0:0:
202,159,151930,1,0,0:0:0:0:
203,173,152275,1,2,0:0:0:0:
204,173,152447,1,0,0:0:0:0:
204,173,152620,1,2,0:0:0:0:
214,165,152965,1,0,0:0:0:0:
214,165,153310,1,4,0:0:0:0:
214,165,153654,1,2,0:0:0:0:
214,165,153827,1,4,0:0:0:0:
109,195,154171,1,2,0:0:0:0:
109,195,154689,1,6,0:0:0:0:
172,131,155034,1,2,0:0:0:0:
172,131,155206,1,0,0:0:0:0:
172,131,155379,1,0,0:0:0:0:
172,131,155551,1,2,0:0:0:0:
172,131,156068,1,0,0:0:0:0:
165,59,156413,1,2,0:0:0:0:
165,59,156585,1,0,0:0:0:0:
165,59,156758,1,0,0:0:0:0:
165,59,156930,1,2,0:0:0:0:
165,59,157448,1,0,0:0:0:0:
62,203,157792,1,2,0:0:0:0:
62,203,157965,1,0,0:0:0:0:
62,203,158137,1,0,0:0:0:0:
131,199,158310,1,2,0:0:0:0:
131,199,158827,1,4,0:0:0:0:
131,199,159344,1,4,0:0:0:0:
131,199,159689,1,2,0:0:0:0:
131,199,160034,1,4,0:0:0:0:
256,192,160206,12,0,165723,0:0:0:0:
