osu file format v14

[General]
AudioFilename: audio.mp3
AudioLeadIn: 0
PreviewTime: 43471
Countdown: 0
SampleSet: None
StackLeniency: 0.4
Mode: 0
LetterboxInBreaks: 0
WidescreenStoryboard: 1

[Editor]
Bookmarks: 206,22274,44343,66412,82964,110550,121585,143654,160033
DistanceSpacing: 1.2
BeatDivisor: 4
GridSize: 32
TimelineZoom: 2

[Metadata]
Title:popsicle beach
TitleUnicode:popsicle beach
Artist:nanobii
ArtistUnicode:nanobii
Creator:Sing
Version:Normal
Source:
Tags:osu! mappers guild happy hardcore happycore techno toybot sinnoh
BeatmapID:1773500
BeatmapSetID:848068

[Difficulty]
HPDrainRate:5
CircleSize:3
OverallDifficulty:5
ApproachRate:5
SliderMultiplier:1.2
SliderTickRate:1

[Events]
//Background and Video events
0,0,"POPSICLEBEACH.png",0,0
//Break Periods
2,22464,32099
2,88806,98127
//Storyboard Layer 0 (Background)
//Storyboard Layer 1 (Fail)
//Storyboard Layer 2 (Pass)
//Storyboard Layer 3 (Foreground)
Sprite,Foreground,Centre,"sb\Glow3.png",0,0 C,0,65013,,174,225,182 M,0,65013,65056,487,74,475,81 F,2,65013,65857,1,0 S,2,65013,65957,1,0.2 P,0,65013,65957,A M,0,65056,65099,475,81,465,90 M,0,65099,65142,465,90,455,99 M,0,65142,65185,455,99,445,108 M,0,65185,65228,445,108,436,118 M,0,65228,65271,436,118,428,129 M,0,65271,65314,428,129,420,140 M,0,65314,65357,420,140,413,151
Sprite,Foreground,Centre,"sb\Glow3.png",319,98 C,0,65703,,253,177,128 F,2,65703,66203,1,0 S,2,65703,66303,1,0.2 P,0,65703,66303,A
Sprite,Foreground,Centre,"sb\Glow3.png",0,0 C,0,65875,,253,177,128 M,0,65875,65918,319,98,305,101 F,2,65875,66719,1,0 S,2,65875,66819,1,0.2 P,0,65875,66819,A M,0,65918,65961,305,101,292,104 M,0,65961,66004,292,104,279,106 M,0,66004,66047,279,106,266,109 M,0,66047,66090,266,109,252,111 M,0,66090,66133,252,111,239,113 M,0,66133,66176,239,113,226,114 M,0,66176,66219,226,114,212,115
Sprite,Foreground,Centre,"sb\Glow3.png",0,0 C,0,142254,,126,233,248 M,0,142254,142297,437,275,449,278 F,2,142254,143098,1,0 S,2,142254,143198,1,0.2 P,0,142254,143198,A M,0,142297,142340,449,278,462,282 M,0,142340,142383,462,282,475,286 M,0,142383,142426,475,286,488,290 M,0,142426,142469,488,290,475,286 M,0,142469,142512,475,286,462,282 M,0,142512,142555,462,282,449,278 M,0,142555,142598,449,278,437,275
Sprite,Foreground,Centre,"sb\Glow3.png",0,0 C,0,142772,,126,233,248 M,0,142772,142815,389,301,376,296 F,2,142772,143444,1,0 S,2,142772,143544,1,0.2 P,0,142772,143544,A M,0,142815,142858,376,296,363,292 M,0,142858,142901,363,292,350,288 M,0,142901,142944,350,288,337,284
Sprite,Foreground,Centre,"sb\Glow3.png",0,0 C,0,143117,,126,233,248 M,0,143117,143160,290,311,284,323 F,2,143117,143961,1,0 S,2,143117,144061,1,0.2 P,0,143117,144061,A M,0,143160,143203,284,323,280,336 M,0,143203,143246,280,336,276,349 M,0,143246,143289,276,349,273,362 M,0,143289,143332,273,362,272,375 M,0,143332,143375,272,375,271,389 M,0,143375,143418,271,389,271,402 M,0,143418,143461,271,402,272,416
Sprite,Foreground,Centre,"sb\Glow2.png",0,0 C,0,44323,,255,243,140 M,0,44323,44366,419,81,414,95 F,2,44323,44767,1,0 S,2,44323,44867,5.5,1.1 P,0,44323,44867,A M,0,44366,44409,414,95,410,109 M,0,44409,44452,410,109,410,124 M,0,44452,44495,410,124,411,139 M,0,44495,44538,411,139,414,154 M,0,44538,44581,414,154,420,167 M,0,44581,44624,420,167,428,180 M,0,44624,44667,428,180,438,192
Sprite,Foreground,Centre,"sb\Glow2.png",0,0 C,0,45530,,255,243,140 M,0,45530,45573,475,323,460,320 F,2,45530,46319,1,0 S,2,45530,46419,5.5,1.1 P,0,45530,46419,A M,0,45573,45616,460,320,445,318 M,0,45616,45659,445,318,430,316 M,0,45659,45702,430,316,415,314 M,0,45702,45745,415,314,400,312 M,0,45745,45788,400,312,385,310 M,0,45788,45831,385,310,370,308 M,0,45831,45874,370,308,356,306 M,0,45874,45917,356,306,370,308 M,0,45917,45961,370,308,385,310 M,0,45961,46004,385,310,400,312 M,0,46004,46047,400,312,415,314 M,0,46047,46090,415,314,430,316 M,0,46090,46133,430,316,445,318 M,0,46133,46176,445,318,460,320 M,0,46176,46219,460,320,475,323
Sprite,Foreground,Centre,"sb\Glow2.png",0,0 C,0,46910,,126,233,248 M,0,46910,46953,356,202,341,204 F,2,46910,47699,1,0 S,2,46910,47799,5.5,1.1 P,0,46910,47799,A M,0,46953,46996,341,204,326,206 M,0,46996,47039,326,206,311,208 M,0,47039,47082,311,208,296,210 M,0,47082,47125,296,210,281,212 M,0,47125,47168,281,212,266,214 M,0,47168,47211,266,214,251,216 M,0,47211,47254,251,216,237,218 M,0,47254,47297,237,218,251,216 M,0,47297,47341,251,216,266,214 M,0,47341,47384,266,214,281,212 M,0,47384,47427,281,212,296,210 M,0,47427,47470,296,210,311,208 M,0,47470,47513,311,208,326,206 M,0,47513,47556,326,206,341,204 M,0,47556,47599,341,204,356,202
Sprite,Foreground,Centre,"sb\Glow2.png",0,0 C,0,48289,,174,225,182 M,0,48289,48332,254,398,239,395 F,2,48289,49078,1,0 S,2,48289,49178,5.5,1.1 P,0,48289,49178,A M,0,48332,48375,239,395,224,393 M,0,48375,48418,224,393,209,391 M,0,48418,48461,209,391,194,389 M,0,48461,48504,194,389,179,387 M,0,48504,48547,179,387,164,385 M,0,48547,48590,164,385,149,383 M,0,48590,48633,149,383,135,381 M,0,48633,48676,135,381,149,383 M,0,48676,48720,149,383,164,385 M,0,48720,48763,164,385,179,387 M,0,48763,48806,179,387,194,389 M,0,48806,48849,194,389,209,391 M,0,48849,48892,209,391,224,393 M,0,48892,48935,224,393,239,395 M,0,48935,48978,239,395,254,398
Sprite,Foreground,Centre,"sb\Glow2.png",0,0 C,0,49841,,253,177,128 M,0,49841,49884,161,189,175,192 F,2,49841,50285,1,0 S,2,49841,50385,5.5,1.1 P,0,49841,50385,A M,0,49884,49927,175,192,190,194 M,0,49927,49970,190,194,205,193 M,0,49970,50013,205,193,220,190 M,0,50013,50056,220,190,234,185 M,0,50056,50099,234,185,247,178 M,0,50099,50142,247,178,259,170 M,0,50142,50185,259,170,270,159
Sprite,Foreground,Centre,"sb\Glow2.png",0,0 C,0,51048,,253,177,128 M,0,51048,51091,427,166,417,177 F,2,51048,51837,1,0 S,2,51048,51937,5.5,1.1 P,0,51048,51937,A M,0,51091,51134,417,177,409,190 M,0,51134,51177,409,190,402,203 M,0,51177,51220,402,203,395,216 M,0,51220,51263,395,216,390,230 M,0,51263,51306,390,230,386,245 M,0,51306,51349,386,245,383,260 M,0,51349,51392,383,260,381,274 M,0,51392,51435,381,274,383,260 M,0,51435,51479,383,260,386,245 M,0,51479,51522,386,245,390,230 M,0,51522,51565,390,230,395,216 M,0,51565,51608,395,216,402,203 M,0,51608,51651,402,203,409,190 M,0,51651,51694,409,190,417,177 M,0,51694,51737,417,177,427,166
Sprite,Foreground,Centre,"sb\Glow2.png",0,0 C,0,52944,,255,243,140 M,0,52944,52987,515,131,500,136 F,2,52944,53388,1,0 S,2,52944,53488,5.5,1.1 P,0,52944,53488,A M,0,52987,53030,500,136,486,140 M,0,53030,53073,486,140,472,144 M,0,53073,53116,472,144,457,147 M,0,53116,53159,457,147,442,149 M,0,53159,53202,442,149,427,151 M,0,53202,53245,427,151,412,151 M,0,53245,53288,412,151,397,151
Sprite,Foreground,Centre,"sb\Glow2.png",0,0 C,0,53806,,255,243,140 M,0,53806,53849,280,239,265,233 F,2,53806,54250,1,0 S,2,53806,54350,5.5,1.1 P,0,53806,54350,A M,0,53849,53892,265,233,251,229 M,0,53892,53935,251,229,237,225 M,0,53935,53978,237,225,222,222 M,0,53978,54021,222,222,207,220 M,0,54021,54064,207,220,192,218 M,0,54064,54107,192,218,177,218 M,0,54107,54150,177,218,162,218
Sprite,Foreground,Centre,"sb\Glow2.png",116,257 C,0,54323,,255,243,140 F,2,54323,54423,1,0 S,2,54323,54523,5.5,1.1 P,0,54323,54523,A
Sprite,Foreground,Centre,"sb\Glow2.png",0,0 C,0,55358,,174,225,182 M,0,55358,55401,363,412,364,397 F,2,55358,55802,1,0 S,2,55358,55902,5.5,1.1 P,0,55358,55902,A M,0,55401,55444,364,397,365,382 M,0,55444,55487,365,382,366,367 M,0,55487,55530,366,367,367,352 M,0,55530,55573,367,352,368,337 M,0,55573,55616,368,337,369,322 M,0,55616,55659,369,322,370,307 M,0,55659,55702,370,307,371,292
Sprite,Foreground,Centre,"sb\Glow2.png",0,0 C,0,56565,,174,225,182 M,0,56565,56608,521,205,519,190 F,2,56565,57354,1,0 S,2,56565,57454,5.5,1.1 P,0,56565,57454,A M,0,56608,56651,519,190,518,175 M,0,56651,56694,518,175,517,160 M,0,56694,56737,517,160,516,145 M,0,56737,56780,516,145,515,130 M,0,56780,56823,515,130,514,115 M,0,56823,56866,514,115,513,100 M,0,56866,56909,513,100,512,85 M,0,56909,56952,512,85,513,100 M,0,56952,56996,513,100,514,115 M,0,56996,57039,514,115,515,130 M,0,57039,57082,515,130,516,145 M,0,57082,57125,516,145,517,160 M,0,57125,57168,517,160,518,175 M,0,57168,57211,518,175,519,190 M,0,57211,57254,519,190,521,205
Sprite,Foreground,Centre,"sb\Glow2.png",0,0 C,0,57944,,253,177,128 M,0,57944,57987,433,315,431,329 F,2,57944,58733,1,0 S,2,57944,58833,5.5,1.1 P,0,57944,58833,A M,0,57987,58030,431,329,430,344 M,0,58030,58073,430,344,429,359 M,0,58073,58116,429,359,428,374 M,0,58116,58159,428,374,427,389 M,0,58159,58202,427,389,426,404 M,0,58202,58245,426,404,425,419 M,0,58245,58288,425,419,424,434 M,0,58288,58331,424,434,425,419 M,0,58331,58375,425,419,426,404 M,0,58375,58418,426,404,427,389 M,0,58418,58461,427,389,428,374 M,0,58461,58504,428,374,429,359 M,0,58504,58547,429,359,430,344 M,0,58547,58590,430,344,431,329 M,0,58590,58633,431,329,433,315
Sprite,Foreground,Centre,"sb\Glow2.png",0,0 C,0,59323,,255,243,140 M,0,59323,59366,345,197,343,182 F,2,59323,60112,1,0 S,2,59323,60212,5.5,1.1 P,0,59323,60212,A M,0,59366,59409,343,182,342,167 M,0,59409,59452,342,167,341,152 M,0,59452,59495,341,152,340,137 M,0,59495,59538,340,137,339,122 M,0,59538,59581,339,122,338,107 M,0,59581,59624,338,107,337,92 M,0,59624,59667,337,92,336,77 M,0,59667,59710,336,77,337,92 M,0,59710,59754,337,92,338,107 M,0,59754,59797,338,107,339,122 M,0,59797,59840,339,122,340,137 M,0,59840,59883,340,137,341,152 M,0,59883,59926,341,152,342,167 M,0,59926,59969,342,167,343,182 M,0,59969,60012,343,182,345,197
Sprite,Foreground,Centre,"sb\Glow2.png",0,0 C,0,60875,,126,233,248 M,0,60875,60918,121,160,112,172 F,2,60875,61319,1,0 S,2,60875,61419,5.5,1.1 P,0,60875,61419,A M,0,60918,60961,112,172,105,185 M,0,60961,61004,105,185,97,198 M,0,61004,61047,97,198,91,212 M,0,61047,61090,91,212,85,225 M,0,61090,61133,85,225,79,239 M,0,61133,61176,79,239,75,254 M,0,61176,61219,75,254,70,268
Sprite,Foreground,Centre,"sb\Glow2.png",0,0 C,0,62082,,126,233,248 M,0,62082,62125,228,420,242,423 F,2,62082,62871,1,0 S,2,62082,62971,5.5,1.1 P,0,62082,62971,A M,0,62125,62168,242,423,257,425 M,0,62168,62211,257,425,272,426 M,0,62211,62254,272,426,287,425 M,0,62254,62297,287,425,302,423 M,0,62297,62340,302,423,316,419 M,0,62340,62383,316,419,330,414 M,0,62383,62426,330,414,343,407 M,0,62426,62469,343,407,330,414 M,0,62469,62513,330,414,316,419 M,0,62513,62556,316,419,302,423 M,0,62556,62599,302,423,287,425 M,0,62599,62642,287,425,272,426 M,0,62642,62685,272,426,257,425 M,0,62685,62728,257,425,242,423 M,0,62728,62771,242,423,228,420
Sprite,Foreground,Centre,"sb\Glow2.png",0,0 C,0,121565,,126,233,248 M,0,121565,121608,322,296,307,297 F,2,121565,122009,1,0 S,2,121565,122109,5.5,1.1 P,0,121565,122109,A M,0,121608,121651,307,297,292,297 M,0,121651,121694,292,297,277,296 M,0,121694,121737,277,296,262,295 M,0,121737,121780,262,295,247,292 M,0,121780,121823,247,292,232,289 M,0,121823,121866,232,289,218,284 M,0,121866,121909,218,284,204,279
Sprite,Foreground,Centre,"sb\Glow2.png",0,0 C,0,122772,,126,233,248 M,0,122772,122815,150,214,148,199 F,2,122772,123561,1,0 S,2,122772,123661,5.5,1.1 P,0,122772,123661,A M,0,122815,122858,148,199,147,184 M,0,122858,122901,147,184,145,169 M,0,122901,122944,145,169,144,154 M,0,122944,122987,144,154,142,139 M,0,122987,123030,142,139,141,124 M,0,123030,123073,141,124,139,109 M,0,123073,123116,139,109,138,94 M,0,123116,123159,138,94,139,109 M,0,123159,123203,139,109,141,124 M,0,123203,123246,141,124,142,139 M,0,123246,123289,142,139,144,154 M,0,123289,123332,144,154,145,169 M,0,123332,123375,145,169,147,184 M,0,123375,123418,147,184,148,199 M,0,123418,123461,148,199,150,214
Sprite,Foreground,Centre,"sb\Glow2.png",0,0 C,0,125530,,253,177,128 M,0,125530,125573,509,281,507,266 F,2,125530,126319,1,0 S,2,125530,126419,5.5,1.1 P,0,125530,126419,A M,0,125573,125616,507,266,506,251 M,0,125616,125659,506,251,504,236 M,0,125659,125702,504,236,503,221 M,0,125702,125745,503,221,501,206 M,0,125745,125788,501,206,500,191 M,0,125788,125831,500,191,498,176 M,0,125831,125874,498,176,497,161 M,0,125874,125917,497,161,498,176 M,0,125917,125961,498,176,500,191 M,0,125961,126004,500,191,501,206 M,0,126004,126047,501,206,503,221 M,0,126047,126090,503,221,504,236 M,0,126090,126133,504,236,506,251 M,0,126133,126176,506,251,507,266 M,0,126176,126219,507,266,509,281
Sprite,Foreground,Centre,"sb\Glow2.png",0,0 C,0,127082,,126,233,248 M,0,127082,127125,316,152,302,157 F,2,127082,127526,1,0 S,2,127082,127626,5.5,1.1 P,0,127082,127626,A M,0,127125,127168,302,157,288,164 M,0,127168,127211,288,164,276,172 M,0,127211,127254,276,172,264,181 M,0,127254,127297,264,181,254,193 M,0,127297,127340,254,193,246,205 M,0,127340,127383,246,205,238,218 M,0,127383,127426,238,218,233,232
Sprite,Foreground,Centre,"sb\Glow2.png",0,0 C,0,128289,,126,233,248 M,0,128289,128332,174,333,188,334 F,2,128289,129078,1,0 S,2,128289,129178,5.5,1.1 P,0,128289,129178,A M,0,128332,128375,188,334,203,336 M,0,128375,128418,203,336,218,338 M,0,128418,128461,218,338,233,339 M,0,128461,128504,233,339,248,341 M,0,128504,128547,248,341,263,343 M,0,128547,128590,263,343,278,344 M,0,128590,128633,278,344,293,346 M,0,128633,128676,293,346,278,344 M,0,128676,128720,278,344,263,343 M,0,128720,128763,263,343,248,341 M,0,128763,128806,248,341,233,339 M,0,128806,128849,233,339,218,338 M,0,128849,128892,218,338,203,336 M,0,128892,128935,203,336,188,334 M,0,128935,128978,188,334,174,333
Sprite,Foreground,Centre,"sb\Glow2.png",148,411 C,0,129668,,126,233,248 F,2,129668,129768,1,0 S,2,129668,129868,5.5,1.1 P,0,129668,129868,A
Sprite,Foreground,Centre,"sb\Glow2.png",0,0 C,0,130186,,174,225,182 M,0,130186,130229,262,376,265,361 F,2,130186,130630,1,0 S,2,130186,130730,5.5,1.1 P,0,130186,130730,A M,0,130229,130272,265,361,269,346 M,0,130272,130315,269,346,274,332 M,0,130315,130358,274,332,280,318 M,0,130358,130401,280,318,286,305 M,0,130401,130444,286,305,293,292 M,0,130444,130487,293,292,301,279 M,0,130487,130530,301,279,310,268
Sprite,Foreground,Centre,"sb\Glow2.png",0,0 C,0,131048,,174,225,182 M,0,131048,131091,420,236,428,223 F,2,131048,131492,1,0 S,2,131048,131592,5.5,1.1 P,0,131048,131592,A M,0,131091,131134,428,223,436,210 M,0,131134,131177,436,210,443,197 M,0,131177,131220,443,197,449,184 M,0,131220,131263,449,184,455,170 M,0,131263,131306,455,170,460,156 M,0,131306,131349,460,156,464,141 M,0,131349,131392,464,141,467,127
Sprite,Foreground,Centre,"sb\Glow2.png",520,97 C,0,131565,,174,225,182 F,2,131565,131665,1,0 S,2,131565,131765,5.5,1.1 P,0,131565,131765,A
Sprite,Foreground,Centre,"sb\Glow2.png",0,0 C,0,132599,,255,243,140 M,0,132599,132642,197,133,184,140 F,2,132599,133043,1,0 S,2,132599,133143,5.5,1.1 P,0,132599,133143,A M,0,132642,132685,184,140,171,148 M,0,132685,132728,171,148,157,154 M,0,132728,132771,157,154,144,161 M,0,132771,132814,144,161,130,166 M,0,132814,132857,130,166,115,171 M,0,132857,132900,115,171,101,175 M,0,132900,132943,101,175,87,179
Sprite,Foreground,Centre,"sb\Glow2.png",0,0 C,0,133806,,255,243,140 M,0,133806,133849,188,380,173,381 F,2,133806,134595,1,0 S,2,133806,134695,5.5,1.1 P,0,133806,134695,A M,0,133849,133892,173,381,158,382 M,0,133892,133935,158,382,143,384 M,0,133935,133978,143,384,128,385 M,0,133978,134021,128,385,113,387 M,0,134021,134064,113,387,98,389 M,0,134064,134107,98,389,83,391 M,0,134107,134150,83,391,68,394 M,0,134150,134193,68,394,83,391 M,0,134193,134237,83,391,98,389 M,0,134237,134280,98,389,113,387 M,0,134280,134323,113,387,128,385 M,0,134323,134366,128,385,143,384 M,0,134366,134409,143,384,158,382 M,0,134409,134452,158,382,173,381 M,0,134452,134495,173,381,188,380
Sprite,Foreground,Centre,"sb\Glow2.png",0,0 C,0,135186,,126,233,248 M,0,135186,135229,345,246,330,244 F,2,135186,135975,1,0 S,2,135186,136075,5.5,1.1 P,0,135186,136075,A M,0,135229,135272,330,244,315,243 M,0,135272,135315,315,243,300,241 M,0,135315,135358,300,241,285,240 M,0,135358,135401,285,240,270,238 M,0,135401,135444,270,238,255,236 M,0,135444,135487,255,236,240,234 M,0,135487,135530,240,234,225,231 M,0,135530,135573,225,231,240,234 M,0,135573,135617,240,234,255,236 M,0,135617,135660,255,236,270,238 M,0,135660,135703,270,238,285,240 M,0,135703,135746,285,240,300,241 M,0,135746,135789,300,241,315,243 M,0,135789,135832,315,243,330,244 M,0,135832,135875,330,244,345,246
Sprite,Foreground,Centre,"sb\Glow2.png",0,0 C,0,136565,,174,225,182 M,0,136565,136608,487,408,472,409 F,2,136565,137354,1,0 S,2,136565,137454,5.5,1.1 P,0,136565,137454,A M,0,136608,136651,472,409,457,410 M,0,136651,136694,457,410,442,412 M,0,136694,136737,442,412,427,413 M,0,136737,136780,427,413,412,415 M,0,136780,136823,412,415,397,417 M,0,136823,136866,397,417,382,419 M,0,136866,136909,382,419,367,422 M,0,136909,136952,367,422,382,419 M,0,136952,136996,382,419,397,417 M,0,136996,137039,397,417,412,415 M,0,137039,137082,412,415,427,413 M,0,137082,137125,427,413,442,412 M,0,137125,137168,442,412,457,410 M,0,137168,137211,457,410,472,409 M,0,137211,137254,472,409,487,408
Sprite,Foreground,Centre,"sb\Glow2.png",0,0 C,0,138117,,253,177,128 M,0,138117,138160,565,192,553,182 F,2,138117,138561,1,0 S,2,138117,138661,5.5,1.1 P,0,138117,138661,A M,0,138160,138203,553,182,541,174 M,0,138203,138246,541,174,527,167 M,0,138246,138289,527,167,513,162 M,0,138289,138332,513,162,498,159 M,0,138332,138375,498,159,483,158 M,0,138375,138418,483,158,469,159 M,0,138418,138461,469,159,454,161
Sprite,Foreground,Centre,"sb\Glow2.png",0,0 C,0,139323,,253,177,128 M,0,139323,139366,309,142,320,152 F,2,139323,140112,1,0 S,2,139323,140212,5.5,1.1 P,0,139323,140212,A M,0,139366,139409,320,152,330,163 M,0,139409,139452,330,163,339,175 M,0,139452,139495,339,175,347,187 M,0,139495,139538,347,187,353,201 M,0,139538,139581,353,201,358,215 M,0,139581,139624,358,215,362,229 M,0,139624,139667,362,229,364,244 M,0,139667,139710,364,244,362,229 M,0,139710,139754,362,229,358,215 M,0,139754,139797,358,215,353,201 M,0,139797,139840,353,201,347,187 M,0,139840,139883,347,187,339,175 M,0,139883,139926,339,175,330,163 M,0,139926,139969,330,163,320,152 M,0,139969,140012,320,152,309,142
Sprite,Foreground,Centre,"sb\Glow2.png",0,0 C,0,124151,,174,225,182 M,0,124151,124194,332,321,330,335 F,2,124151,124940,1,0 S,2,124151,125040,5.5,1.1 P,0,124151,125040,A M,0,124194,124237,330,335,329,350 M,0,124237,124280,329,350,327,365 M,0,124280,124323,327,365,326,380 M,0,124323,124366,326,380,324,395 M,0,124366,124409,324,395,323,410 M,0,124409,124452,323,410,321,425 M,0,124452,124495,321,425,320,440 M,0,124495,124538,320,440,321,425 M,0,124538,124582,321,425,323,410 M,0,124582,124625,323,410,324,395 M,0,124625,124668,324,395,326,380 M,0,124668,124711,326,380,327,365 M,0,124711,124754,327,365,329,350 M,0,124754,124797,329,350,330,335 M,0,124797,124840,330,335,332,321
Sprite,Foreground,Centre,"sb\Glow2.png",0,0 C,0,126737,,255,243,140 M,0,126737,126780,411,211,396,208 F,2,126737,127009,1,0 S,2,126737,127109,5.5,1.1 P,0,126737,127109,A M,0,126780,126823,396,208,381,206 M,0,126823,126866,381,206,366,204 M,0,126866,126909,366,204,351,201
Sprite,Foreground,Centre,"sb\Glow2.png",0,0 C,0,49496,,174,225,182 M,0,49496,49539,189,296,191,281 F,2,49496,49768,1,0 S,2,49496,49868,5.5,1.1 P,0,49496,49868,A M,0,49539,49582,191,281,193,266 M,0,49582,49625,193,266,196,251 M,0,49625,49668,196,251,198,236
Sprite,Foreground,Centre,"sb\Ring.png",419,81 C,0,44323,,255,243,140 F,1,44323,45323,1,0 S,1,44323,45323,0.6,3 P,0,44323,45667,A
Sprite,Foreground,Centre,"sb\Ring.png",363,412 C,0,55358,,174,225,182 F,1,55358,56358,1,0 S,1,55358,56358,0.6,3 P,0,55358,56702,A
Sprite,Foreground,Centre,"sb\Ring.png",121,160 C,0,60875,,126,233,248 F,1,60875,61875,1,0 S,1,60875,61875,0.6,3 P,0,60875,62219,A
Sprite,Foreground,Centre,"sb\Ring.png",332,222 C,0,63634,,174,225,182 F,1,63634,64634,1,0 S,1,63634,64634,0.6,3 P,0,63634,64978,A
Sprite,Foreground,Centre,"sb\Ring.png",162,82 C,0,66392,,255,243,140 F,1,66392,67392,1,0 S,1,66392,67392,0.6,3 P,0,66392,67736,A
Sprite,Foreground,Centre,"sb\Ring.png",440,155 C,0,69151,,126,233,248 F,1,69151,70151,1,0 S,1,69151,70151,0.6,3 P,0,69151,70495,A
Sprite,Foreground,Centre,"sb\Ring.png",266,203 C,0,67082,,255,243,140 F,1,67082,68082,1,0 S,1,67082,68082,0.6,3 P,0,67082,68426,A
Sprite,Foreground,Centre,"sb\Ring.png",240,232 C,0,71910,,174,225,182 F,1,71910,72910,1,0 S,1,71910,72910,0.6,3 P,0,71910,73254,A
Sprite,Foreground,Centre,"sb\Ring.png",426,238 C,0,72599,,174,225,182 F,1,72599,73599,1,0 S,1,72599,73599,0.6,3 P,0,72599,73943,A
Sprite,Foreground,Centre,"sb\Ring.png",108,272 C,0,74668,,253,177,128 F,1,74668,75668,1,0 S,1,74668,75668,0.6,3 P,0,74668,76012,A
Sprite,Foreground,Centre,"sb\Ring.png",302,159 C,0,77427,,126,233,248 F,1,77427,78427,1,0 S,1,77427,78427,0.6,3 P,0,77427,78771,A
Sprite,Foreground,Centre,"sb\Ring.png",416,259 C,0,80186,,174,225,182 F,1,80186,81186,1,0 S,1,80186,81186,0.6,3 P,0,80186,81530,A
Sprite,Foreground,Centre,"sb\Ring.png",322,296 C,0,121565,,126,233,248 F,1,121565,122565,1,0 S,1,121565,122565,0.6,3 P,0,121565,122909,A
Sprite,Foreground,Centre,"sb\Ring.png",197,133 C,0,132599,,255,243,140 F,1,132599,133599,1,0 S,1,132599,133599,0.6,3 P,0,132599,133943,A
Sprite,Foreground,Centre,"sb\Ring.png",215,433 C,0,143634,,174,225,182 F,1,143634,144634,1,0 S,1,143634,144634,0.6,3 P,0,143634,144978,A
Sprite,Foreground,Centre,"sb\Ring.png",393,302 C,0,146392,,253,177,128 F,1,146392,147392,1,0 S,1,146392,147392,0.6,3 P,0,146392,147736,A
Sprite,Foreground,Centre,"sb\Ring.png",409,105 C,0,149151,,255,243,140 F,1,149151,150151,1,0 S,1,149151,150151,0.6,3 P,0,149151,150495,A
Sprite,Foreground,Centre,"sb\Ring.png",364,346 C,0,151910,,126,233,248 F,1,151910,152910,1,0 S,1,151910,152910,0.6,3 P,0,151910,153254,A
Sprite,Foreground,Centre,"sb\Ring.png",375,201 C,0,154668,,253,177,128 F,1,154668,155668,1,0 S,1,154668,155668,0.6,3 P,0,154668,156012,A
Sprite,Foreground,Centre,"sb\Ring.png",275,171 C,0,157427,,255,243,140 F,1,157427,158427,1,0 S,1,157427,158427,0.6,3 P,0,157427,158771,A
Sprite,Foreground,Centre,"sb\Ring.png",565,192 C,0,138117,,253,177,128 F,1,138117,139117,1,0 S,1,138117,139117,0.6,3 P,0,138117,139461,A
Sprite,Foreground,Centre,"sb\Ring.png",139,131 C,0,140875,,255,243,140 F,1,140875,141875,1,0 S,1,140875,141875,0.6,3 P,0,140875,142219,A
Sprite,Foreground,Centre,"sb\Ring.png",267,297 C,0,155358,,253,177,128 F,1,155358,156358,1,0 S,1,155358,156358,0.6,3 P,0,155358,156702,A
Sprite,Foreground,Centre,"sb\Ring.png",106,226 C,0,78117,,126,233,248 F,1,78117,79117,1,0 S,1,78117,79117,0.6,3 P,0,78117,79461,A
Sprite,Foreground,Centre,"sb\Ring.png",68,304 C,0,144323,,174,225,182 F,1,144323,145323,1,0 S,1,144323,145323,0.6,3 P,0,144323,145667,A
Sprite,Foreground,Centre,"sb\Ring.png",309,184 C,0,149841,,255,243,140 F,1,149841,150841,1,0 S,1,149841,150841,0.6,3 P,0,149841,151185,A
Sprite,Foreground,Centre,"sb\Ring.png",162,352 C,0,33289,,255,243,140 F,1,33289,33889,1,0 S,1,33289,33889,0.4,2 P,0,33289,34233,A
Sprite,Foreground,Centre,"sb\Ring.png",309,63 C,0,38806,,253,177,128 F,1,38806,39406,1,0 S,1,38806,39406,0.4,2 P,0,38806,39406,A
Sprite,Foreground,Centre,"sb\Ring.png",322,296 C,0,116048,,255,243,140 F,1,116048,116648,1,0 S,1,116048,116648,0.4,2 P,0,116048,116648,A
Sprite,Foreground,Centre,"sb\Ring.png",243,368 C,0,67599,,255,243,140 F,1,67599,68199,1,0 S,1,67599,68199,0.4,2 P,0,67599,68543,A
Sprite,Foreground,Centre,"sb\Ring.png",298,260 C,0,69841,,126,233,248 F,1,69841,70441,1,0 S,1,69841,70441,0.4,2 P,0,69841,70785,A
Sprite,Foreground,Centre,"sb\Ring.png",191,421 C,0,75358,,253,177,128 F,1,75358,75958,1,0 S,1,75358,75958,0.4,2 P,0,75358,76302,A
Sprite,Foreground,Centre,"sb\Ring.png",566,121 C,0,80875,,174,225,182 F,1,80875,81475,1,0 S,1,80875,81475,0.4,2 P,0,80875,81819,A
Sprite,Foreground,Centre,"sb\Ring.png",149,324 C,0,70358,,126,233,248 F,1,70358,70958,1,0 S,1,70358,70958,0.4,2 P,0,70358,70958,A
Sprite,Foreground,Centre,"sb\Ring.png",359,414 C,0,76048,,255,243,140 F,1,76048,76648,1,0 S,1,76048,76648,0.4,2 P,0,76048,77165,A
Sprite,Foreground,Centre,"sb\Ring.png",261,292 C,0,78634,,126,233,248 F,1,78634,79234,1,0 S,1,78634,79234,0.4,2 P,0,78634,79234,A
Sprite,Foreground,Centre,"sb\Ring.png",554,292 C,0,147599,,253,177,128 F,1,147599,148199,1,0 S,1,147599,148199,0.4,2 P,0,147599,148199,A
Sprite,Foreground,Centre,"sb\Ring.png",153,182 C,0,150358,,255,243,140 F,1,150358,150958,1,0 S,1,150358,150958,0.4,2 P,0,150358,150958,A
Sprite,Foreground,Centre,"sb\Ring.png",196,425 C,0,155875,,253,177,128 F,1,155875,156475,1,0 S,1,155875,156475,0.4,2 P,0,155875,156475,A
Sprite,Foreground,Centre,"sb\Ring.png",508,139 C,0,147082,,253,177,128 F,1,147082,147682,1,0 S,1,147082,147682,0.4,2 P,0,147082,148026,A
Sprite,Foreground,Centre,"sb\Ring.png",253,206 C,0,152599,,126,233,248 F,1,152599,153199,1,0 S,1,152599,153199,0.4,2 P,0,152599,153543,A
Sprite,Foreground,Centre,"sb\Ring.png",425,252 C,0,158117,,255,243,140 F,1,158117,158717,1,0 S,1,158117,158717,0.4,2 P,0,158117,159061,A
Sprite,Foreground,Centre,"sb\Ring.png",498,86 C,0,73117,,174,225,182 F,1,73117,73717,1,0 S,1,73117,73717,0.4,2 P,0,73117,74061,A
Sprite,Foreground,Centre,"sb\Ring.png",359,414 C,0,75875,,253,177,128 F,1,75875,76475,1,0 S,1,75875,76475,0.4,2 P,0,75875,76475,A
Sprite,Foreground,Centre,"sb\Ring.png",370,86 C,0,81565,,253,177,128 F,1,81565,82165,1,0 S,1,81565,82165,0.4,2 P,0,81565,82682,A
Sprite,Foreground,Centre,"sb\Ring.png",237,280 C,0,144841,,174,225,182 F,1,144841,145441,1,0 S,1,144841,145441,0.4,2 P,0,144841,145441,A
Sprite,Foreground,Centre,"sb\Ring.png",319,100 C,0,153117,,126,233,248 F,1,153117,153717,1,0 S,1,153117,153717,0.4,2 P,0,153117,153717,A
Sprite,Foreground,Centre,"sb\Ring.png",319,100 C,0,153289,,174,225,182 F,1,153289,153889,1,0 S,1,153289,153889,0.4,2 P,0,153289,154406,A
Sprite,Foreground,Centre,"sb\Ring.png",491,382 C,0,158806,,126,233,248 F,1,158806,159406,1,0 S,1,158806,159406,0.4,2 P,0,158806,159923,A
//Storyboard Sound Samples

[TimingPoints]
196,344.827586206897,4,2,1,20,1,0
196,-125,4,2,1,20,0,0
2954,-125,4,2,1,25,0,0
5713,-125,4,2,1,30,0,0
8471,-125,4,2,1,35,0,0
11230,-125,4,2,1,40,0,0
15885,-125,4,2,1,44,0,0
16402,-125,4,2,1,48,0,0
16747,-125,4,2,1,50,0,0
17954,-125,4,2,1,40,0,0
18299,-125,4,2,1,30,0,0
18644,-125,4,2,1,20,0,0
18989,-125,4,2,1,10,0,0
19506,-125,4,2,1,30,0,0
22264,-125,4,2,1,50,0,0
32437,-125,4,2,1,30,0,0
32954,-125,4,2,1,20,0,0
33299,-125,4,2,1,40,0,0
34506,-125,4,2,1,45,0,0
35885,-125,4,2,1,50,0,0
37264,-125,4,2,1,55,0,0
44333,-100,4,2,1,60,0,1
54851,-100,4,2,1,60,0,1
55368,-100,4,2,1,60,0,1
63644,-111.111111111111,4,2,1,50,0,0
63989,-111.111111111111,4,2,1,45,0,0
64333,-111.111111111111,4,2,1,40,0,0
64678,-111.111111111111,4,2,1,35,0,0
65023,-111.111111111111,4,2,1,30,0,0
65368,-111.111111111111,4,2,1,40,0,0
65713,-111.111111111111,4,2,1,50,0,0
66058,-111.111111111111,4,2,1,40,0,0
66402,-100,4,2,1,60,0,1
76058,-111.111111111111,4,2,1,60,0,0
76575,-111.111111111111,4,2,1,60,0,0
76920,-111.111111111111,4,2,1,60,0,0
77264,-111.111111111111,4,2,1,60,0,0
77437,-100,4,2,1,60,0,1
81575,-125,4,2,1,60,0,0
82092,-125,4,2,1,60,0,0
82437,-125,4,2,1,60,0,0
82782,-125,4,2,1,60,0,0
84333,-100,4,2,1,50,0,0
85713,-100,4,2,1,40,0,0
86402,-100,4,2,1,30,0,0
87092,-100,4,2,1,20,0,0
87782,-100,4,2,1,10,0,0
88471,-100,4,2,1,30,0,0
99506,-125,4,2,1,30,0,0
110540,-125,4,2,1,40,0,0
116058,-125,4,2,1,40,0,0
117437,-125,4,2,1,40,0,0
118816,-125,4,2,1,40,0,0
118989,-125,4,2,1,40,0,0
119161,-125,4,2,1,40,0,0
121230,-125,4,2,1,40,0,0
121575,-100,4,2,1,60,0,1
132092,-100,4,2,1,60,0,1
132609,-100,4,2,1,60,0,1
140885,-111.111111111111,4,2,1,50,0,0
141230,-111.111111111111,4,2,1,45,0,0
141574,-111.111111111111,4,2,1,40,0,0
141919,-111.111111111111,4,2,1,35,0,0
142264,-111.111111111111,4,2,1,30,0,0
142609,-111.111111111111,4,2,1,40,0,0
142954,-111.111111111111,4,2,1,50,0,0
143127,-111.111111111111,4,2,1,40,0,0
143644,-100,4,2,1,60,0,1
153299,-111.111111111111,4,2,1,60,0,0
153816,-111.111111111111,4,2,1,60,0,0
154161,-111.111111111111,4,2,1,60,0,0
154505,-111.111111111111,4,2,1,60,0,0
154678,-100,4,2,1,60,0,1
158816,-111.111111111111,4,2,1,60,0,0
159333,-111.111111111111,4,2,1,60,0,0
159678,-111.111111111111,4,2,1,60,0,0
160023,-111.111111111111,4,2,1,60,0,0
160540,-111.111111111111,4,2,2,55,0,0
160885,-111.111111111111,4,2,1,50,0,0
161230,-111.111111111111,4,2,2,45,0,0
161575,-111.111111111111,4,2,1,40,0,0
161920,-111.111111111111,4,2,2,30,0,0
162264,-111.111111111111,4,2,1,20,0,0
162609,-111.111111111111,4,2,2,10,0,0
162954,-111.111111111111,4,2,1,20,0,0

[Colours]
Combo1 : 174,225,182
Combo2 : 253,177,128
Combo3 : 255,243,140
Combo4 : 126,233,248

[HitObjects]
111,343,196,6,0,L|228:354,2,96,2|2|2,0:0|0:0|0:0,0:0:0:0:
24,301,1230,2,0,L|12:379,1,48,2|2,0:0|0:0,0:0:0:0:
358,267,2954,6,0,L|241:278,2,96,2|2|2,0:0|0:0|0:0,0:0:0:0:
445,225,3989,2,0,L|457:303,1,48,2|2,0:0|0:0,0:0:0:0:
167,173,5540,5,2,0:0:0:0:
167,173,5713,2,0,L|284:184,2,96,2|2|2,0:0|0:0|0:0,0:0:0:0:
80,131,6747,2,0,L|68:209,1,48,2|2,0:0|0:0,0:0:0:0:
312,74,8471,6,0,L|195:85,2,96,2|2|2,0:0|0:0|0:0,0:0:0:0:
399,32,9506,2,0,L|411:110,1,48,2|2,0:0|0:0,0:0:0:0:
213,130,10713,6,0,L|217:66,2,48,2|2|2,0:0|0:0|0:0,0:0:0:0:
170,152,11230,6,0,P|113:167|64:218,1,96,2|2,0:1|0:1,0:0:0:0:
29,268,11920,2,0,P|86:283|135:334,1,96,2|2,0:1|0:1,0:0:0:0:
138,346,12437,2,0,L|252:330,2,96,2|2|2,0:1|0:1|0:1,0:0:0:0:
360,256,13989,6,0,L|346:351,2,96,2|2|2,0:0|0:0|0:0,0:0:0:0:
454,275,15023,2,0,L|449:218,1,48,2|2,0:0|0:0,0:0:0:0:
230,44,16747,6,0,P|287:59|336:110,1,96,2|2,0:1|0:1,0:0:0:0:
371,160,17437,2,0,P|331:169|291:194,1,48,2|2,0:1|0:1,0:0:0:0:
298,212,17782,1,2,0:1:0:0:
298,212,17954,2,0,L|184:196,1,96,2|2,0:1|0:1,0:0:0:0:
106,199,18644,6,0,P|29:208|106:290,1,240,2|2,0:1|0:0,0:0:0:0:
256,192,19678,12,0,22264,0:0:0:0:
98,296,33299,6,0,L|224:301,1,96,0|0,1:0|1:0,0:0:0:0:
282,338,33989,2,0,L|294:238,1,96,0|0,1:0|1:0,0:0:0:0:
271,199,34506,2,0,P|325:162|396:160,2,96,2|2|2,0:0|0:0|0:0,0:0:0:0:
182,162,35540,6,0,L|176:209,1,48,2|2,0:0|0:2,0:0:0:0:
129,220,35885,2,0,P|134:285|100:347,2,96,2|2|2,0:0|0:0|0:0,0:0:0:0:
205,161,36920,6,0,L|166:132,1,48,2|2,0:0|0:2,0:0:0:0:
181,86,37264,2,0,P|121:57|84:-2,2,96,2|2|2,0:0|0:0|0:0,0:0:0:0:
270,49,38299,6,0,L|333:57,2,48,2|2|0,0:0|0:2|0:0,0:0:0:0:
245,7,38816,1,2,1:2:0:0:
256,192,38989,12,2,43471,0:0:0:0:
355,25,44333,6,0,P|349:92|380:142,1,120,6|10,1:0|1:0,0:0:0:0:
482,187,45023,2,0,L|466:252,1,60,2|2,1:0|0:1,0:0:0:0:
411,267,45368,1,10,1:0:0:0:
411,267,45540,2,0,L|272:248,2,120,2|2|2,0:1|0:1|0:1,0:0:0:0:
350,163,46575,6,0,L|334:98,1,60,2|10,0:1|1:0,0:0:0:0:
292,146,46920,2,0,L|153:165,2,120,2|2|2,0:1|0:1|0:1,0:0:0:0:
261,262,47954,6,0,L|245:327,1,60,2|10,0:1|1:0,0:0:0:0:
190,342,48299,2,0,L|51:323,2,120,2|2|2,0:1|0:1|0:1,0:0:0:0:
125,240,49333,1,2,0:1:0:0:
125,240,49506,2,0,L|136:174,1,60,10|2,1:0|0:1,0:0:0:0:
97,133,49851,6,0,P|182:124|225:73,1,120,2|10,1:0|1:0,0:0:0:0:
299,28,50540,2,0,L|311:107,1,60,2|2,1:0|0:1,0:0:0:0:
363,110,50885,1,10,1:0:0:0:
363,110,51058,2,0,P|327:173|317:244,2,120,2|2|2,0:1|0:1|0:1,0:0:0:0:
447,195,52092,2,0,L|437:254,2,60,2|10|2,0:1|1:0|0:1,0:0:0:0:
451,75,52782,5,2,0:1:0:0:
451,75,52954,2,0,P|368:95|297:92,1,120,10|2,1:0|1:0,0:0:0:0:
274,87,53471,2,0,L|262:166,1,60,2|10,0:1|1:0,0:0:0:0:
216,183,53816,2,0,P|133:163|62:166,1,120,2|2,0:1|0:1,0:0:0:0:
52,201,54333,1,10,1:0:0:0:
80,317,54678,5,2,1:0:0:0:
128,352,54851,2,0,P|187:347|245:331,1,120,2|2,0:1|0:1,0:0:0:0:
299,356,55368,6,0,L|308:223,1,120,6|10,1:0|1:0,0:0:0:0:
425,256,56058,2,0,L|419:184,1,60,2|2,1:0|0:1,0:0:0:0:
457,149,56402,1,10,1:0:0:0:
457,149,56575,2,0,L|448:16,2,120,2|2|2,0:1|0:1|0:1,0:0:0:0:
337,152,57609,6,0,L|331:224,1,60,2|10,0:1|1:0,0:0:0:0:
369,259,57954,2,0,L|360:392,2,120,2|2|2,0:1|0:1|0:1,0:0:0:0:
249,248,58989,6,0,L|243:176,1,60,2|10,0:1|1:0,0:0:0:0:
281,141,59333,2,0,L|272:8,2,120,2|2|2,0:1|0:1|0:1,0:0:0:0:
161,149,60368,1,2,0:1:0:0:
161,149,60540,2,0,L|73:145,1,60,10|2,1:0|0:1,0:0:0:0:
57,104,60885,6,0,P|20:173|2:232,1,120,2|10,1:0|1:0,0:0:0:0:
111,271,61575,2,0,P|112:316|122:353,1,60,2|2,1:0|0:1,0:0:0:0:
164,364,61920,1,10,1:0:0:0:
164,364,62092,2,0,P|255:363|294:343,2,120,2|2|2,0:1|0:1|0:1,0:0:0:0:
211,253,63127,6,0,P|212:208|222:171,1,60,2|2,0:1|0:1,0:0:0:0:
268,166,63471,1,2,0:1:0:0:
268,166,63644,2,0,P|319:184|406:188,1,107.999996704102,0|0,1:0|1:0,0:0:0:0:
474,225,64333,2,0,P|464:171|424:94,1,107.999996704102,0|2,1:0|1:0,0:0:0:0:
423,18,65023,2,0,P|381:53|334:126,1,107.999996704102,0|0,1:0|1:0,0:0:0:0:
255,42,65713,5,0,1:0:0:0:
255,42,65885,2,0,P|177:57|127:61,1,107.999996704102,2|0,1:0|1:0,0:0:0:0:
98,26,66402,6,0,L|79:169,1,120,6|10,1:0|1:0,0:0:0:0:
202,147,67092,2,0,L|221:290,1,120,2|10,1:0|1:0,0:0:0:0:
179,312,67609,2,0,P|261:305|314:331,1,120,2|2,0:1|0:0,0:0:0:0:
327,369,68127,1,10,1:2:0:0:
400,274,68471,2,0,L|389:200,1,60,2|2,1:2|0:0,0:0:0:0:
335,192,68816,2,0,L|326:132,1,60,10|2,1:2|0:0,0:0:0:0:
376,99,69161,6,0,L|241:85,1,120,2|10,1:0|1:0,0:0:0:0:
234,204,69851,2,0,L|99:218,1,120,2|10,1:0|1:0,0:0:0:0:
85,268,70368,1,2,0:1:0:0:
38,157,70713,1,2,0:0:0:0:
38,157,70885,2,0,L|48:86,1,60,10|2,1:2|0:0,0:0:0:0:
104,80,71230,2,0,L|114:9,2,60,2|2|10,1:2|0:0|1:2,0:0:0:0:
176,176,71920,6,0,P|237:151|271:100,1,120,2|10,1:0|1:0,0:0:0:0:
362,182,72609,2,0,P|392:123|385:62,1,120,2|10,1:0|1:0,0:0:0:0:
434,30,73127,2,0,L|290:10,1,120,2|2,0:1|0:0,0:0:0:0:
260,37,73644,2,0,L|271:109,1,60,10|2,1:2|0:0,0:0:0:0:
219,130,73989,1,2,1:2:0:0:
99,118,74333,2,0,L|88:190,1,60,10|2,1:2|0:0,0:0:0:0:
44,216,74678,6,0,P|127:245|200:249,1,120,2|10,1:0|1:0,0:0:0:0:
127,365,75368,2,0,P|210:336|283:332,1,120,2|10,1:0|1:0,0:0:0:0:
295,358,75885,1,2,0:1:0:0:
295,358,76058,6,0,B|272:247|322:304|280:172,1,161.999995056153,6|6,1:2|1:2,0:0:0:0:
375,135,76920,2,0,P|323:82|268:81,1,107.999996704102,2|2,0:0|0:0,0:0:0:0:
238,103,77437,6,0,P|162:98|109:72,1,120,6|10,1:0|1:0,0:0:0:0:
42,170,78127,2,0,P|118:175|171:201,1,120,2|10,1:0|1:0,0:0:0:0:
197,236,78644,1,2,0:1:0:0:
197,236,78816,2,0,L|186:308,2,60,2|2|10,1:2|0:0|1:2,0:0:0:0:
300,174,79506,2,0,L|289:102,2,60,2|2|10,1:2|0:0|1:2,0:0:0:0:
352,203,80023,1,2,0:0:0:0:
352,203,80196,6,0,L|489:177,1,120,2|10,1:0|1:0,0:0:0:0:
502,65,80885,2,0,L|384:87,1,120,2|10,1:0|1:0,0:0:0:0:
306,30,81575,6,0,B|218:34|268:88|144:78,1,144,6|6,1:2|1:2,0:0:0:0:
83,52,82437,2,0,P|75:109|78:158,1,96,2|6,0:0|1:2,0:0:0:0:
256,192,82954,12,0,88471,1:0:0:0:
111,41,99506,6,0,L|228:30,2,96,2|2|2,0:0|0:0|0:0,0:0:0:0:
24,83,100540,2,0,L|12:5,1,48,2|2,0:0|0:0,0:0:0:0:
358,117,102264,6,0,L|241:106,2,96,2|2|2,0:0|0:0|0:0,0:0:0:0:
445,159,103299,2,0,L|457:81,1,48,2|2,0:0|0:0,0:0:0:0:
167,211,104851,5,2,0:0:0:0:
167,211,105023,2,0,L|284:200,2,96,2|2|2,0:0|0:0|0:0,0:0:0:0:
80,253,106058,2,0,L|68:175,1,48,2|2,0:0|0:0,0:0:0:0:
312,310,107782,6,0,L|195:299,2,96,2|2|2,0:1|0:1|0:1,0:0:0:0:
399,352,108816,2,0,B|388:276|444:224|444:224|432:120|315:112,1,288,2|2,0:1|0:1,0:0:0:0:
181,39,110540,6,0,P|101:54|72:50,1,96,6|2,1:0|0:1,1:0:0:0:
20,180,111402,2,0,P|100:165|129:169,1,96,2|2,0:1|0:1,1:0:0:0:
150,198,111920,6,0,L|157:255,2,48,0|0|0,0:0|0:0|0:0,0:0:0:0:
244,212,112609,2,0,L|251:269,2,48,0|0|0,0:0|0:0|0:0,0:0:0:0:
327,164,113299,6,0,P|407:179|436:175,1,96,2|2,0:1|0:1,1:0:0:0:
488,305,114161,2,0,P|408:290|379:294,1,96,2|2,0:1|0:1,1:0:0:0:
358,323,114678,6,0,L|351:380,2,48,0|0|0,0:0|0:0|0:0,0:0:0:0:
264,337,115368,2,0,L|257:394,2,48,0|0|0,0:0|0:0|0:0,0:0:0:0:
258,240,116058,5,6,1:2:0:0:
256,192,116144,12,0,120196,0:0:0:0:
258,240,121575,6,0,P|184:237|100:202,1,120,6|10,1:0|1:0,0:0:0:0:
21,240,122264,2,0,L|33:165,1,60,2|2,1:0|0:1,0:0:0:0:
86,158,122609,1,10,1:0:0:0:
86,158,122782,2,0,L|73:28,2,120,2|2|2,0:1|0:1|0:1,0:0:0:0:
203,183,123816,6,0,L|215:258,1,60,2|10,0:1|1:0,0:0:0:0:
268,265,124161,2,0,L|255:395,2,120,2|2|2,0:1|0:1|0:1,0:0:0:0:
380,307,125196,6,0,L|392:232,1,60,2|10,0:1|1:0,0:0:0:0:
445,225,125540,2,0,L|432:95,2,120,2|2|2,0:1|0:1|0:1,0:0:0:0:
347,155,126575,5,2,0:1:0:0:
347,155,126747,2,0,L|275:144,1,60,10|2,1:0|0:1,0:0:0:0:
252,96,127092,6,0,P|193:134|164:198,1,120,2|10,1:0|1:0,0:0:0:0:
48,183,127782,2,0,P|88:211|99:237,1,60,2|2,1:0|0:1,0:0:0:0:
110,277,128127,1,10,1:0:0:0:
110,277,128299,2,0,L|250:293,2,120,2|2|2,0:1|0:1|0:1,0:0:0:0:
25,362,129333,2,0,L|84:355,1,60,10|10,0:1|1:0,0:0:0:0:
84,355,129678,1,2,0:1:0:0:
198,320,130023,5,2,0:1:0:0:
198,320,130196,2,0,P|216:263|246:212,1,120,10|2,1:0|1:0,0:0:0:0:
306,222,130713,2,0,L|298:152,1,60,2|10,0:1|1:0,0:0:0:0:
356,180,131058,2,0,P|386:128|404:71,1,120,2|2,0:1|0:1,0:0:0:0:
456,41,131575,1,10,1:0:0:0:
340,8,131920,5,2,1:0:0:0:
290,41,132092,2,0,L|150:28,1,120,2|2,0:1|0:1,0:0:0:0:
133,77,132609,6,0,P|73:108|13:126,1,120,6|10,1:0|1:0,0:0:0:0:
87,225,133299,2,0,P|82:258|78:301,1,60,2|2,1:0|0:1,0:0:0:0:
124,324,133644,1,10,1:0:0:0:
124,324,133816,2,0,P|62:330|-23:343,2,120,2|2|2,0:1|0:1|0:1,0:0:0:0:
236,280,134851,6,0,P|233:245|227:204,1,60,2|10,0:1|1:0,0:0:0:0:
281,190,135196,2,0,P|219:184|134:171,2,120,2|2|2,0:1|0:1|0:1,0:0:0:0:
383,256,136230,6,0,P|376:289|374:332,1,60,2|10,0:1|1:0,0:0:0:0:
423,352,136575,2,0,P|361:358|276:371,2,120,2|2|2,0:1|0:1|0:1,0:0:0:0:
481,247,137609,1,2,0:1:0:0:
481,247,137782,2,0,L|470:183,1,60,10|2,1:0|0:1,0:0:0:0:
501,136,138127,6,0,P|444:105|389:106,1,120,2|10,1:0|1:0,0:0:0:0:
318,9,138816,2,0,L|300:74,1,60,2|2,1:0|0:1,0:0:0:0:
245,86,139161,1,10,1:0:0:0:
245,86,139333,2,0,P|292:151|302:211,2,120,2|2|2,0:1|0:1|0:1,0:0:0:0:
147,156,140368,2,0,L|129:91,1,60,2|2,0:1|0:1,0:0:0:0:
75,75,140713,1,2,0:1:0:0:
75,75,140885,6,0,L|197:24,1,107.999996704102,0|0,1:0|1:0,0:0:0:0:
237,121,141575,2,0,L|369:114,1,107.999996704102,0|2,1:0|1:0,0:0:0:0:
373,219,142264,6,0,L|441:240,2,53.9999983520508,0|2|0,1:0|1:0|1:0,0:0:0:0:
325,245,142782,2,0,L|256:223,1,53.9999983520508,2|0,1:0|1:0,0:0:0:0:
226,255,143127,2,0,P|211:300|210:369,1,107.999996704102,2|0,0:1|0:0,0:0:0:0:
151,377,143644,6,0,L|21:365,1,120,6|10,1:0|1:0,0:0:0:0:
4,248,144333,2,0,L|123:259,1,120,2|10,1:0|1:0,0:0:0:0:
173,224,144851,1,2,0:1:0:0:
173,224,145023,2,0,L|184:151,2,60,2|2|10,1:2|0:0|1:2,0:0:0:0:
279,279,145713,2,0,L|290:352,2,60,2|2|10,1:2|0:0|1:2,0:0:0:0:
329,246,146230,1,2,0:0:0:0:
329,246,146402,6,0,P|337:183|330:117,1,120,2|10,1:0|1:0,0:0:0:0:
444,83,147092,2,0,P|436:146|443:212,1,120,2|10,1:0|1:0,0:0:0:0:
490,236,147609,1,2,0:1:0:0:
490,236,147782,2,0,L|479:308,2,60,2|2|10,1:2|0:0|1:2,0:0:0:0:
374,270,148471,2,0,L|383:210,1,60,2|2,1:2|0:0,0:0:0:0:
339,169,148816,1,10,1:2:0:0:
345,49,149161,6,0,P|295:38|224:3,1,120,2|10,1:0|1:0,0:0:0:0:
245,128,149851,2,0,P|195:139|124:174,1,120,2|10,1:0|1:0,0:0:0:0:
89,126,150368,1,2,0:1:0:0:
89,126,150540,2,0,L|79:213,1,60,2|2,1:2|0:0,0:0:0:0:
30,215,150885,1,10,1:2:0:0:
139,265,151230,2,0,L|149:352,1,60,2|2,1:2|0:0,0:0:0:0:
198,354,151575,1,10,1:2:0:0:
300,290,151920,6,0,P|309:233|307:166,1,120,2|10,1:0|1:0,0:0:0:0:
189,150,152609,2,0,P|187:90|196:30,1,120,2|10,1:0|1:0,0:0:0:0:
255,44,153127,1,2,0:1:0:0:
255,44,153299,6,0,B|362:32|293:86|434:66,1,161.999995056153,6|6,1:2|1:2,0:0:0:0:
474,156,154161,2,0,P|417:159|362:170,1,107.999996704102,2|2,0:0|0:0,0:0:0:0:
311,145,154678,6,0,L|324:290,1,120,6|10,1:0|1:0,0:0:0:0:
203,241,155368,2,0,L|190:386,1,120,2|10,1:0|1:0,0:0:0:0:
132,369,155885,1,2,0:1:0:0:
132,369,156058,2,0,L|62:350,1,60,2|2,1:2|0:0,0:0:0:0:
44,301,156402,1,10,1:2:0:0:
147,239,156747,2,0,L|217:220,1,60,2|2,1:2|0:0,0:0:0:0:
235,171,157092,1,10,1:2:0:0:
211,115,157264,1,2,0:0:0:0:
211,115,157437,6,0,P|277:108|326:80,1,120,2|10,1:0|1:0,0:0:0:0:
361,196,158127,2,0,P|427:203|476:231,1,120,2|10,1:0|1:0,0:0:0:0:
427,326,158816,6,0,B|322:311|384:352|261:322,1,161.999995056153,6|6,1:2|1:2,0:0:0:0:
162,350,159678,2,0,P|158:287|174:237,1,107.999996704102,2|6,0:0|1:2,0:0:0:0:
256,192,160196,12,0,162954,0:0:0:0:
