osu file format v14

[General]
AudioFilename: audio.mp3
AudioLeadIn: 0
PreviewTime: -1
Countdown: 1
SampleSet: Soft
StackLeniency: 0.7
Mode: 0
LetterboxInBreaks: 0
WidescreenStoryboard: 0

[Editor]
DistanceSpacing: 0.5
BeatDivisor: 4
GridSize: 32
TimelineZoom: 2.1

[Metadata]
Title:fizzy pop
TitleUnicode:fizzy pop
Artist:nanobii
ArtistUnicode:nanobii
Creator:Justus
Version:Extra
Source:
Tags:
BeatmapID:1212062
BeatmapSetID:571972

[Difficulty]
HPDrainRate:7
CircleSize:4
OverallDifficulty:8.3
ApproachRate:9.2
SliderMultiplier:2.4
SliderTickRate:1

[Events]
//Background and Video events
0,0,"monstercat_by_prostyle43-d6nz0gs.jpg",0,0
//Break Periods
//Storyboard Layer 0 (Background)
//Storyboard Layer 1 (Fail)
//Storyboard Layer 2 (Pass)
//Storyboard Layer 3 (Foreground)
//Storyboard Sound Samples

[TimingPoints]
0,338.983050847458,4,2,0,100,1,0
32542,-100,4,2,0,100,0,0
36610,-85.4700854700855,4,2,0,100,0,0
37966,-200,4,2,0,100,0,0
40677,-133.333333333333,4,2,0,100,0,0
43389,-86.9565217391304,4,2,0,100,0,1
62372,-133.333333333333,4,2,0,66,0,0
65084,-86.9565217391304,4,2,0,100,0,1
81355,-133.333333333333,4,2,0,100,0,0

[HitObjects]
96,162,32542,5,8,0:0:0:0:
328,103,32881,2,0,P|366:181|373:235,1,120,8|0,0:0|0:0,0:0:0:0:
212,258,33220,2,0,P|161:187|142:127,1,120,8|0,0:0|0:0,0:0:0:0:
392,87,33559,2,0,P|451:150|473:200,1,120,8|0,0:0|0:0,0:0:0:0:
214,252,33898,6,0,P|138:216|72:208,1,120,8|0,0:0|0:0,0:0:0:0:
41,313,34237,2,0,P|107:362|169:384,1,120,8|0,0:0|0:0,0:0:0:0:
240,183,34576,2,0,P|175:128|114:103,1,120,8|0,0:0|0:0,0:0:0:0:
0,306,34915,2,0,P|64:358|126:381,1,120,8|0,0:0|0:0,0:0:0:0:
338,211,35254,6,0,P|396:224|448:253,1,120,8|0,0:0|0:0,0:0:0:0:
262,352,35593,2,0,P|203:338|151:309,1,120,8|0,0:0|0:0,0:0:0:0:
371,179,35932,2,0,P|430:181|486:201,1,60,8|0,0:0|0:0,0:0:0:0:
228,371,36271,2,0,P|167:371|109:356,1,120,8|0,0:0|0:0,0:0:0:0:
258,253,36610,6,8,P|311:240|390:188,1,140.400000535584
205,117,36949,2,8,P|150:117|61:150,1,140.400000535584
334,275,37288,2,8,P|388:267|472:224,1,140.400000535584
147,112,37627,2,8,P|93:107|1:131,1,140.400000535584
328,155,37966,6,0,L|434:232,1,120
307,287,38474,1,0,0:0:0:0:
145,234,38644,2,0,L|246:169,1,120
364,93,39152,1,0,0:0:0:0:
424,225,39322,2,0,L|458:110,1,120
347,38,39830,1,0,0:0:0:0:
220,76,40000,2,0,B|175:117|175:117|192:156|187:183,1,120
109,170,40677,6,2,L|82:213,3,45.0000017166138
210,252,41016,2,2,L|191:299,3,45.0000017166138
71,238,41355,2,2,L|47:275,3,45.0000017166138
210,306,41694,2,2,L|203:355,3,45.0000017166138
284,269,42034,5,10,0:0:0:0:
327,259,42118,1,2,0:0:0:0:
368,241,42203,1,2,0:0:0:0:
405,215,42288,1,2,0:0:0:0:
436,182,42372,5,10,0:0:0:0:
460,144,42457,1,2,0:0:0:0:
475,102,42542,1,2,0:0:0:0:
477,79,42627,1,2,0:0:0:0:
477,56,42711,5,10,0:0:0:0:
473,33,42796,1,2,0:0:0:0:
464,22,42881,1,2,0:0:0:0:
450,18,42966,1,2,0:0:0:0:
436,17,43050,5,14,0:0:0:0:
145,90,43389,5,8,0:0:0:0:
297,212,43559,1,0,0:0:0:0:
145,112,43728,1,8,0:0:0:0:
322,194,43898,1,0,0:0:0:0:
151,143,44067,1,8,0:0:0:0:
341,186,44237,1,0,0:0:0:0:
161,173,44406,1,8,0:0:0:0:
356,178,44576,1,0,0:0:0:0:
154,250,44745,6,0,P|291:309|308:313,1,138.000002632141,12|0,0:0|0:0,0:0:0:0:
442,100,45084,2,0,L|402:253,1,138.000002632141,12|0,0:0|0:0,0:0:0:0:
146,197,45423,2,0,L|200:49,1,138.000002632141,12|0,0:0|0:0,0:0:0:0:
446,90,45762,2,0,P|337:90|265:74,1,138.000002632141,12|0,0:0|0:0,0:0:0:0:
93,130,46101,5,8,0:0:0:0:
331,76,46271,1,0,0:0:0:0:
89,109,46440,1,8,0:0:0:0:
333,113,46610,1,0,0:0:0:0:
91,82,46779,1,8,0:0:0:0:
327,137,46949,1,0,0:0:0:0:
97,63,47118,1,8,0:0:0:0:
315,161,47288,1,0,0:0:0:0:
372,193,47457,6,0,L|479:315,1,138.000002632141,12|0,0:0|0:0,0:0:0:0:
196,240,47796,2,0,L|84:131,1,138.000002632141,12|0,0:0|0:0,0:0:0:0:
390,153,48135,2,0,L|530:253,1,138.000002632141,12|0,0:0|0:0,0:0:0:0:
133,248,48474,2,0,L|2:160,1,138.000002632141,12|0,0:0|0:0,0:0:0:0:
338,162,48813,5,8,0:0:0:0:
85,100,48983,1,0,0:0:0:0:
332,191,49152,1,8,0:0:0:0:
92,79,49322,1,0,0:0:0:0:
321,215,49491,1,8,0:0:0:0:
109,54,49661,1,0,0:0:0:0:
295,245,49830,1,8,0:0:0:0:
127,39,50000,1,0,0:0:0:0:
103,262,50169,6,0,L|239:335,1,138.000002632141,12|0,0:0|0:0,0:0:0:0:
437,243,50508,2,0,L|318:341,1,138.000002632141,12|0,0:0|0:0,0:0:0:0:
60,294,50847,2,0,L|201:345,1,138.000002632141,12|0,0:0|0:0,0:0:0:0:
452,208,51186,2,0,P|366:146|329:105,1,138.000002632141,12|2,0:0|0:0,0:0:0:0:
339,322,51525,5,8,0:0:0:0:
247,66,51695,1,0,0:0:0:0:
362,313,51864,1,8,0:0:0:0:
209,66,52034,1,0,0:0:0:0:
390,294,52203,1,8,0:0:0:0:
188,86,52373,1,0,0:0:0:0:
405,275,52542,1,8,0:0:0:0:
170,112,52712,1,0,0:0:0:0:
430,144,52881,5,12,0:0:0:0:
143,229,53051,1,0,0:0:0:0:
420,112,53220,1,12,0:0:0:0:
153,253,53390,1,0,0:0:0:0:
405,85,53559,1,12,0:0:0:0:
174,281,53729,1,0,0:0:0:0:
368,73,53898,1,12,0:0:0:0:
194,297,54068,1,0,0:0:0:0:
260,174,54237,5,14,0:0:0:0:
200,170,54406,1,14,0:0:0:0:
319,182,54576,1,14,0:0:0:0:
141,154,54745,1,14,0:0:0:0:
376,206,54915,1,14,0:0:0:0:
86,130,55084,1,14,0:0:0:0:
428,246,55254,1,14,0:0:0:0:
40,93,55423,1,14,0:0:0:0:
323,35,55593,6,0,P|396:53|482:111,1,138.000002632141,12|0,0:0|0:0,0:0:0:0:
251,286,55932,2,0,P|176:278|85:241,1,138.000002632141,12|0,0:0|0:0,0:0:0:0:
313,17,56271,2,0,P|386:7|505:19,1,138.000002632141,12|0,0:0|0:0,0:0:0:0:
224,335,56610,2,0,P|164:349|24:349,1,138.000002632141,12|0,0:0|0:0,0:0:0:0:
300,228,56949,5,12,0:0:0:0:
96,195,57118,1,12,0:0:0:0:
294,114,57288,1,12,0:0:0:0:
206,309,57457,1,12,0:0:0:0:
398,190,57627,1,12,0:0:0:0:
174,176,57796,1,12,0:0:0:0:
369,288,57966,1,12,0:0:0:0:
242,102,58135,1,12,0:0:0:0:
453,179,58305,6,0,P|449:249|395:339,1,138.000002632141,12|0,0:0|0:0,0:0:0:0:
107,193,58644,2,0,P|117:101|155:52,1,138.000002632141,12|0,0:0|0:0,0:0:0:0:
374,349,58983,2,0,P|311:380|206:378,1,138.000002632141,12|0,0:0|0:0,0:0:0:0:
188,39,59322,2,0,P|272:1|334:10,1,138.000002632141,12|0,0:0|0:0,0:0:0:0:
449,232,59661,5,12,0:0:0:0:
156,169,59830,1,8,0:0:0:0:
156,169,59915,1,8,0:0:0:0:
156,169,60000,1,12,0:0:0:0:
369,99,60169,1,8,0:0:0:0:
241,283,60338,1,12,0:0:0:0:
289,62,60508,1,8,0:0:0:0:
92,171,60677,1,12,0:0:0:0:
315,202,60847,1,8,0:0:0:0:
473,42,61016,6,0,P|488:125|476:195,1,138.000002632141,12|0,0:0|0:0,0:0:0:0:
306,336,61355,2,0,L|149:320,1,138.000002632141,12|0,0:0|0:0,0:0:0:0:
321,166,61694,1,8,0:0:0:0:
321,166,61779,1,8,0:0:0:0:
321,166,61864,1,8,0:0:0:0:
101,117,62033,2,8,P|157:56|240:37,1,138.000002632141,12|0,0:0|0:0,0:0:0:0:
463,104,62372,6,2,L|431:143,7,45.0000017166138,10|2|2|2|2|2|2|2,0:0|0:0|0:0|0:0|0:0|0:0|0:0|0:0,0:0:0:0:
305,73,63050,2,2,L|254:81,7,45.0000017166138,10|2|2|2|2|2|2|2,0:0|0:0|0:0|0:0|0:0|0:0|0:0|0:0,0:0:0:0:
354,196,63728,1,10,0:0:0:0:
354,240,63812,1,2,0:0:0:0:
339,281,63897,1,10,0:0:0:0:
310,314,63982,1,2,0:0:0:0:
271,334,64066,1,10,0:0:0:0:
227,339,64151,1,2,0:0:0:0:
185,327,64236,1,10,0:0:0:0:
149,300,64321,1,2,0:0:0:0:
133,260,64406,6,12,P|128:190|131:135,1,90.0000034332277
417,35,64745,2,12,P|453:86|483:141,1,90.0000034332277
298,324,65084,6,0,B|246:307|246:307|199:315|199:315|132:296,1,138.000002632141,14|0,0:0|0:0,0:0:0:0:
93,221,65423,1,8,0:0:0:0:
348,145,65593,1,0,0:0:0:0:
84,120,65762,1,8,0:0:0:0:
341,53,65932,1,0,0:0:0:0:
248,300,66101,1,8,0:0:0:0:
234,34,66271,5,8,0:0:0:0:
234,34,66355,1,8,0:0:0:0:
234,34,66440,1,12,0:0:0:0:
101,264,66610,1,0,0:0:0:0:
342,157,66779,1,8,0:0:0:0:
81,101,66949,1,0,0:0:0:0:
337,35,67118,2,0,P|431:90|468:120,1,138.000002632141,8|0,0:0|0:0,0:0:0:0:
258,285,67457,2,0,P|150:256|110:236,1,138.000002632141,8|0,0:0|0:0,0:0:0:0:
410,131,67796,5,8,0:0:0:0:
167,274,67966,1,0,0:0:0:0:
302,29,68135,1,8,0:0:0:0:
263,308,68305,1,0,0:0:0:0:
223,30,68474,1,8,0:0:0:0:
335,288,68644,1,0,0:0:0:0:
155,72,68813,1,8,0:0:0:0:
394,219,68983,1,0,0:0:0:0:
129,102,69152,6,0,L|114:259,1,138.000002632141
310,45,69491,2,0,L|409:165,1,138.000002632141
158,327,69830,2,0,P|85:245|62:207,1,138.000002632141,8|0,0:0|0:0,0:0:0:0:
274,46,70169,2,0,P|351:54|425:78,1,138.000002632141,8|0,0:0|0:0,0:0:0:0:
248,282,70508,5,8,0:0:0:0:
386,56,70677,1,0,0:0:0:0:
137,150,70847,1,8,0:0:0:0:
374,32,71016,1,0,0:0:0:0:
322,292,71186,1,8,0:0:0:0:
386,35,71355,1,0,0:0:0:0:
130,107,71525,1,8,0:0:0:0:
385,40,71694,1,0,0:0:0:0:
182,212,71864,6,0,P|231:278|324:328,1,138.000002632141,8|0,0:0|0:0,0:0:0:0:
451,104,72203,2,0,L|291:54,1,138.000002632141,8|0,0:0|0:0,0:0:0:0:
48,136,72542,2,0,P|48:218|94:313,1,138.000002632141,8|0,0:0|0:0,0:0:0:0:
377,109,72881,2,0,P|404:181|403:259,1,138.000002632141,8|0,0:0|0:0,0:0:0:0:
201,100,73220,2,0,B|239:164|239:164|257:255,1,138.000002632141
167,191,73559,1,0,0:0:0:0:
167,191,73728,1,0,0:0:0:0:
376,61,73898,6,0,P|412:136|428:218,1,138.000002632141,8|0,0:0|0:0,0:0:0:0:
185,317,74237,2,0,P|115:259|65:200,1,138.000002632141,8|0,0:0|0:0,0:0:0:0:
345,19,74576,2,0,P|418:57|481:113,1,138.000002632141,8|0,0:0|0:0,0:0:0:0:
168,344,74915,2,0,P|84:307|20:264,1,138.000002632141,8|0,0:0|0:0,0:0:0:0:
202,112,75254,1,8,0:0:0:0:
202,112,75338,1,8,0:0:0:0:
202,112,75423,2,8,L|284:148,1,69.0000013160706,8|0,0:0|0:0,0:0:0:0:
311,144,75593,1,8,0:0:0:0:
152,131,75932,5,8,0:0:0:0:
389,206,76101,1,0,0:0:0:0:
161,310,76271,1,8,0:0:0:0:
224,69,76440,1,0,0:0:0:0:
210,318,76610,1,8,0:0:0:0:
292,83,76779,1,0,0:0:0:0:
52,157,76949,1,8,0:0:0:0:
285,242,77118,1,0,0:0:0:0:
430,38,77288,6,0,L|448:209,1,138.000002632141,8|0,0:0|0:0,0:0:0:0:
228,317,77627,1,8,0:0:0:0:
228,317,77711,1,8,0:0:0:0:
228,317,77796,1,8,0:0:0:0:
101,101,77966,2,0,L|261:56,1,138.000002632141,8|0,0:0|0:0,0:0:0:0:
475,299,78305,2,0,P|392:341|296:362,1,138.000002632141,8|0,0:0|0:0,0:0:0:0:
160,174,78644,5,8,0:0:0:0:
402,119,78813,1,0,0:0:0:0:
240,310,78983,1,8,0:0:0:0:
258,61,79152,1,0,0:0:0:0:
372,283,79322,1,8,0:0:0:0:
442,44,79491,1,0,0:0:0:0:
227,173,79661,1,8,0:0:0:0:
475,187,79830,1,0,0:0:0:0:
242,278,80000,6,0,P|140:283|76:266,1,138.000002632141,8|0,0:0|0:0,0:0:0:0:
240,73,80338,1,8,0:0:0:0:
240,73,80508,2,8,P|308:90|184:168,1,345.000006580353
258,149,81016,2,8,L|90:98,1,138.000002632141
264,299,81355,6,2,L|319:252,5,45.0000017166138,10|2|2|2|2|2,0:0|0:0|0:0|0:0|0:0|0:0,0:0:0:0:
199,218,81864,2,2,L|141:168,5,45.0000017166138,10|2|2|2|2|2,0:0|0:0|0:0|0:0|0:0|0:0,0:0:0:0:
309,129,82372,2,2,L|368:77,3,45.0000017166138,10|2|2|2,0:0|0:0|0:0|0:0,0:0:0:0:
466,199,82711,5,10,0:0:0:0:
451,249,82795,1,2,0:0:0:0:
423,292,82880,1,10,0:0:0:0:
383,326,82965,1,2,0:0:0:0:
335,346,83049,1,10,0:0:0:0:
283,351,83134,1,2,0:0:0:0:
233,340,83219,1,10,0:0:0:0:
187,315,83304,1,2,0:0:0:0:
176,269,83389,1,10,0:0:0:0:
185,239,83474,1,2,0:0:0:0:
193,208,83559,1,10,0:0:0:0:
202,178,83644,1,2,0:0:0:0:
212,148,83728,1,10,0:0:0:0:
219,126,83813,1,10,0:0:0:0:
222,121,83898,1,10,0:0:0:0:
224,118,83983,1,10,0:0:0:0:
225,114,84067,5,10,0:0:0:0:
256,192,84237,12,0,86779,0:0:0:0:
