osu file format v14

[General]
AudioFilename: audio.mp3
AudioLeadIn: 0
PreviewTime: 45078
Countdown: 1
SampleSet: Soft
StackLeniency: 0.7
Mode: 0
LetterboxInBreaks: 0
WidescreenStoryboard: 0

[Editor]
Bookmarks: 38548
DistanceSpacing: 1.5
BeatDivisor: 4
GridSize: 4
TimelineZoom: 1.6

[Metadata]
Title:astral blast
TitleUnicode:astral blast
Artist:nanobii
ArtistUnicode:nanobii
Creator:quickman30
Version:Explosion
Source:nanobii
Tags:nanobii electro happycore quickman30
BeatmapID:1294150
BeatmapSetID:613384

[Difficulty]
HPDrainRate:7
CircleSize:4
OverallDifficulty:8
ApproachRate:9.2
SliderMultiplier:1.4
SliderTickRate:1

[Events]
//Background and Video events
0,0,"Wallpaper-16.jpg",0,0
//Break Periods
//Storyboard Layer 0 (Background)
//Storyboard Layer 1 (Fail)
//Storyboard Layer 2 (Pass)
//Storyboard Layer 3 (Foreground)
//Storyboard Sound Samples

[TimingPoints]
-10,352.941176470588,4,2,0,70,1,0
33872,-66.6666666666667,4,2,0,70,0,0
45166,-66.6666666666667,4,2,0,70,0,1
67754,-66.6666666666667,4,2,0,70,0,0
87960,-66.6666666666667,4,2,0,5,0,0
90342,-133.333333333333,4,2,0,70,0,0
110284,-133.333333333333,4,2,0,5,0,0
112578,-100,4,2,0,70,0,0
131284,-66.6666666666667,4,2,0,70,0,0
135519,-66.6666666666667,4,2,0,70,0,1
155284,-133.333333333333,4,2,0,70,0,0
158460,-66.6666666666667,4,2,0,70,0,0
175048,-133.333333333333,4,2,0,70,0,0
178460,-100,4,2,0,70,0,0

[HitObjects]
112,104,11284,6,0,P|172:92|232:152,1,140
388,256,11989,1,0,0:0:0:0:
192,152,12342,5,0,0:0:0:0:
80,164,12519,2,0,P|156:260|232:252,1,210
460,152,13401,5,0,0:0:0:0:
136,80,13754,1,0,0:0:0:0:
164,248,14107,5,0,0:0:0:0:
320,320,14460,1,0,0:0:0:0:
320,320,14637,2,0,P|360:252|284:156,1,210
324,316,15519,5,0,0:0:0:0:
128,288,15872,1,0,0:0:0:0:
128,288,16048,2,0,P|136:248|208:172,1,140
360,108,16578,5,0,0:0:0:0:
344,260,16754,1,0,0:0:0:0:
176,216,16931,6,0,P|195:188|229:187,1,70
344,260,17284,2,0,L|376:196,1,70
375,197,17549,1,0,0:0:0:0:
375,197,17637,5,0,0:0:0:0:
320,96,17813,1,0,0:0:0:0:
184,92,17989,2,0,P|128:116|120:128,1,70
196,236,18342,5,0,0:0:0:0:
344,284,18519,1,0,0:0:0:0:
184,92,18695,2,0,P|236:92|256:104,1,70
408,148,19048,2,0,P|367:180|343:182,1,70
350,182,19401,1,0,0:0:0:0:
188,223,19578,1,0,0:3:0:0:
188,223,19666,1,0,0:3:0:0:
188,223,19754,6,0,P|144:178|139:161,1,70,0|0,0:3|0:3,0:3:0:0:
130,147,20019,1,0,0:3:0:0:
129,110,20107,1,0,0:3:0:0:
200,0,20284,1,0,0:0:0:0:
308,92,20460,5,0,0:0:0:0:
296,124,20548,1,0,0:0:0:0:
284,156,20637,2,0,P|300:188|332:208,1,70
456,188,20989,1,0,0:0:0:0:
456,188,21078,1,0,0:0:0:0:
456,188,21166,5,0,0:0:0:0:
312,96,21342,1,0,0:0:0:0:
312,96,21431,1,0,0:0:0:0:
312,96,21519,1,0,0:0:0:0:
240,240,21695,1,0,0:0:0:0:
112,132,21872,1,0,0:0:0:0:
112,132,21960,1,0,0:0:0:0:
112,132,22048,5,0,0:0:0:0:
248,248,22225,2,0,L|280:272,2,23.3333333333333
340,192,22401,2,0,L|308:168,2,23.3333333333333
192,76,22578,6,0,P|152:92|120:180,1,140
172,292,23284,1,0,0:0:0:0:
308,332,23637,5,0,0:0:0:0:
308,332,23813,2,0,P|324:268|288:196,1,140
216,104,24342,5,0,0:0:0:0:
76,224,24695,1,0,0:0:0:0:
296,200,25048,1,0,0:0:0:0:
376,100,25401,2,0,P|412:132|408:232,1,140
416,219,25931,1,0,0:0:0:0:
472,320,26107,2,0,P|408:332|336:292,1,140
212,198,26813,5,0,0:0:0:0:
144,64,27166,1,0,0:0:0:0:
76,192,27342,2,0,P|164:208|228:192,1,140
290,97,27872,5,2,0:0:0:0:
318,117,27960,1,2,0:0:0:0:
339,145,28048,1,2,0:0:0:0:
352,177,28136,1,2,0:0:0:0:
365,210,28225,6,0,P|364:269|290:295,1,140
225,186,28754,1,0,0:0:0:0:
362,207,28931,1,0,0:0:0:0:
288,96,29284,5,0,0:0:0:0:
288,96,29460,2,0,P|331:148|368:224,1,140
305,336,29989,5,0,0:0:0:0:
490,178,30342,1,0,0:0:0:0:
288,96,30695,5,0,0:0:0:0:
288,96,30871,2,0,P|245:148|208:224,1,140
143,282,31401,2,0,P|219:315|281:294,1,140
311,202,31931,1,0,0:0:0:0:
277,194,32107,2,0,P|199:223|190:234,1,70
143,282,32460,6,0,P|118:238|115:197,1,70
185,152,32813,1,0,0:0:0:0:
185,152,32989,6,0,P|209:202|202:243,1,70
251,308,33342,1,0,0:0:0:0:
333,250,33519,1,2,0:0:0:0:
308,224,33607,1,2,0:0:0:0:
277,209,33695,1,2,0:0:0:0:
242,206,33783,1,2,0:0:0:0:
209,214,33872,6,0,P|173:194|161:169,1,52.5000020027161
191,83,34137,6,0,P|227:103|238:125,1,52.5000020027161
277,209,34401,2,0,P|313:189|324:167,1,52.5000020027161
376,103,34666,2,0,P|404:133|407:157,1,52.5000020027161
463,222,34931,6,0,P|424:237|401:229,1,52.5000020027161
314,230,35195,2,0,P|313:188|328:169,1,52.5000020027161
376,103,35460,2,0,P|361:81|335:76,1,52.5000020027161
216,92,35725,1,0,0:0:0:0:
216,92,35813,1,0,0:0:0:0:
316,181,35989,5,0,0:0:0:0:
316,181,36078,1,0,0:0:0:0:
316,181,36166,1,0,0:0:0:0:
240,317,36342,1,0,0:0:0:0:
240,317,36431,6,0,P|284:307|299:290,1,52.5000020027161
316,181,36695,2,0,P|342:182|364:194,1,52.5000020027161
363,61,36960,6,0,P|337:62|314:75,1,52.5000020027161
231,140,37224,6,0,P|214:119|208:94,1,52.5000020027161
97,38,37489,6,0,P|80:80|86:102,1,52.5000020027161
107,207,37754,5,0,0:0:0:0:
107,207,37842,1,0,0:0:0:0:
231,138,38019,1,0,0:0:0:0:
231,138,38107,1,0,0:0:0:0:
323,194,38284,2,0,P|291:231|241:237,1,52.5000020027161
182,209,38548,2,0,P|186:257|223:291,1,52.5000020027161
153,347,38813,6,0,P|179:354|205:352,1,52.5000020027161
251,241,38989,2,0,P|276:245|298:259,1,52.5000020027161
391,309,39166,1,0,0:0:0:0:
391,309,39254,1,0,0:0:0:0:
391,309,39342,1,0,0:0:0:0:
391,309,39431,1,0,0:0:0:0:
391,309,39519,5,0,0:0:0:0:
414,278,39607,1,0,0:0:0:0:
429,242,39695,1,0,0:0:0:0:
435,204,39783,1,0,0:0:0:0:
430,165,39871,1,0,0:0:0:0:
416,129,39960,1,0,0:0:0:0:
394,98,40048,1,0,0:0:0:0:
364,73,40136,1,0,0:0:0:0:
328,57,40225,2,0,L|253:59,1,52.5000020027161
173,141,40402,2,0,L|248:142,1,52.5000020027161
266,142,40578,5,0,0:0:0:0:
306,142,40666,1,0,0:0:0:0:
344,161,40754,1,0,0:0:0:0:
371,192,40842,1,0,0:0:0:0:
381,233,40930,1,0,0:0:0:0:
373,274,41019,1,0,0:0:0:0:
350,309,41107,1,0,0:0:0:0:
314,330,41195,1,0,0:0:0:0:
273,335,41284,2,0,P|211:285|210:277,1,52.5000020027161
213,216,41460,2,0,P|151:266|150:274,1,52.5000020027161
93,347,41637,5,0,0:0:0:0:
66,318,41725,1,0,0:0:0:0:
48,284,41813,1,0,0:0:0:0:
38,246,41901,1,0,0:0:0:0:
38,207,41989,1,0,0:0:0:0:
47,170,42078,1,0,0:0:0:0:
65,135,42166,1,0,0:0:0:0:
175,42,42342,5,0,0:0:0:0:
175,42,42431,1,0,0:0:0:0:
175,42,42519,1,0,0:0:0:0:
311,121,42695,5,0,0:0:0:0:
427,217,42872,1,0,0:0:0:0:
427,217,42960,1,0,0:0:0:0:
427,217,43048,5,0,0:0:0:0:
301,315,43225,1,0,0:0:0:0:
183,187,43401,1,0,0:0:0:0:
183,187,43489,1,0,0:0:0:0:
183,187,43578,1,0,0:0:0:0:
183,187,43666,1,0,0:0:0:0:
183,187,43754,5,0,0:0:0:0:
404,62,44107,1,0,0:0:0:0:
380,252,44460,1,0,0:0:0:0:
213,52,44813,1,0,0:0:0:0:
176,192,45166,6,0,P|256:196|316:160,1,105.000004005432
300,72,45519,2,0,P|380:120|376:160,1,105.000004005432
444,256,45872,5,0,0:0:0:0:
278,187,46048,1,0,0:0:0:0:
384,120,46225,1,0,0:0:0:0:
312,320,46401,1,0,0:0:0:0:
312,320,46578,6,0,P|240:308|204:288,1,105.000004005432
112,336,46931,2,0,P|112:252|128:228,1,105.000004005432
212,48,47284,5,0,0:0:0:0:
120,240,47460,1,0,0:0:0:0:
48,88,47637,1,0,0:0:0:0:
260,176,47813,1,0,0:0:0:0:
260,176,47989,6,0,P|348:144|356:132,1,105.000004005432
320,44,48342,2,0,P|420:68|428:100,1,105.000004005432
260,176,48695,5,0,0:0:0:0:
484,120,48872,1,0,0:0:0:0:
316,40,49048,1,0,0:0:0:0:
408,228,49225,1,0,0:0:0:0:
408,228,49401,6,0,P|328:208|296:188,1,105.000004005432
172,200,49754,2,0,P|196:272|228:308,1,105.000004005432
350,291,50107,2,0,P|326:219|294:183,1,105.000004005432
172,200,50460,2,0,P|196:128|228:92,1,105.000004005432
336,24,50813,5,0,0:0:0:0:
488,184,50989,1,0,0:0:0:0:
452,12,51166,1,0,0:0:0:0:
308,196,51342,1,0,0:0:0:0:
216,108,51519,2,0,L|104:140,1,105.000004005432
207,224,51872,2,0,L|319:192,1,105.000004005432
484,160,52225,5,0,0:0:0:0:
396,316,52401,1,0,0:0:0:0:
308,192,52578,2,0,L|232:96,1,105.000004005432
108,0,52931,1,0,0:0:0:0:
112,188,53107,1,0,0:0:0:0:
244,108,53284,2,0,P|312:104|336:132,1,105.000004005432
456,304,53637,5,0,0:0:0:0:
232,260,53813,1,0,0:0:0:0:
380,136,53989,1,0,0:0:0:0:
328,352,54166,1,0,0:0:0:0:
380,136,54342,2,0,P|316:88|284:88,1,105.000004005432
164,28,54695,2,0,P|124:97|128:129,1,105.000004005432
176,272,55048,5,0,0:0:0:0:
400,232,55225,1,0,0:0:0:0:
164,224,55401,1,0,0:0:0:0:
408,272,55578,1,0,0:0:0:0:
192,168,55754,6,0,P|120:128|112:104,1,105.000004005432
208,56,56107,2,0,P|280:96|288:120,1,105.000004005432
352,256,56460,5,0,0:0:0:0:
440,76,56637,1,0,0:0:0:0:
512,224,56813,1,0,0:0:0:0:
284,112,56989,1,0,0:0:0:0:
284,112,57166,2,0,L|312:228,1,105.000004005432
192,200,57519,2,0,L|164:316,1,105.000004005432
8,284,57872,5,0,0:0:0:0:
192,200,58048,1,0,0:0:0:0:
196,376,58225,1,0,0:0:0:0:
48,168,58401,1,0,0:0:0:0:
48,168,58578,6,0,P|92:104|136:88,1,105.000004005432
192,200,58931,2,0,P|235:171|258:124,1,105.000004005432
380,44,59284,5,0,0:0:0:0:
448,200,59460,1,0,0:0:0:0:
271,263,59637,6,0,P|203:219|187:187,1,105.000004005432
236,64,59989,2,0,P|304:108|320:140,1,105.000004005432
456,272,60342,1,0,0:0:0:0:
272,264,60519,1,0,0:0:0:0:
316,128,60695,5,0,0:0:0:0:
372,332,60872,1,0,0:0:0:0:
428,132,61048,1,0,0:0:0:0:
272,264,61225,1,0,0:0:0:0:
272,264,61401,2,0,L|172:204,1,105.000004005432
72,160,61754,2,0,L|152:88,1,105.000004005432
332,8,62107,5,4,0:0:0:0:
240,208,62284,1,0,0:0:0:0:
416,124,62460,1,0,0:0:0:0:
152,88,62637,1,0,0:0:0:0:
142,240,62813,6,0,P|214:224|254:196,1,105.000004005432
432,128,63166,2,0,P|360:144|320:172,1,105.000004005432
312,320,63519,5,4,0:0:0:0:
144,240,63695,1,0,0:0:0:0:
332,160,63872,1,0,0:0:0:0:
164,80,64048,1,0,0:0:0:0:
144,240,64225,2,0,P|220:216|272:196,1,105.000004005432
398,78,64578,2,0,L|326:166,1,105.000004005432
140,232,64931,5,4,0:0:0:0:
116,209,65019,1,0,0:0:0:0:
101,181,65107,1,0,0:0:0:0:
96,150,65195,1,0,0:0:0:0:
100,118,65283,1,0,0:0:0:0:
114,90,65372,1,0,0:0:0:0:
136,67,65460,1,0,0:0:0:0:
164,52,65548,1,0,0:0:0:0:
212,56,65636,5,0,0:0:0:0:
212,56,65725,1,0,0:0:0:0:
212,56,65813,1,0,0:0:0:0:
212,56,65901,1,0,0:0:0:0:
212,56,65989,1,0,0:0:0:0:
243,62,66077,1,0,0:0:0:0:
269,80,66165,1,0,0:0:0:0:
288,106,66253,1,0,0:0:0:0:
296,136,66341,5,0,0:0:0:0:
293,168,66430,1,0,0:0:0:0:
278,196,66519,1,0,0:0:0:0:
262,227,66607,1,0,0:0:0:0:
261,262,66695,1,0,0:0:0:0:
274,294,66783,1,0,0:0:0:0:
300,318,66871,1,0,0:0:0:0:
333,329,66960,1,0,0:0:0:0:
368,325,67048,5,0,0:0:0:0:
464,176,67225,1,0,0:0:0:0:
268,192,67401,2,0,L|232:132,1,52.5000020027161
180,40,67578,1,0,0:0:0:0:
56,144,67754,5,0,0:0:0:0:
112,304,68107,2,0,P|180:320|224:304,1,105.000004005432
167,198,68460,2,0,P|235:182|279:198,1,105.000004005432
108,304,68813,2,0,P|160:296|271:191,1,210.000008010865
164,200,69519,6,0,L|220:104,1,105.000004005432
352,80,69872,2,0,L|296:188,1,105.000004005432
164,200,70225,2,0,L|264:280,1,105.000004005432
354,327,70578,6,0,B|386:215|386:215|263:152,1,210.000008010865
164,200,71284,2,0,B|118:118|118:118|207:43,1,210.000008010865
352,40,71813,1,0,0:0:0:0:
352,40,71989,6,0,B|448:104|448:104|448:248,1,210.000008010865
452,344,72519,6,0,P|384:336|348:312,1,105.000004005432
292,228,72872,1,0,0:0:0:0:
260,120,73048,2,0,P|210:135|171:170,1,105.000004005432
104,284,73401,6,0,P|216:284|296:220,1,210.000008010865
260,116,74107,2,0,P|332:116|376:136,1,105.000004005432
393,238,74460,2,0,P|321:238|277:218,1,105.000004005432
260,112,74813,5,0,0:0:0:0:
120,220,74989,1,0,0:0:0:0:
120,220,75166,2,0,P|92:164|72:120,1,105.000004005432
164,64,75519,2,0,L|220:176,1,105.000004005432
280,252,75872,5,0,0:0:0:0:
368,88,76048,1,0,0:0:0:0:
472,224,76225,5,0,0:0:0:0:
212,160,76401,1,0,0:0:0:0:
212,160,76578,2,0,P|132:196|120:224,1,105.000004005432
60,360,76931,1,0,0:0:0:0:
124,208,77107,1,0,0:0:0:0:
252,304,77284,5,0,0:0:0:0:
312,144,77460,1,0,0:0:0:0:
312,144,77637,6,0,L|496:268,1,210.000008010865
364,368,78342,2,0,P|276:320|256:280,1,105.000004005432
264,212,78695,1,2,0:0:0:0:
238,218,78783,1,2,0:0:0:0:
215,230,78871,1,2,0:0:0:0:
194,246,78959,1,2,0:0:0:0:
176,268,79048,6,0,P|120:288|76:260,1,105.000004005432
32,160,79401,2,0,P|88:140|132:168,1,105.000004005432
176,268,79754,2,0,P|231:247|247:197,1,105.000004005432
288,56,80107,1,0,0:0:0:0:
124,156,80284,1,0,0:0:0:0:
232,212,80460,2,0,P|288:232|332:204,1,105.000004005432
404,135,80813,2,0,P|439:172|435:222,1,105.000004005432
480,320,81166,2,0,P|433:340|386:319,1,105.000004005432
244,208,81519,5,0,0:0:0:0:
348,80,81695,1,0,0:0:0:0:
348,80,81872,6,0,L|216:84,1,105.000004005432
152,144,82225,2,0,L|259:220,1,105.000004005432
348,80,82578,2,0,L|370:210,1,105.000004005432
376,312,82931,1,0,0:0:0:0:
232,204,83107,1,0,0:0:0:0:
144,328,83284,6,0,P|88:264|72:228,1,105.000004005432
167,122,83637,2,0,P|223:186|239:222,1,105.000004005432
316,328,83989,2,0,P|372:264|388:228,1,105.000004005432
384,96,84342,1,0,0:0:0:0:
228,208,84519,1,0,0:0:0:0:
380,244,84695,5,4,0:0:0:0:
216,88,84872,1,0,0:0:0:0:
432,88,85048,1,0,0:0:0:0:
228,208,85225,1,0,0:0:0:0:
408,308,85401,1,0,0:0:0:0:
232,364,85578,1,0,0:0:0:0:
228,208,85754,2,0,L|132:152,1,105.000004005432
4,80,86107,5,4,0:0:0:0:
224,28,86284,1,0,0:0:0:0:
136,152,86460,1,0,0:0:0:0:
324,200,86637,1,0,0:0:0:0:
144,292,86813,5,0,0:0:0:0:
276,88,86989,1,0,0:0:0:0:
320,196,87166,2,0,P|292:252|316:316,1,105.000004005432
408,280,87872,1,0,0:0:0:0:
256,192,88048,12,0,90166,0:0:0:0:
108,216,90342,6,0,B|156:272|312:236|316:108|248:96|176:112|120:120|188:344|188:344|200:360|320:288|372:200,1,735.000028038026
108,212,93166,2,0,B|200:144|340:80|136:16|36:56|216:288|216:288|224:292|296:344|264:176|396:128,1,735.000028038026
136,96,95989,6,0,P|156:188|180:208,1,105.000004005432
396,260,96695,1,0,0:0:0:0:
80,320,97048,1,0,0:0:0:0:
80,320,97225,1,0,0:0:0:0:
276,80,97754,2,0,P|340:104|364:148,1,105.000004005432
256,236,98460,1,0,0:0:0:0:
256,236,98637,2,0,B|172:352|172:352|108:192|108:192|192:80|192:80|264:204,1,577.500022029878
172,344,100931,1,0,0:0:0:0:
256,188,101637,6,0,B|380:160|380:160|288:104|288:104|380:84,1,315.000012016297
472,260,103048,2,0,B|384:264|384:264|308:308|308:308|256:280,1,210.000008010865
96,320,104460,2,0,P|104:232|272:80,1,315.000012016297
416,64,105872,2,0,P|408:152|240:304,1,315.000012016297
92,320,107284,2,0,L|292:64,1,315.000012016297
424,76,108695,2,0,L|230:324,1,315.000012016297
240,168,110107,5,0,0:0:0:0:
256,192,110284,12,0,112401,0:0:0:0:
256,192,112578,5,0,0:0:0:0:
124,263,112931,2,0,P|168:316|236:319,1,140
328,196,113548,1,0,0:0:0:0:
116,260,113813,2,0,P|112:192|164:144,1,140
252,112,114342,6,0,P|256:180|204:228,1,140
52,168,114960,1,0,0:0:0:0:
150,42,115225,2,0,P|217:53|252:114,1,140
248,240,115754,6,0,P|315:228|350:167,1,140
444,52,116372,1,0,0:0:0:0:
349,170,116637,2,0,P|309:114|238:110,1,140
80,136,117166,6,0,L|188:260,1,140
280,344,117784,1,0,0:0:0:0:
420,272,118048,2,0,L|312:148,1,140
244,56,118578,6,0,P|213:20|239:66,1,140
328,164,119195,1,0,0:0:0:0:
420,272,119460,6,0,P|450:307|424:261,1,140
328,172,119989,2,0,B|272:184|272:184|212:240,1,140
84,340,120607,1,0,0:0:0:0:
64,196,120872,2,0,B|120:184|120:184|180:128,1,140
296,44,121401,6,0,P|352:80|360:148,1,140
296,256,122019,1,0,0:0:0:0:
200,360,122284,2,0,P|144:324|136:256,1,140
160,112,122813,5,0,0:0:0:0:
360,184,123166,1,0,0:0:0:0:
140,252,123431,1,0,0:0:0:0:
360,320,123695,1,0,0:0:0:0:
360,184,123872,5,2,0:0:0:0:
350,150,123960,1,2,0:0:0:0:
332,120,124048,1,2,0:0:0:0:
305,97,124136,1,2,0:0:0:0:
274,83,124224,5,2,0:0:0:0:
108,184,124489,1,0,0:0:0:0:
348,292,124754,1,0,0:0:0:0:
274,83,124931,1,0,0:0:0:0:
460,156,125195,1,0,0:0:0:0:
348,292,125460,1,0,0:0:0:0:
274,83,125637,5,0,0:0:0:0:
246,105,125813,1,0,0:0:0:0:
218,126,125989,1,0,0:0:0:0:
190,148,126166,1,0,0:0:0:0:
163,169,126342,1,0,0:0:0:0:
320,308,126607,1,0,0:0:0:0:
424,172,126872,2,0,L|376:144,1,35
280,84,127048,5,0,0:0:0:0:
124,184,127313,1,0,0:0:0:0:
320,308,127578,1,0,0:0:0:0:
280,84,127754,1,0,0:0:0:0:
472,176,128019,1,0,0:0:0:0:
288,192,128284,1,0,0:0:0:0:
156,92,128460,5,0,0:0:0:0:
144,124,128637,1,0,0:0:0:0:
132,157,128813,1,0,0:0:0:0:
120,190,128989,1,0,0:0:0:0:
108,223,129166,1,0,0:0:0:0:
108,352,129342,2,0,L|168:324,1,35
192,312,129519,1,0,0:0:0:0:
348,324,129695,1,0,0:0:0:0:
440,224,129872,5,0,0:0:0:0:
440,224,129960,1,0,0:0:0:0:
440,224,130048,1,0,0:0:0:0:
440,224,130137,1,0,0:0:0:0:
433,194,130225,1,0,0:0:0:0:
423,166,130313,1,0,0:0:0:0:
408,140,130401,1,0,0:0:0:0:
390,116,130489,1,0,0:0:0:0:
368,95,130578,1,0,0:0:0:0:
343,78,130666,5,0,0:0:0:0:
316,64,130754,1,0,0:0:0:0:
288,55,130842,1,0,0:0:0:0:
258,50,130931,1,0,0:0:0:0:
228,50,131019,1,0,0:0:0:0:
198,54,131107,1,0,0:0:0:0:
169,63,131195,1,0,0:0:0:0:
136,80,131284,2,0,L|72:108,1,52.5000020027161
52,220,131460,2,0,L|116:192,1,52.5000020027161
136,188,131637,5,0,0:0:0:0:
169,196,131725,1,0,0:0:0:0:
202,210,131813,1,0,0:0:0:0:
232,229,131901,1,0,0:0:0:0:
264,256,131989,1,0,0:0:0:0:
289,231,132077,1,0,0:0:0:0:
317,211,132165,1,0,0:0:0:0:
349,195,132253,1,0,0:0:0:0:
382,183,132341,1,0,0:0:0:0:
464,44,132695,5,0,0:0:0:0:
212,108,133048,1,0,0:0:0:0:
382,183,133225,1,0,0:0:0:0:
164,260,133578,1,0,0:0:0:0:
388,340,133931,1,0,0:0:0:0:
256,156,134813,2,0,L|300:156,3,26.2500010013581
212,152,134989,1,0,0:0:0:0:
173,150,135077,1,0,0:0:0:0:
138,168,135165,1,0,0:0:0:0:
118,201,135253,1,0,0:0:0:0:
118,240,135341,1,0,0:0:0:0:
204,336,135519,5,4,0:0:0:0:
368,260,135695,1,0,0:0:0:0:
200,152,135872,1,0,0:0:0:0:
376,84,136048,1,0,0:0:0:0:
376,84,136225,2,0,L|324:184,1,105.000004005432
240,248,136578,2,0,L|188:148,1,105.000004005432
176,20,136931,5,0,0:0:0:0:
240,248,137107,1,0,0:0:0:0:
52,156,137284,1,0,0:0:0:0:
300,120,137460,1,0,0:0:0:0:
300,120,137637,2,0,P|396:156|400:188,1,105.000004005432
331,274,137989,2,0,P|235:238|231:206,1,105.000004005432
56,144,138342,5,0,0:0:0:0:
304,128,138519,1,0,0:0:0:0:
96,240,138695,1,0,0:0:0:0:
208,52,138872,1,0,0:0:0:0:
276,256,139048,1,0,0:0:0:0:
56,144,139225,1,0,0:0:0:0:
124,344,139401,1,0,0:0:0:0:
204,136,139578,1,0,0:0:0:0:
204,136,139754,6,0,L|308:176,1,105.000004005432
280,68,140107,2,0,B|336:68|336:68|384:108,1,105.000004005432
280,272,140460,2,0,B|336:272|336:272|384:232,1,105.000004005432
280,68,140813,2,0,B|275:116|275:116|235:156,1,105.000004005432
72,280,141166,5,0,0:0:0:0:
236,152,141342,1,0,0:0:0:0:
52,148,141519,1,0,0:0:0:0:
264,292,141695,1,0,0:0:0:0:
264,292,141872,2,0,B|316:260|316:260|336:216,1,105.000004005432
236,152,142225,2,0,B|232:91|232:91|256:49,1,105.000004005432
416,36,142578,5,0,0:0:0:0:
236,152,142754,1,0,0:0:0:0:
468,196,142931,2,0,P|408:268|360:272,1,105.000004005432
236,152,143284,1,0,0:0:0:0:
152,320,143460,1,0,0:0:0:0:
44,192,143637,2,0,P|104:120|152:116,1,105.000004005432
316,24,143989,5,0,0:0:0:0:
256,232,144166,1,0,0:0:0:0:
108,116,144342,1,0,0:0:0:0:
372,136,144519,1,0,0:0:0:0:
372,136,144695,2,0,L|420:236,1,105.000004005432
256,224,145048,2,0,L|191:314,1,105.000004005432
12,228,145401,5,0,0:0:0:0:
256,224,145578,1,0,0:0:0:0:
92,376,145754,1,0,0:0:0:0:
184,136,145931,1,0,0:0:0:0:
292,328,146107,1,0,0:0:0:0:
392,136,146284,1,0,0:0:0:0:
128,212,146460,1,0,0:0:0:0:
352,252,146637,1,0,0:0:0:0:
352,252,146813,6,0,P|372:172|360:140,1,105.000004005432
240,40,147166,2,0,P|260:87|254:139,1,105.000004005432
112,272,147519,1,0,0:0:0:0:
340,256,147695,1,0,0:0:0:0:
152,152,147872,1,0,0:0:0:0:
232,368,148048,1,0,0:0:0:0:
308,156,148225,2,0,L|344:52,1,105.000004005432
444,96,148578,2,0,L|480:200,1,105.000004005432
288,320,148931,5,0,0:0:0:0:
176,100,149107,1,0,0:0:0:0:
144,320,149284,1,0,0:0:0:0:
312,128,149460,1,0,0:0:0:0:
312,128,149637,6,0,P|236:188|208:188,1,105.000004005432
176,100,149989,2,0,P|252:40|280:40,1,105.000004005432
480,92,150342,1,0,0:0:0:0:
232,188,150519,1,0,0:0:0:0:
440,240,150695,1,0,0:0:0:0:
252,40,150872,1,0,0:0:0:0:
156,92,151048,6,0,P|240:132|272:132,1,105.000004005432
228,260,151401,2,0,P|312:220|344:220,1,105.000004005432,0|0,0:0|0:0,0:3:0:0:
394,110,151754,2,0,P|452:190|482:203,1,105.000004005432
261,301,152107,2,0,P|319:220|349:207,1,105.000004005432
456,192,152460,5,4,0:0:0:0:
284,28,152637,1,0,0:0:0:0:
488,20,152813,1,0,0:0:0:0:
240,192,152989,1,0,0:0:0:0:
424,292,153166,2,0,P|376:332|320:336,1,105.000004005432
228,276,153519,2,0,P|178:238|161:184,1,105.000004005432
72,32,153872,5,4,0:0:0:0:
280,88,154048,1,0,0:0:0:0:
20,196,154225,1,0,0:0:0:0:
228,280,154401,1,0,0:0:0:0:
164,64,154578,1,0,0:0:0:0:
412,120,154754,1,0,0:0:0:0:
128,200,154931,1,0,0:0:0:0:
324,40,155107,1,0,0:0:0:0:
372,252,155284,6,0,P|308:288|224:280,1,157.500006008148,6|0,0:0|0:0,0:0:0:0:
68,148,156342,1,0,0:0:0:0:
368,100,156872,1,0,0:0:0:0:
272,316,157401,1,0,0:0:0:0:
364,96,157578,1,0,0:0:0:0:
192,144,157754,1,0,0:0:0:0:
162,153,157842,1,0,0:0:0:0:
138,173,157930,1,0,0:0:0:0:
123,199,158018,1,0,0:0:0:0:
118,230,158106,5,0,0:0:0:0:
132,376,158460,2,0,P|192:348|224:312,1,105.000004005432
236,212,158813,2,0,P|296:240|328:276,1,105.000004005432
384,364,159166,2,0,P|424:308|368:156,1,210.000008010865
280,48,159872,2,0,B|216:84|216:84|196:144,1,105.000004005432
232,228,160225,2,0,B|296:192|296:192|316:132,1,105.000004005432
280,48,160578,2,0,B|351:64|351:64|387:117,1,105.000004005432,0|0,0:0|0:0,0:3:0:0:
408,192,160931,6,0,B|364:272|364:272|304:164,1,210.000008010865
206,113,161637,2,0,B|162:33|162:33|102:141,1,210.000008010865
200,272,162166,1,0,0:0:0:0:
200,272,162342,6,0,B|244:352|244:352|304:244,1,210.000008010865
376,112,162872,1,0,0:0:0:0:
184,92,163048,2,0,P|224:172|236:168,1,105.000004005432
296,248,163401,2,0,P|256:328|244:324,1,105.000004005432
68,284,163754,5,0,0:0:0:0:
296,248,163931,1,0,0:0:0:0:
84,164,164107,2,0,P|152:116|184:96,1,105.000004005432
300,64,164460,2,0,P|232:16|200:-4,1,105.000004005432
84,44,164813,2,0,P|152:92|184:112,1,105.000004005432
380,208,165166,5,0,0:0:0:0:
176,260,165342,1,0,0:0:0:0:
288,128,165519,2,0,P|356:80|388:60,1,105.000004005432
512,116,165872,2,0,P|444:164|412:184,1,105.000004005432
172,264,166225,1,0,0:0:0:0:
408,352,166401,1,0,0:0:0:0:
425,175,166578,6,0,P|361:135|301:147,1,105.000004005432
268,268,166931,2,0,P|332:228|392:240,1,105.000004005432
468,72,167284,1,0,0:0:0:0:
224,80,167460,1,0,0:0:0:0:
272,268,167637,1,0,0:0:0:0:
72,180,167813,1,0,0:0:0:0:
72,180,167989,6,0,B|152:160|152:160|216:172,1,105.000004005432
164,296,168342,2,0,B|244:316|244:316|308:304,1,105.000004005432
380,188,168695,6,0,B|300:208|300:208|236:196,1,105.000004005432
174,164,169048,1,2,0:0:0:0:
142,140,169136,1,2,0:0:0:0:
110,116,169224,1,2,0:0:0:0:
79,93,169312,1,2,0:0:0:0:
48,68,169401,6,0,L|48:212,1,105.000004005432
174,269,169754,2,0,L|174:125,1,105.000004005432
176,36,170107,2,0,L|372:160,1,210.000008010865
468,244,170813,6,0,P|404:272|344:256,1,105.000004005432
352,160,171166,2,0,P|291:194|267:251,1,105.000004005432
252,332,171519,2,0,P|191:297|167:240,1,105.000004005432
68,228,171872,2,0,P|98:185|145:164,1,105.000004005432
272,40,172225,6,0,B|332:160|332:160|420:164,1,210.000008010865
293,272,172931,2,0,B|233:152|233:152|145:148,1,210.000008010865
157,148,173460,1,0,0:0:0:0:
188,331,173637,6,0,B|264:328|264:328|324:208,1,210.000008010865
392,68,174166,1,0,0:0:0:0:
92,136,174519,1,0,0:0:0:0:
324,208,174872,1,0,0:0:0:0:
324,208,175048,2,0,P|312:144|268:120,1,105.000004005432
128,92,175578,1,4,0:0:0:0:
152,240,175754,1,0,0:0:0:0:
320,208,175931,1,4,0:0:0:0:
300,48,176107,5,0,0:0:0:0:
472,112,176284,1,4,0:0:0:0:
320,208,176460,1,0,0:0:0:0:
168,344,176813,2,0,P|140:284|140:232,1,105.000004005432
240,100,177519,1,0,0:0:0:0:
240,100,177695,1,0,0:0:0:0:
360,228,178460,2,0,L|396:248,2,23.3333333333333
