osu file format v14

[General]
AudioFilename: audio.mp3
AudioLeadIn: 0
PreviewTime: 68059
Countdown: 0
SampleSet: Normal
StackLeniency: 0.7
Mode: 1
LetterboxInBreaks: 0
WidescreenStoryboard: 0

[Editor]
Bookmarks: 30,11324,22618,33912,45206,67794,90382,112971,124265,135559,158147,176500
DistanceSpacing: 0.1
BeatDivisor: 2
GridSize: 32
TimelineZoom: 1.5

[Metadata]
Title:astral blast
TitleUnicode:astral blast
Artist:nanobii
ArtistUnicode:nanobii
Creator:Kqrth
Version:Oni
Source:osu!
Tags:fa featured artist mappers guild happy hardcore happycore techno
BeatmapID:2064700
BeatmapSetID:946540

[Difficulty]
HPDrainRate:5
CircleSize:5
OverallDifficulty:6
ApproachRate:5
SliderMultiplier:1.4
SliderTickRate:1

[Events]
//Background and Video events
0,0,"bg.jpg",0,105
//Break Periods
2,96229,111418
//Storyboard Layer 0 (Background)
//Storyboard Layer 1 (Fail)
//Storyboard Layer 2 (Pass)
//Storyboard Layer 3 (Foreground)
//Storyboard Sound Samples

[TimingPoints]
30,352.941176470588,4,1,0,70,1,0
22529,-100,4,1,0,80,0,0
45118,-100,4,1,0,90,0,0
45206,-100,4,1,0,90,0,1
67794,-100,4,1,0,90,0,0
68059,-100,4,1,0,80,0,0
87824,-100,4,1,0,40,0,0
90294,-100,4,1,0,70,0,0
90471,-100,4,1,0,30,0,0
96118,-100,4,1,0,5,0,0
112529,-100,4,1,0,70,0,0
129824,-100,4,1,0,80,0,0
134765,-100,4,1,0,70,0,0
135471,-100,4,1,0,90,0,0
135559,-100,4,1,0,90,0,1
158147,-100,4,1,0,90,0,0
158412,-100,4,1,0,80,0,0
176588,-100,4,1,0,40,0,0

[HitObjects]
256,192,11324,5,0,0:0:0:0:
256,192,11677,1,0,0:0:0:0:
256,192,12029,1,8,0:0:0:0:
256,192,12382,1,8,0:0:0:0:
256,192,12559,1,0,0:0:0:0:
256,192,12912,1,0,0:0:0:0:
256,192,13088,1,8,0:0:0:0:
256,192,13441,1,0,0:0:0:0:
256,192,13794,1,8,0:0:0:0:
256,192,14147,1,8,0:0:0:0:
256,192,14500,1,8,0:0:0:0:
256,192,14677,1,0,0:0:0:0:
256,192,15206,1,8,0:0:0:0:
256,192,15559,1,8,0:0:0:0:
256,192,15912,1,8,0:0:0:0:
256,192,16088,1,0,0:0:0:0:
256,192,16441,1,8,0:0:0:0:
256,192,16618,1,8,0:0:0:0:
256,192,16794,1,8,0:0:0:0:
256,192,16971,1,8,0:0:0:0:
256,192,17235,1,0,0:0:0:0:
256,192,17324,1,8,0:0:0:0:
256,192,17500,1,0,0:0:0:0:
256,192,17677,1,8,0:0:0:0:
256,192,17853,1,8,0:0:0:0:
256,192,18029,1,8,0:0:0:0:
256,192,18206,1,0,0:0:0:0:
256,192,18559,1,8,0:0:0:0:
256,192,18912,1,0,0:0:0:0:
256,192,19265,1,8,0:0:0:0:
256,192,19618,1,0,0:0:0:0:
256,192,19706,1,0,0:0:0:0:
256,192,19794,1,8,0:0:0:0:
256,192,19971,1,8,0:0:0:0:
256,192,20147,1,8,0:0:0:0:
256,192,20324,1,0,0:0:0:0:
256,192,20500,1,8,0:0:0:0:
256,192,20588,1,8,0:0:0:0:
256,192,20677,1,0,0:0:0:0:
256,192,20853,1,8,0:0:0:0:
256,192,21029,1,0,0:0:0:0:
256,192,21118,1,0,0:0:0:0:
256,192,21206,1,8,0:0:0:0:
256,192,21471,1,8,0:0:0:0:
256,192,21559,1,8,0:0:0:0:
256,192,21735,1,8,0:0:0:0:
256,192,22000,1,8,0:0:0:0:
256,192,22088,1,8,0:0:0:0:
256,192,22618,1,4,0:0:0:0:
256,192,22971,1,0,0:0:0:0:
256,192,23324,1,8,0:0:0:0:
256,192,23677,1,8,0:0:0:0:
256,192,23853,1,0,0:0:0:0:
256,192,24206,1,0,0:0:0:0:
256,192,24382,1,8,0:0:0:0:
256,192,24735,1,0,0:0:0:0:
256,192,25088,1,8,0:0:0:0:
256,192,25441,1,8,0:0:0:0:
256,192,25794,1,8,0:0:0:0:
256,192,25971,1,0,0:0:0:0:
256,192,26500,1,8,0:0:0:0:
256,192,26853,1,8,0:0:0:0:
256,192,27206,1,8,0:0:0:0:
256,192,27382,1,0,0:0:0:0:
256,192,28265,1,0,0:0:0:0:
256,192,28618,1,0,0:0:0:0:
256,192,28971,1,8,0:0:0:0:
256,192,29324,1,8,0:0:0:0:
256,192,29500,1,0,0:0:0:0:
256,192,29853,1,0,0:0:0:0:
256,192,30029,1,8,0:0:0:0:
256,192,30382,1,0,0:0:0:0:
256,192,30735,1,8,0:0:0:0:
256,192,30912,1,0,0:0:0:0:
256,192,31441,1,8,0:0:0:0:
256,192,31794,1,0,0:0:0:0:
256,192,32147,1,0,0:0:0:0:
256,192,32324,1,8,0:0:0:0:
256,192,32677,1,8,0:0:0:0:
256,192,32853,1,8,0:0:0:0:
256,192,33029,1,0,0:0:0:0:
256,192,33912,5,12,0:0:0:0:
256,192,34177,1,8,0:0:0:0:
256,192,34441,1,8,0:0:0:0:
256,192,34706,1,8,0:0:0:0:
256,192,34971,1,8,0:0:0:0:
256,192,35235,1,8,0:0:0:0:
256,192,35500,1,8,0:0:0:0:
256,192,35765,1,8,0:0:0:0:
256,192,36029,1,8,0:0:0:0:
256,192,36294,1,8,0:0:0:0:
256,192,36559,1,8,0:0:0:0:
256,192,36735,1,8,0:0:0:0:
256,192,37000,1,8,0:0:0:0:
256,192,37265,1,8,0:0:0:0:
256,192,37529,1,8,0:0:0:0:
256,192,37794,1,8,0:0:0:0:
256,192,38059,1,8,0:0:0:0:
256,192,38324,1,8,0:0:0:0:
256,192,38588,1,8,0:0:0:0:
256,192,38853,1,8,0:0:0:0:
256,192,39029,1,0,0:0:0:0:
256,192,39118,1,8,0:0:0:0:
256,192,39206,1,0,0:0:0:0:
256,192,39382,1,8,0:0:0:0:
256,192,39559,1,8,0:0:0:0:
256,192,39735,1,0,0:0:0:0:
256,192,39824,1,8,0:0:0:0:
256,192,39912,1,8,0:0:0:0:
256,192,40088,1,0,0:0:0:0:
256,192,40265,1,8,0:0:0:0:
256,192,40353,1,8,0:0:0:0:
256,192,40441,1,8,0:0:0:0:
256,192,40618,1,8,0:0:0:0:
256,192,40794,1,8,0:0:0:0:
256,192,40971,1,0,0:0:0:0:
256,192,41059,1,0,0:0:0:0:
256,192,41147,1,8,0:0:0:0:
256,192,41324,1,0,0:0:0:0:
256,192,41412,1,8,0:0:0:0:
256,192,41500,1,0,0:0:0:0:
256,192,41677,1,0,0:0:0:0:
256,192,41765,1,0,0:0:0:0:
256,192,41853,1,8,0:0:0:0:
256,192,42029,1,0,0:0:0:0:
256,192,42206,1,8,0:0:0:0:
256,192,42382,1,0,0:0:0:0:
256,192,42471,1,0,0:0:0:0:
256,192,42559,1,0,0:0:0:0:
256,192,42735,1,8,0:0:0:0:
256,192,42912,1,0,0:0:0:0:
256,192,43000,1,8,0:0:0:0:
256,192,43088,1,0,0:0:0:0:
256,192,43265,1,8,0:0:0:0:
256,192,43441,1,0,0:0:0:0:
256,192,43529,1,0,0:0:0:0:
256,192,43618,1,8,0:0:0:0:
256,192,43794,1,0,0:0:0:0:
256,192,44147,1,0,0:0:0:0:
256,192,44324,1,0,0:0:0:0:
256,192,44412,1,0,0:0:0:0:
256,192,44677,1,0,0:0:0:0:
256,192,44853,1,8,0:0:0:0:
256,192,45206,1,4,0:0:0:0:
256,192,45559,1,8,0:0:0:0:
256,192,45912,1,0,0:0:0:0:
256,192,46088,1,0,0:0:0:0:
256,192,46177,1,0,0:0:0:0:
256,192,46265,1,8,0:0:0:0:
256,192,46441,1,8,0:0:0:0:
256,192,46794,1,0,0:0:0:0:
256,192,46971,1,8,0:0:0:0:
256,192,47147,1,8,0:0:0:0:
256,192,47235,1,8,0:0:0:0:
256,192,47324,1,0,0:0:0:0:
256,192,47500,1,0,0:0:0:0:
256,192,47677,1,8,0:0:0:0:
256,192,47853,1,0,0:0:0:0:
256,192,47941,1,0,0:0:0:0:
256,192,48029,1,8,0:0:0:0:
256,192,48206,1,0,0:0:0:0:
256,192,48294,1,0,0:0:0:0:
256,192,48382,1,8,0:0:0:0:
256,192,48559,1,0,0:0:0:0:
256,192,48912,1,0,0:0:0:0:
256,192,49088,1,8,0:0:0:0:
256,192,49177,1,8,0:0:0:0:
256,192,49265,1,0,0:0:0:0:
256,192,49441,1,8,0:0:0:0:
256,192,49618,1,0,0:0:0:0:
256,192,49706,1,0,0:0:0:0:
256,192,49794,1,8,0:0:0:0:
256,192,49971,1,0,0:0:0:0:
256,192,50324,1,0,0:0:0:0:
256,192,50500,1,8,0:0:0:0:
256,192,50853,1,0,0:0:0:0:
256,192,51206,1,8,0:0:0:0:
256,192,51559,1,0,0:0:0:0:
256,192,51735,1,0,0:0:0:0:
256,192,51824,1,0,0:0:0:0:
256,192,51912,1,8,0:0:0:0:
256,192,52088,1,0,0:0:0:0:
256,192,52441,1,0,0:0:0:0:
256,192,52618,1,8,0:0:0:0:
256,192,52794,1,8,0:0:0:0:
256,192,52882,1,8,0:0:0:0:
256,192,52971,1,0,0:0:0:0:
256,192,53147,1,0,0:0:0:0:
256,192,53235,1,0,0:0:0:0:
256,192,53324,1,8,0:0:0:0:
256,192,53500,1,0,0:0:0:0:
256,192,53853,1,0,0:0:0:0:
256,192,54029,1,8,0:0:0:0:
256,192,54118,1,0,0:0:0:0:
256,192,54206,1,8,0:0:0:0:
256,192,54382,1,0,0:0:0:0:
256,192,54559,1,0,0:0:0:0:
256,192,54647,1,0,0:0:0:0:
256,192,54735,1,8,0:0:0:0:
256,192,54912,1,0,0:0:0:0:
256,192,55265,1,0,0:0:0:0:
256,192,55441,1,8,0:0:0:0:
256,192,55794,1,0,0:0:0:0:
256,192,55971,1,0,0:0:0:0:
256,192,56059,1,0,0:0:0:0:
256,192,56147,1,8,0:0:0:0:
256,192,56500,1,4,0:0:0:0:
256,192,56853,1,8,0:0:0:0:
256,192,57206,1,0,0:0:0:0:
256,192,57382,1,0,0:0:0:0:
256,192,57471,1,0,0:0:0:0:
256,192,57559,1,8,0:0:0:0:
256,192,57735,1,8,0:0:0:0:
256,192,58088,1,0,0:0:0:0:
256,192,58177,1,0,0:0:0:0:
256,192,58265,1,8,0:0:0:0:
256,192,58441,1,8,0:0:0:0:
256,192,58529,1,8,0:0:0:0:
256,192,58618,1,0,0:0:0:0:
256,192,58794,1,0,0:0:0:0:
256,192,58971,1,8,0:0:0:0:
256,192,59324,1,8,0:0:0:0:
256,192,59500,1,0,0:0:0:0:
256,192,59588,1,0,0:0:0:0:
256,192,59677,1,8,0:0:0:0:
256,192,59853,1,0,0:0:0:0:
256,192,60206,1,0,0:0:0:0:
256,192,60382,1,8,0:0:0:0:
256,192,60471,1,8,0:0:0:0:
256,192,60559,1,0,0:0:0:0:
256,192,60735,1,8,0:0:0:0:
256,192,60912,1,0,0:0:0:0:
256,192,61000,1,0,0:0:0:0:
256,192,61088,1,8,0:0:0:0:
256,192,61265,1,0,0:0:0:0:
256,192,61618,1,0,0:0:0:0:
256,192,61794,1,8,0:0:0:0:
256,192,62147,1,12,0:0:0:0:
256,192,62500,1,0,0:0:0:0:
256,192,62853,1,8,0:0:0:0:
256,192,63029,1,0,0:0:0:0:
256,192,63118,1,0,0:0:0:0:
256,192,63206,1,8,0:0:0:0:
256,192,63382,1,0,0:0:0:0:
256,192,63559,1,12,0:0:0:0:
256,192,63912,1,8,0:0:0:0:
256,192,64088,1,8,0:0:0:0:
256,192,64177,1,8,0:0:0:0:
256,192,64265,1,0,0:0:0:0:
256,192,64441,1,0,0:0:0:0:
256,192,64618,1,8,0:0:0:0:
256,192,64794,1,8,0:0:0:0:
256,192,64971,1,4,0:0:0:0:
256,192,65324,2,4,L|320:192,20,35
256,192,67265,1,0,0:0:0:0:
256,192,67441,1,0,0:0:0:0:
256,192,67529,1,0,0:0:0:0:
256,192,67618,1,0,0:0:0:0:
256,192,67794,5,12,0:0:0:0:
256,192,68147,1,8,0:0:0:0:
256,192,68324,1,0,0:0:0:0:
256,192,68412,1,0,0:0:0:0:
256,192,68500,1,8,0:0:0:0:
256,192,68677,1,0,0:0:0:0:
256,192,68853,1,8,0:0:0:0:
256,192,69206,1,0,0:0:0:0:
256,192,69559,1,8,0:0:0:0:
256,192,69735,1,8,0:0:0:0:
256,192,69824,1,8,0:0:0:0:
256,192,69912,1,0,0:0:0:0:
256,192,70088,1,0,0:0:0:0:
256,192,70265,1,8,0:0:0:0:
256,192,70353,1,8,0:0:0:0:
256,192,70441,1,8,0:0:0:0:
256,192,70529,1,0,0:0:0:0:
256,192,70618,1,0,0:0:0:0:
256,192,70971,1,8,0:0:0:0:
256,192,71324,1,0,0:0:0:0:
256,192,71500,1,0,0:0:0:0:
256,192,71588,1,0,0:0:0:0:
256,192,71677,1,8,0:0:0:0:
256,192,71853,1,8,0:0:0:0:
256,192,72029,1,8,0:0:0:0:
256,192,72206,1,0,0:0:0:0:
256,192,72294,1,0,0:0:0:0:
256,192,72382,1,8,0:0:0:0:
256,192,72559,1,0,0:0:0:0:
256,192,72912,1,8,0:0:0:0:
256,192,73265,1,8,0:0:0:0:
256,192,73441,1,0,0:0:0:0:
256,192,73794,1,8,0:0:0:0:
256,192,73971,1,0,0:0:0:0:
256,192,74059,1,0,0:0:0:0:
256,192,74147,1,8,0:0:0:0:
256,192,74324,1,0,0:0:0:0:
256,192,74500,1,8,0:0:0:0:
256,192,74853,1,0,0:0:0:0:
256,192,75206,1,8,0:0:0:0:
256,192,75382,1,0,0:0:0:0:
256,192,75471,1,0,0:0:0:0:
256,192,75559,1,8,0:0:0:0:
256,192,75735,1,0,0:0:0:0:
256,192,75912,1,8,0:0:0:0:
256,192,76000,1,8,0:0:0:0:
256,192,76088,1,0,0:0:0:0:
256,192,76177,1,0,0:0:0:0:
256,192,76265,1,0,0:0:0:0:
256,192,76618,1,8,0:0:0:0:
256,192,76971,1,0,0:0:0:0:
256,192,77147,1,8,0:0:0:0:
256,192,77235,1,0,0:0:0:0:
256,192,77324,1,8,0:0:0:0:
256,192,77500,1,0,0:0:0:0:
256,192,77853,1,0,0:0:0:0:
256,192,78029,1,8,0:0:0:0:
256,192,78382,1,0,0:0:0:0:
256,192,78559,1,0,0:0:0:0:
256,192,78735,1,8,0:0:0:0:
256,192,78824,1,8,0:0:0:0:
256,192,78912,1,0,0:0:0:0:
256,192,79088,1,12,0:0:0:0:
256,192,79441,1,8,0:0:0:0:
256,192,79618,1,0,0:0:0:0:
256,192,79706,1,0,0:0:0:0:
256,192,79794,1,8,0:0:0:0:
256,192,79971,1,0,0:0:0:0:
256,192,80147,1,8,0:0:0:0:
256,192,80500,1,0,0:0:0:0:
256,192,80853,1,8,0:0:0:0:
256,192,81029,1,8,0:0:0:0:
256,192,81118,1,8,0:0:0:0:
256,192,81206,1,0,0:0:0:0:
256,192,81382,1,0,0:0:0:0:
256,192,81559,1,8,0:0:0:0:
256,192,81647,1,8,0:0:0:0:
256,192,81735,1,8,0:0:0:0:
256,192,81824,1,0,0:0:0:0:
256,192,81912,1,0,0:0:0:0:
256,192,82265,1,8,0:0:0:0:
256,192,82618,1,0,0:0:0:0:
256,192,82794,1,0,0:0:0:0:
256,192,82882,1,0,0:0:0:0:
256,192,82971,1,8,0:0:0:0:
256,192,83147,1,8,0:0:0:0:
256,192,83324,1,8,0:0:0:0:
256,192,83500,1,0,0:0:0:0:
256,192,83588,1,0,0:0:0:0:
256,192,83677,1,8,0:0:0:0:
256,192,83853,1,8,0:0:0:0:
256,192,84029,1,0,0:0:0:0:
256,192,84206,1,8,0:0:0:0:
256,192,84382,1,8,0:0:0:0:
256,192,84471,1,8,0:0:0:0:
256,192,84559,1,0,0:0:0:0:
256,192,84735,1,12,0:0:0:0:
256,192,85088,1,8,0:0:0:0:
256,192,85441,1,8,0:0:0:0:
256,192,85618,1,0,0:0:0:0:
256,192,85706,1,0,0:0:0:0:
256,192,85794,1,8,0:0:0:0:
256,192,86147,1,4,0:0:0:0:
256,192,86500,1,8,0:0:0:0:
256,192,86677,1,0,0:0:0:0:
256,192,86853,1,8,0:0:0:0:
256,192,86941,1,8,0:0:0:0:
256,192,87029,1,0,0:0:0:0:
256,192,87206,1,8,0:0:0:0:
256,192,87382,1,8,0:0:0:0:
256,192,87912,12,0,88971,0:0:0:0:
256,192,90382,5,4,0:0:0:0:
256,192,90559,12,0,96029,0:0:0:0:
256,192,112618,5,8,0:0:0:0:
256,192,112971,5,4,0:0:0:0:
256,192,113324,1,0,0:0:0:0:
256,192,113588,1,8,0:0:0:0:
256,192,113853,1,0,0:0:0:0:
256,192,114206,1,8,0:0:0:0:
256,192,114735,1,0,0:0:0:0:
256,192,115000,1,8,0:0:0:0:
256,192,115265,1,0,0:0:0:0:
256,192,115618,1,8,0:0:0:0:
256,192,115794,1,8,0:0:0:0:
256,192,116147,1,0,0:0:0:0:
256,192,116412,1,8,0:0:0:0:
256,192,116677,1,0,0:0:0:0:
256,192,117029,1,8,0:0:0:0:
256,192,117559,1,0,0:0:0:0:
256,192,117824,1,8,0:0:0:0:
256,192,118088,1,0,0:0:0:0:
256,192,118441,1,8,0:0:0:0:
256,192,118618,1,0,0:0:0:0:
256,192,118971,1,8,0:0:0:0:
256,192,119235,1,0,0:0:0:0:
256,192,119500,1,8,0:0:0:0:
256,192,119853,1,8,0:0:0:0:
256,192,120029,1,0,0:0:0:0:
256,192,120382,1,8,0:0:0:0:
256,192,120647,1,0,0:0:0:0:
256,192,120912,1,8,0:0:0:0:
256,192,121265,1,8,0:0:0:0:
256,192,121441,1,8,0:0:0:0:
256,192,121794,1,0,0:0:0:0:
256,192,122059,1,8,0:0:0:0:
256,192,122324,1,0,0:0:0:0:
256,192,122677,1,8,0:0:0:0:
256,192,122853,1,8,0:0:0:0:
256,192,123206,1,0,0:0:0:0:
256,192,123471,1,8,0:0:0:0:
256,192,123735,1,0,0:0:0:0:
256,192,124088,1,8,0:0:0:0:
256,192,124265,1,4,0:0:0:0:
256,192,124529,1,0,0:0:0:0:
256,192,124794,1,8,0:0:0:0:
256,192,124971,1,8,0:0:0:0:
256,192,125235,1,0,0:0:0:0:
256,192,125500,1,8,0:0:0:0:
256,192,125677,1,8,0:0:0:0:
256,192,125853,1,0,0:0:0:0:
256,192,126029,1,8,0:0:0:0:
256,192,126206,1,8,0:0:0:0:
256,192,126382,1,8,0:0:0:0:
256,192,126647,1,0,0:0:0:0:
256,192,126912,1,8,0:0:0:0:
256,192,127000,1,8,0:0:0:0:
256,192,127088,1,8,0:0:0:0:
256,192,127353,1,0,0:0:0:0:
256,192,127618,1,8,0:0:0:0:
256,192,127794,1,8,0:0:0:0:
256,192,128059,1,0,0:0:0:0:
256,192,128324,1,8,0:0:0:0:
256,192,128500,1,8,0:0:0:0:
256,192,128677,1,0,0:0:0:0:
256,192,128853,1,8,0:0:0:0:
256,192,129029,1,8,0:0:0:0:
256,192,129206,1,8,0:0:0:0:
256,192,129382,1,0,0:0:0:0:
256,192,129471,1,8,0:0:0:0:
256,192,129735,1,8,0:0:0:0:
256,192,129912,1,4,0:0:0:0:
256,192,130265,1,8,0:0:0:0:
256,192,130441,1,0,0:0:0:0:
256,192,130618,1,8,0:0:0:0:
256,192,130706,1,8,0:0:0:0:
256,192,130794,1,0,0:0:0:0:
256,192,130882,1,0,0:0:0:0:
256,192,130971,1,8,0:0:0:0:
256,192,131147,1,8,0:0:0:0:
256,192,131324,1,0,0:0:0:0:
256,192,131412,1,0,0:0:0:0:
256,192,131500,1,0,0:0:0:0:
256,192,131677,1,8,0:0:0:0:
256,192,131853,1,0,0:0:0:0:
256,192,132029,1,8,0:0:0:0:
256,192,132118,1,8,0:0:0:0:
256,192,132206,1,0,0:0:0:0:
256,192,132382,1,8,0:0:0:0:
256,192,132735,1,4,0:0:0:0:
256,192,133088,1,12,0:0:0:0:
256,192,133265,1,12,0:0:0:0:
256,192,133618,1,12,0:0:0:0:
256,192,133971,1,4,0:0:0:0:
256,192,134853,1,8,0:0:0:0:
256,192,135029,1,0,0:0:0:0:
256,192,135118,1,0,0:0:0:0:
256,192,135206,1,0,0:0:0:0:
256,192,135294,1,0,0:0:0:0:
256,192,135382,1,8,0:0:0:0:
256,192,135559,1,4,0:0:0:0:
256,192,135912,1,8,0:0:0:0:
256,192,136265,1,0,0:0:0:0:
256,192,136441,1,0,0:0:0:0:
256,192,136529,1,0,0:0:0:0:
256,192,136618,1,8,0:0:0:0:
256,192,136794,1,8,0:0:0:0:
256,192,137147,1,0,0:0:0:0:
256,192,137324,1,8,0:0:0:0:
256,192,137500,1,8,0:0:0:0:
256,192,137588,1,8,0:0:0:0:
256,192,137677,1,0,0:0:0:0:
256,192,137853,1,0,0:0:0:0:
256,192,138029,1,8,0:0:0:0:
256,192,138206,1,0,0:0:0:0:
256,192,138294,1,0,0:0:0:0:
256,192,138382,1,8,0:0:0:0:
256,192,138559,1,0,0:0:0:0:
256,192,138647,1,0,0:0:0:0:
256,192,138735,1,8,0:0:0:0:
256,192,138912,1,0,0:0:0:0:
256,192,139265,1,0,0:0:0:0:
256,192,139441,1,8,0:0:0:0:
256,192,139529,1,8,0:0:0:0:
256,192,139618,1,0,0:0:0:0:
256,192,139794,1,8,0:0:0:0:
256,192,139971,1,0,0:0:0:0:
256,192,140059,1,0,0:0:0:0:
256,192,140147,1,8,0:0:0:0:
256,192,140324,1,0,0:0:0:0:
256,192,140677,1,0,0:0:0:0:
256,192,140853,1,8,0:0:0:0:
256,192,141206,1,0,0:0:0:0:
256,192,141559,1,8,0:0:0:0:
256,192,141912,1,0,0:0:0:0:
256,192,142088,1,0,0:0:0:0:
256,192,142177,1,0,0:0:0:0:
256,192,142265,1,8,0:0:0:0:
256,192,142441,1,0,0:0:0:0:
256,192,142794,1,0,0:0:0:0:
256,192,142971,1,8,0:0:0:0:
256,192,143147,1,8,0:0:0:0:
256,192,143235,1,8,0:0:0:0:
256,192,143324,1,0,0:0:0:0:
256,192,143500,1,0,0:0:0:0:
256,192,143588,1,0,0:0:0:0:
256,192,143677,1,8,0:0:0:0:
256,192,143853,1,0,0:0:0:0:
256,192,144206,1,0,0:0:0:0:
256,192,144382,1,8,0:0:0:0:
256,192,144471,1,0,0:0:0:0:
256,192,144559,1,8,0:0:0:0:
256,192,144735,1,0,0:0:0:0:
256,192,144912,1,0,0:0:0:0:
256,192,145000,1,0,0:0:0:0:
256,192,145088,1,8,0:0:0:0:
256,192,145265,1,0,0:0:0:0:
256,192,145618,1,0,0:0:0:0:
256,192,145794,1,8,0:0:0:0:
256,192,146147,1,0,0:0:0:0:
256,192,146324,1,0,0:0:0:0:
256,192,146412,1,0,0:0:0:0:
256,192,146500,1,8,0:0:0:0:
256,192,146853,1,4,0:0:0:0:
256,192,147206,1,8,0:0:0:0:
256,192,147559,1,0,0:0:0:0:
256,192,147735,1,0,0:0:0:0:
256,192,147824,1,0,0:0:0:0:
256,192,147912,1,8,0:0:0:0:
256,192,148088,1,8,0:0:0:0:
256,192,148441,1,0,0:0:0:0:
256,192,148529,1,0,0:0:0:0:
256,192,148618,1,8,0:0:0:0:
256,192,148794,1,8,0:0:0:0:
256,192,148882,1,8,0:0:0:0:
256,192,148971,1,0,0:0:0:0:
256,192,149147,1,0,0:0:0:0:
256,192,149324,1,8,0:0:0:0:
256,192,149677,1,8,0:0:0:0:
256,192,149853,1,0,0:0:0:0:
256,192,149941,1,0,0:0:0:0:
256,192,150029,1,8,0:0:0:0:
256,192,150206,1,0,0:0:0:0:
256,192,150559,1,0,0:0:0:0:
256,192,150735,1,8,0:0:0:0:
256,192,150824,1,8,0:0:0:0:
256,192,150912,1,0,0:0:0:0:
256,192,151088,1,8,0:0:0:0:
256,192,151265,1,0,0:0:0:0:
256,192,151353,1,0,0:0:0:0:
256,192,151441,1,8,0:0:0:0:
256,192,151618,1,0,0:0:0:0:
256,192,151971,1,0,0:0:0:0:
256,192,152147,1,8,0:0:0:0:
256,192,152500,1,12,0:0:0:0:
256,192,152853,1,0,0:0:0:0:
256,192,153206,1,8,0:0:0:0:
256,192,153382,1,0,0:0:0:0:
256,192,153471,1,0,0:0:0:0:
256,192,153559,1,8,0:0:0:0:
256,192,153735,1,0,0:0:0:0:
256,192,153912,1,12,0:0:0:0:
256,192,154265,1,8,0:0:0:0:
256,192,154441,1,8,0:0:0:0:
256,192,154529,1,8,0:0:0:0:
256,192,154618,1,0,0:0:0:0:
256,192,154794,1,0,0:0:0:0:
256,192,154971,1,8,0:0:0:0:
256,192,155147,1,8,0:0:0:0:
256,192,155324,1,4,0:0:0:0:
256,192,155853,1,8,0:0:0:0:
256,192,156382,1,8,0:0:0:0:
256,192,156912,1,8,0:0:0:0:
256,192,157441,1,8,0:0:0:0:
256,192,157617,1,8,0:0:0:0:
256,192,157793,1,0,0:0:0:0:
256,192,157881,1,0,0:0:0:0:
256,192,157970,1,0,0:0:0:0:
256,192,158147,5,12,0:0:0:0:
256,192,158500,1,8,0:0:0:0:
256,192,158677,1,0,0:0:0:0:
256,192,158765,1,0,0:0:0:0:
256,192,158853,1,8,0:0:0:0:
256,192,159029,1,0,0:0:0:0:
256,192,159206,1,8,0:0:0:0:
256,192,159559,1,0,0:0:0:0:
256,192,159912,1,8,0:0:0:0:
256,192,160088,1,8,0:0:0:0:
256,192,160177,1,8,0:0:0:0:
256,192,160265,1,0,0:0:0:0:
256,192,160441,1,0,0:0:0:0:
256,192,160618,1,8,0:0:0:0:
256,192,160706,1,8,0:0:0:0:
256,192,160794,1,8,0:0:0:0:
256,192,160882,1,0,0:0:0:0:
256,192,160971,1,0,0:0:0:0:
256,192,161324,1,8,0:0:0:0:
256,192,161677,1,0,0:0:0:0:
256,192,161853,1,0,0:0:0:0:
256,192,161941,1,0,0:0:0:0:
256,192,162029,1,8,0:0:0:0:
256,192,162206,1,8,0:0:0:0:
256,192,162382,1,8,0:0:0:0:
256,192,162559,1,0,0:0:0:0:
256,192,162647,1,0,0:0:0:0:
256,192,162735,1,8,0:0:0:0:
256,192,162912,1,0,0:0:0:0:
256,192,163265,1,8,0:0:0:0:
256,192,163618,1,8,0:0:0:0:
256,192,163794,1,0,0:0:0:0:
256,192,164147,1,8,0:0:0:0:
256,192,164324,1,0,0:0:0:0:
256,192,164412,1,0,0:0:0:0:
256,192,164500,1,8,0:0:0:0:
256,192,164677,1,0,0:0:0:0:
256,192,164853,1,8,0:0:0:0:
256,192,165206,1,0,0:0:0:0:
256,192,165559,1,8,0:0:0:0:
256,192,165735,1,0,0:0:0:0:
256,192,165824,1,0,0:0:0:0:
256,192,165912,1,8,0:0:0:0:
256,192,166088,1,0,0:0:0:0:
256,192,166265,1,8,0:0:0:0:
256,192,166353,1,8,0:0:0:0:
256,192,166441,1,0,0:0:0:0:
256,192,166529,1,0,0:0:0:0:
256,192,166618,1,0,0:0:0:0:
256,192,166971,1,8,0:0:0:0:
256,192,167324,1,0,0:0:0:0:
256,192,167500,1,8,0:0:0:0:
256,192,167588,1,0,0:0:0:0:
256,192,167677,1,8,0:0:0:0:
256,192,167853,1,0,0:0:0:0:
256,192,168206,1,0,0:0:0:0:
256,192,168382,1,8,0:0:0:0:
256,192,168735,1,0,0:0:0:0:
256,192,168912,1,0,0:0:0:0:
256,192,169088,1,8,0:0:0:0:
256,192,169177,1,8,0:0:0:0:
256,192,169265,1,0,0:0:0:0:
256,192,169441,1,12,0:0:0:0:
256,192,169794,1,8,0:0:0:0:
256,192,169971,1,0,0:0:0:0:
256,192,170059,1,0,0:0:0:0:
256,192,170147,1,8,0:0:0:0:
256,192,170324,1,0,0:0:0:0:
256,192,170500,1,8,0:0:0:0:
256,192,170853,1,0,0:0:0:0:
256,192,171206,1,8,0:0:0:0:
256,192,171382,1,8,0:0:0:0:
256,192,171471,1,8,0:0:0:0:
256,192,171559,1,0,0:0:0:0:
256,192,171735,1,0,0:0:0:0:
256,192,171912,1,8,0:0:0:0:
256,192,172000,1,8,0:0:0:0:
256,192,172088,1,8,0:0:0:0:
256,192,172177,1,0,0:0:0:0:
256,192,172265,1,0,0:0:0:0:
256,192,172618,1,8,0:0:0:0:
256,192,172971,1,0,0:0:0:0:
256,192,173147,1,0,0:0:0:0:
256,192,173235,1,0,0:0:0:0:
256,192,173324,1,8,0:0:0:0:
256,192,173500,1,8,0:0:0:0:
256,192,173677,1,8,0:0:0:0:
256,192,173853,1,0,0:0:0:0:
256,192,173941,1,0,0:0:0:0:
256,192,174029,1,8,0:0:0:0:
256,192,174206,1,8,0:0:0:0:
256,192,174382,1,0,0:0:0:0:
256,192,174559,1,8,0:0:0:0:
256,192,174735,1,8,0:0:0:0:
256,192,174824,1,8,0:0:0:0:
256,192,174912,1,0,0:0:0:0:
256,192,175088,1,12,0:0:0:0:
256,192,175441,1,8,0:0:0:0:
256,192,175618,1,4,0:0:0:0:
256,192,175971,1,4,0:0:0:0:
256,192,176324,1,4,0:0:0:0:
256,192,176677,12,0,177912,0:0:0:0:
