osu file format v14

[General]
AudioFilename: audio.mp3
AudioLeadIn: 0
PreviewTime: 68059
Countdown: 0
SampleSet: Normal
StackLeniency: 0.7
Mode: 1
LetterboxInBreaks: 0
WidescreenStoryboard: 1

[Editor]
Bookmarks: 30,11324,22618,33912,45206,67794,90382,112971,124265,135559,158147,176500
DistanceSpacing: 0.1
BeatDivisor: 2
GridSize: 32
TimelineZoom: 0.7999998

[Metadata]
Title:astral blast
TitleUnicode:astral blast
Artist:nanobii
ArtistUnicode:nanobii
Creator:Kqrth
Version:Futsuu
Source:osu!
Tags:fa featured artist mappers guild happy hardcore happycore techno
BeatmapID:2064683
BeatmapSetID:946540

[Difficulty]
HPDrainRate:6
CircleSize:5
OverallDifficulty:4
ApproachRate:5
SliderMultiplier:1.4
SliderTickRate:1

[Events]
//Background and Video events
0,0,"bg.jpg",0,105
//Break Periods
2,96229,111771
//Storyboard Layer 0 (Background)
//Storyboard Layer 1 (Fail)
//Storyboard Layer 2 (Pass)
//Storyboard Layer 3 (Foreground)
//Storyboard Sound Samples

[TimingPoints]
30,352.941176470588,4,1,0,70,1,0
30,-111.111111111111,4,1,0,70,0,0
22529,-111.111111111111,4,1,0,80,0,0
45118,-111.111111111111,4,1,0,90,0,0
45206,-111.111111111111,4,1,0,90,0,1
67794,-111.111111111111,4,1,0,90,0,0
68059,-111.111111111111,4,1,0,80,0,0
87824,-111.111111111111,4,1,0,40,0,0
90294,-111.111111111111,4,1,0,70,0,0
90471,-111.111111111111,4,1,0,30,0,0
96118,-111.111111111111,4,1,0,5,0,0
112529,-111.111111111111,4,1,0,70,0,0
129824,-111.111111111111,4,1,0,80,0,0
134765,-111.111111111111,4,1,0,70,0,0
135471,-111.111111111111,4,1,0,90,0,0
135559,-111.111111111111,4,1,0,90,0,1
158147,-111.111111111111,4,1,0,90,0,0
158412,-111.111111111111,4,1,0,80,0,0
176588,-111.111111111111,4,1,0,40,0,0

[HitObjects]
256,192,11324,5,0,0:0:0:0:
256,192,11677,1,0,0:0:0:0:
256,192,12029,1,8,0:0:0:0:
256,192,12382,1,8,0:0:0:0:
256,192,12559,1,0,0:0:0:0:
256,192,13088,1,8,0:0:0:0:
256,192,13441,1,0,0:0:0:0:
256,192,13794,1,8,0:0:0:0:
256,192,14147,1,8,0:0:0:0:
256,192,14677,1,0,0:0:0:0:
256,192,15206,1,8,0:0:0:0:
256,192,15559,1,8,0:0:0:0:
256,192,16088,1,0,0:0:0:0:
256,192,16971,1,8,0:0:0:0:
256,192,17324,1,8,0:0:0:0:
256,192,17677,1,8,0:0:0:0:
256,192,17853,1,8,0:0:0:0:
256,192,18029,1,8,0:0:0:0:
256,192,18206,1,0,0:0:0:0:
256,192,18559,1,8,0:0:0:0:
256,192,18912,1,0,0:0:0:0:
256,192,19265,1,8,0:0:0:0:
256,192,19618,1,0,0:0:0:0:
256,192,19971,12,0,21912,0:0:0:0:
256,192,22618,5,4,0:0:0:0:
256,192,22971,1,0,0:0:0:0:
256,192,23324,1,8,0:0:0:0:
256,192,23677,1,8,0:0:0:0:
256,192,23853,1,0,0:0:0:0:
256,192,24382,1,8,0:0:0:0:
256,192,24735,1,0,0:0:0:0:
256,192,25088,1,8,0:0:0:0:
256,192,25441,1,8,0:0:0:0:
256,192,25971,1,0,0:0:0:0:
256,192,26500,1,8,0:0:0:0:
256,192,26853,1,8,0:0:0:0:
256,192,27382,1,0,0:0:0:0:
256,192,28265,1,0,0:0:0:0:
256,192,28618,1,0,0:0:0:0:
256,192,28971,1,8,0:0:0:0:
256,192,29500,1,0,0:0:0:0:
256,192,30029,1,8,0:0:0:0:
256,192,30382,1,0,0:0:0:0:
256,192,30735,1,8,0:0:0:0:
256,192,30912,1,0,0:0:0:0:
256,192,31441,1,8,0:0:0:0:
256,192,31794,1,0,0:0:0:0:
256,192,32324,1,8,0:0:0:0:
256,192,32853,1,8,0:0:0:0:
256,192,33029,1,0,0:0:0:0:
256,192,33912,1,12,0:0:0:0:
256,192,34441,1,8,0:0:0:0:
256,192,34971,1,8,0:0:0:0:
256,192,35235,1,8,0:0:0:0:
256,192,35500,1,8,0:0:0:0:
256,192,36029,1,8,0:0:0:0:
256,192,36735,1,8,0:0:0:0:
256,192,37265,1,8,0:0:0:0:
256,192,37794,1,8,0:0:0:0:
256,192,38059,1,8,0:0:0:0:
256,192,38324,1,8,0:0:0:0:
256,192,38853,1,0,0:0:0:0:
256,192,39029,1,0,0:0:0:0:
256,192,39206,1,0,0:0:0:0:
256,192,39382,1,0,0:0:0:0:
256,192,39559,1,8,0:0:0:0:
256,192,39912,1,8,0:0:0:0:
256,192,40265,1,8,0:0:0:0:
256,192,40441,1,8,0:0:0:0:
256,192,40618,1,8,0:0:0:0:
256,192,40794,1,0,0:0:0:0:
256,192,41147,1,8,0:0:0:0:
256,192,41500,1,0,0:0:0:0:
256,192,41853,1,8,0:0:0:0:
256,192,42206,12,0,43794,0:0:0:0:
256,192,45206,5,4,0:0:0:0:
256,192,45559,1,8,0:0:0:0:
256,192,45912,1,0,0:0:0:0:
256,192,46265,1,8,0:0:0:0:
256,192,46441,1,8,0:0:0:0:
256,192,46794,1,0,0:0:0:0:
256,192,46971,1,8,0:0:0:0:
256,192,47324,1,0,0:0:0:0:
256,192,47500,1,0,0:0:0:0:
256,192,47677,1,8,0:0:0:0:
256,192,48029,1,0,0:0:0:0:
256,192,48382,1,8,0:0:0:0:
256,192,48559,1,0,0:0:0:0:
256,192,49088,1,8,0:0:0:0:
256,192,49441,1,8,0:0:0:0:
256,192,49794,1,8,0:0:0:0:
256,192,49971,1,0,0:0:0:0:
256,192,50853,1,0,0:0:0:0:
256,192,51206,1,8,0:0:0:0:
256,192,51559,1,0,0:0:0:0:
256,192,51735,1,8,0:0:0:0:
256,192,51912,1,8,0:0:0:0:
256,192,52088,1,0,0:0:0:0:
256,192,52618,1,8,0:0:0:0:
256,192,52971,1,0,0:0:0:0:
256,192,53147,1,0,0:0:0:0:
256,192,53324,1,8,0:0:0:0:
256,192,53500,1,0,0:0:0:0:
256,192,54029,1,8,0:0:0:0:
256,192,54382,1,8,0:0:0:0:
256,192,54735,1,8,0:0:0:0:
256,192,54912,1,0,0:0:0:0:
256,192,55441,1,8,0:0:0:0:
256,192,56147,1,8,0:0:0:0:
256,192,56500,1,4,0:0:0:0:
256,192,56853,1,8,0:0:0:0:
256,192,57206,1,0,0:0:0:0:
256,192,57382,1,0,0:0:0:0:
256,192,57559,1,8,0:0:0:0:
256,192,57735,1,8,0:0:0:0:
256,192,58088,1,0,0:0:0:0:
256,192,58265,1,8,0:0:0:0:
256,192,58618,1,0,0:0:0:0:
256,192,58794,1,0,0:0:0:0:
256,192,58971,1,8,0:0:0:0:
256,192,59324,1,0,0:0:0:0:
256,192,59677,1,8,0:0:0:0:
256,192,59853,1,0,0:0:0:0:
256,192,60382,1,8,0:0:0:0:
256,192,60735,1,8,0:0:0:0:
256,192,61088,1,8,0:0:0:0:
256,192,61265,1,0,0:0:0:0:
256,192,62147,1,4,0:0:0:0:
256,192,62500,1,8,0:0:0:0:
256,192,62853,1,0,0:0:0:0:
256,192,63206,1,8,0:0:0:0:
256,192,63382,1,0,0:0:0:0:
256,192,63559,1,12,0:0:0:0:
256,192,63912,1,8,0:0:0:0:
256,192,64265,1,0,0:0:0:0:
256,192,64618,1,0,0:0:0:0:
256,192,64794,1,8,0:0:0:0:
256,192,64971,1,4,0:0:0:0:
256,192,65324,12,0,67088,0:0:0:0:
256,192,67794,5,4,0:0:0:0:
256,192,68147,1,8,0:0:0:0:
256,192,68500,1,8,0:0:0:0:
256,192,68677,1,0,0:0:0:0:
256,192,68853,1,8,0:0:0:0:
256,192,69559,1,8,0:0:0:0:
256,192,69912,1,0,0:0:0:0:
256,192,70088,1,0,0:0:0:0:
256,192,70265,1,8,0:0:0:0:
256,192,70618,1,0,0:0:0:0:
256,192,70971,1,8,0:0:0:0:
256,192,71677,1,8,0:0:0:0:
256,192,71853,1,0,0:0:0:0:
256,192,72029,1,0,0:0:0:0:
256,192,72382,1,8,0:0:0:0:
256,192,72559,1,0,0:0:0:0:
256,192,72912,1,8,0:0:0:0:
256,192,73265,1,8,0:0:0:0:
256,192,74147,1,8,0:0:0:0:
256,192,74500,1,8,0:0:0:0:
256,192,74677,1,0,0:0:0:0:
256,192,74853,1,8,0:0:0:0:
256,192,75206,1,8,0:0:0:0:
256,192,75559,1,0,0:0:0:0:
256,192,75912,1,8,0:0:0:0:
256,192,76088,1,8,0:0:0:0:
256,192,76618,1,8,0:0:0:0:
256,192,77147,1,8,0:0:0:0:
256,192,77324,1,8,0:0:0:0:
256,192,77500,1,0,0:0:0:0:
256,192,77853,1,0,0:0:0:0:
256,192,78029,1,8,0:0:0:0:
256,192,78735,1,8,0:0:0:0:
256,192,79088,1,4,0:0:0:0:
256,192,79441,1,8,0:0:0:0:
256,192,79794,1,8,0:0:0:0:
256,192,79971,1,0,0:0:0:0:
256,192,80147,1,8,0:0:0:0:
256,192,80853,1,8,0:0:0:0:
256,192,81206,1,0,0:0:0:0:
256,192,81382,1,0,0:0:0:0:
256,192,81559,1,8,0:0:0:0:
256,192,81912,1,0,0:0:0:0:
256,192,82265,1,8,0:0:0:0:
256,192,82971,1,8,0:0:0:0:
256,192,83147,1,8,0:0:0:0:
256,192,83324,1,8,0:0:0:0:
256,192,83677,1,8,0:0:0:0:
256,192,83853,1,0,0:0:0:0:
256,192,84206,1,8,0:0:0:0:
256,192,84735,1,4,0:0:0:0:
256,192,85441,1,8,0:0:0:0:
256,192,85794,1,8,0:0:0:0:
256,192,86147,1,4,0:0:0:0:
256,192,86500,1,8,0:0:0:0:
256,192,86853,1,0,0:0:0:0:
256,192,87206,1,8,0:0:0:0:
256,192,87382,1,0,0:0:0:0:
256,192,87912,12,8,88971,0:0:0:0:
256,192,90382,5,4,0:0:0:0:
256,192,90559,12,0,96029,0:0:0:0:
256,192,112971,5,4,0:0:0:0:
256,192,113588,1,8,0:0:0:0:
256,192,113853,1,8,0:0:0:0:
256,192,114382,1,0,0:0:0:0:
256,192,115000,1,8,0:0:0:0:
256,192,115265,1,8,0:0:0:0:
256,192,115794,1,0,0:0:0:0:
256,192,116412,1,8,0:0:0:0:
256,192,116677,1,8,0:0:0:0:
256,192,117206,5,0,0:0:0:0:
256,192,117824,1,8,0:0:0:0:
256,192,118088,1,8,0:0:0:0:
256,192,118618,1,8,0:0:0:0:
256,192,119235,1,0,0:0:0:0:
256,192,119500,1,0,0:0:0:0:
256,192,120029,1,8,0:0:0:0:
256,192,120647,1,0,0:0:0:0:
256,192,120912,1,0,0:0:0:0:
256,192,121441,1,0,0:0:0:0:
256,192,122059,1,8,0:0:0:0:
256,192,122324,1,8,0:0:0:0:
256,192,122853,1,0,0:0:0:0:
256,192,124265,1,4,0:0:0:0:
256,192,124618,1,0,0:0:0:0:
256,192,124971,1,8,0:0:0:0:
256,192,125324,1,8,0:0:0:0:
256,192,125500,1,8,0:0:0:0:
256,192,125853,1,0,0:0:0:0:
256,192,126029,1,8,0:0:0:0:
256,192,126206,1,0,0:0:0:0:
256,192,126382,1,8,0:0:0:0:
256,192,126735,1,8,0:0:0:0:
256,192,127088,1,8,0:0:0:0:
256,192,127441,1,8,0:0:0:0:
256,192,127618,1,0,0:0:0:0:
256,192,128147,1,8,0:0:0:0:
256,192,128500,1,8,0:0:0:0:
256,192,128677,1,0,0:0:0:0:
256,192,128853,1,8,0:0:0:0:
256,192,129029,1,0,0:0:0:0:
256,192,129912,1,4,0:0:0:0:
256,192,130265,1,8,0:0:0:0:
256,192,130618,1,0,0:0:0:0:
256,192,130971,1,8,0:0:0:0:
256,192,131147,1,0,0:0:0:0:
256,192,131677,1,8,0:0:0:0:
256,192,132029,1,0,0:0:0:0:
256,192,132382,1,8,0:0:0:0:
256,192,132735,5,4,0:0:0:0:
256,192,133088,1,12,0:0:0:0:
256,192,133265,1,12,0:0:0:0:
256,192,133618,1,12,0:0:0:0:
256,192,133971,1,4,0:0:0:0:
256,192,135559,5,4,0:0:0:0:
256,192,135912,1,8,0:0:0:0:
256,192,136265,1,0,0:0:0:0:
256,192,136618,1,8,0:0:0:0:
256,192,136794,1,8,0:0:0:0:
256,192,137147,1,0,0:0:0:0:
256,192,137324,1,8,0:0:0:0:
256,192,137677,1,0,0:0:0:0:
256,192,137853,1,0,0:0:0:0:
256,192,138030,1,8,0:0:0:0:
256,192,138382,1,0,0:0:0:0:
256,192,138735,1,8,0:0:0:0:
256,192,138912,1,0,0:0:0:0:
256,192,139441,1,8,0:0:0:0:
256,192,139794,1,8,0:0:0:0:
256,192,140147,1,8,0:0:0:0:
256,192,140324,1,0,0:0:0:0:
256,192,141206,1,0,0:0:0:0:
256,192,141559,1,8,0:0:0:0:
256,192,141912,1,0,0:0:0:0:
256,192,142088,1,8,0:0:0:0:
256,192,142265,1,8,0:0:0:0:
256,192,142441,1,0,0:0:0:0:
256,192,142971,1,8,0:0:0:0:
256,192,143324,1,0,0:0:0:0:
256,192,143500,1,0,0:0:0:0:
256,192,143677,1,8,0:0:0:0:
256,192,143853,1,0,0:0:0:0:
256,192,144382,1,8,0:0:0:0:
256,192,144735,1,8,0:0:0:0:
256,192,145088,1,8,0:0:0:0:
256,192,145265,1,0,0:0:0:0:
256,192,145794,1,8,0:0:0:0:
256,192,146500,1,8,0:0:0:0:
256,192,146853,1,4,0:0:0:0:
256,192,147206,1,8,0:0:0:0:
256,192,147559,1,0,0:0:0:0:
256,192,147735,1,0,0:0:0:0:
256,192,147912,1,8,0:0:0:0:
256,192,148088,1,8,0:0:0:0:
256,192,148441,1,0,0:0:0:0:
256,192,148618,1,8,0:0:0:0:
256,192,148971,1,0,0:0:0:0:
256,192,149147,1,0,0:0:0:0:
256,192,149324,1,8,0:0:0:0:
256,192,149677,1,0,0:0:0:0:
256,192,150030,1,8,0:0:0:0:
256,192,150206,1,0,0:0:0:0:
256,192,150735,1,8,0:0:0:0:
256,192,151088,1,8,0:0:0:0:
256,192,151441,1,8,0:0:0:0:
256,192,151618,1,0,0:0:0:0:
256,192,152500,1,4,0:0:0:0:
256,192,152853,1,8,0:0:0:0:
256,192,153206,1,0,0:0:0:0:
256,192,153559,1,8,0:0:0:0:
256,192,153735,1,0,0:0:0:0:
256,192,153912,1,12,0:0:0:0:
256,192,154265,1,8,0:0:0:0:
256,192,154618,1,0,0:0:0:0:
256,192,154971,1,0,0:0:0:0:
256,192,155147,1,8,0:0:0:0:
256,192,155324,1,4,0:0:0:0:
256,192,155853,1,8,0:0:0:0:
256,192,156382,1,8,0:0:0:0:
256,192,156912,1,8,0:0:0:0:
256,192,157441,1,8,0:0:0:0:
256,192,158147,5,4,0:0:0:0:
256,192,158500,1,8,0:0:0:0:
256,192,158853,1,8,0:0:0:0:
256,192,159029,1,0,0:0:0:0:
256,192,159206,1,8,0:0:0:0:
256,192,159912,1,8,0:0:0:0:
256,192,160265,1,0,0:0:0:0:
256,192,160441,1,0,0:0:0:0:
256,192,160618,1,8,0:0:0:0:
256,192,160971,1,0,0:0:0:0:
256,192,161324,1,8,0:0:0:0:
256,192,162029,1,8,0:0:0:0:
256,192,162206,1,0,0:0:0:0:
256,192,162382,1,0,0:0:0:0:
256,192,162735,1,8,0:0:0:0:
256,192,162912,1,0,0:0:0:0:
256,192,163265,1,8,0:0:0:0:
256,192,163618,1,8,0:0:0:0:
256,192,164500,1,8,0:0:0:0:
256,192,164853,1,8,0:0:0:0:
256,192,165029,1,0,0:0:0:0:
256,192,165206,1,8,0:0:0:0:
256,192,165559,1,8,0:0:0:0:
256,192,165912,1,0,0:0:0:0:
256,192,166265,1,8,0:0:0:0:
256,192,166441,1,8,0:0:0:0:
256,192,166971,1,8,0:0:0:0:
256,192,167500,1,8,0:0:0:0:
256,192,167677,1,8,0:0:0:0:
256,192,167853,1,0,0:0:0:0:
256,192,168206,1,0,0:0:0:0:
256,192,168382,1,8,0:0:0:0:
256,192,168912,1,0,0:0:0:0:
256,192,169088,1,8,0:0:0:0:
256,192,169441,1,4,0:0:0:0:
256,192,169794,1,8,0:0:0:0:
256,192,170147,1,8,0:0:0:0:
256,192,170324,1,0,0:0:0:0:
256,192,170500,1,8,0:0:0:0:
256,192,171206,1,8,0:0:0:0:
256,192,171559,1,0,0:0:0:0:
256,192,171735,1,0,0:0:0:0:
256,192,171912,1,8,0:0:0:0:
256,192,172265,1,0,0:0:0:0:
256,192,172618,1,8,0:0:0:0:
256,192,173324,1,8,0:0:0:0:
256,192,173500,1,8,0:0:0:0:
256,192,173677,1,8,0:0:0:0:
256,192,174029,1,8,0:0:0:0:
256,192,174206,1,0,0:0:0:0:
256,192,174559,1,8,0:0:0:0:
256,192,175088,1,12,0:0:0:0:
256,192,175618,1,4,0:0:0:0:
256,192,175971,1,4,0:0:0:0:
256,192,176324,1,4,0:0:0:0:
256,192,176677,12,0,177912,0:0:0:0:
