osu file format v14

[General]
AudioFilename: rr185.mp3
AudioLeadIn: 0
PreviewTime: 97297
Countdown: 0
SampleSet: Soft
StackLeniency: 0.7
Mode: 3
LetterboxInBreaks: 0
SpecialStyle: 0
WidescreenStoryboard: 0

[Editor]
DistanceSpacing: 0.9
BeatDivisor: 4
GridSize: 8
TimelineZoom: 2

[Metadata]
Title:Rainbow Road (STAMINA KILLER CUT) (150-185BPM)
TitleUnicode:Rainbow Road (STAMINA KILLER CUT) (150-185BPM)
Artist:nanobii
ArtistUnicode:nanobii
Creator:Worms
Version:185BPM 4K Handstream
Source:
Tags:monstercat 016 expedition happy hardcore
BeatmapID:2079631
BeatmapSetID:994633

[Difficulty]
HPDrainRate:9
CircleSize:4
OverallDifficulty:9
ApproachRate:5
SliderMultiplier:1.4
SliderTickRate:1

[Events]
//Background and Video events
0,0,"prime_world-wallpaper-1366x768.jpg",0,0
//Break Periods
//Storyboard Layer 0 (Background)
//Storyboard Layer 1 (Fail)
//Storyboard Layer 2 (Pass)
//Storyboard Layer 3 (Foreground)
//Storyboard Sound Samples

[TimingPoints]
0,324.3243,4,2,0,5,1,0

[HitObjects]
448,192,5189,5,0,0:0:0:0:
192,192,5189,1,0,0:0:0:0:
64,192,5189,1,0,0:0:0:0:
320,192,5270,1,0,0:0:0:0:
64,192,5351,1,0,0:0:0:0:
448,192,5351,1,0,0:0:0:0:
192,192,5432,1,0,0:0:0:0:
64,192,5513,1,0,0:0:0:0:
448,192,5513,1,0,0:0:0:0:
320,192,5513,1,0,0:0:0:0:
192,192,5594,1,0,0:0:0:0:
320,192,5675,1,0,0:0:0:0:
64,192,5675,1,0,0:0:0:0:
448,192,5756,1,0,0:0:0:0:
320,192,5837,1,0,0:0:0:0:
192,192,5837,1,0,0:0:0:0:
64,192,5837,1,0,0:0:0:0:
448,192,5918,1,0,0:0:0:0:
192,192,5999,1,0,0:0:0:0:
320,192,5999,1,0,0:0:0:0:
64,192,6081,1,0,0:0:0:0:
192,192,6162,1,0,0:0:0:0:
320,192,6162,1,0,0:0:0:0:
448,192,6162,1,0,0:0:0:0:
64,192,6243,1,0,0:0:0:0:
192,192,6324,1,0,0:0:0:0:
448,192,6324,1,0,0:0:0:0:
320,192,6405,1,0,0:0:0:0:
192,192,6486,1,0,0:0:0:0:
448,192,6486,1,0,0:0:0:0:
64,192,6486,1,0,0:0:0:0:
320,192,6567,1,0,0:0:0:0:
192,192,6648,1,0,0:0:0:0:
64,192,6648,1,0,0:0:0:0:
448,192,6729,1,0,0:0:0:0:
320,192,6810,1,0,0:0:0:0:
192,192,6810,1,0,0:0:0:0:
64,192,6810,1,0,0:0:0:0:
448,192,6891,1,0,0:0:0:0:
320,192,6972,1,0,0:0:0:0:
64,192,6972,1,0,0:0:0:0:
192,192,7054,1,0,0:0:0:0:
320,192,7135,1,0,0:0:0:0:
64,192,7135,1,0,0:0:0:0:
448,192,7135,1,0,0:0:0:0:
192,192,7216,1,0,0:0:0:0:
448,192,7297,1,0,0:0:0:0:
320,192,7297,1,0,0:0:0:0:
64,192,7378,1,0,0:0:0:0:
192,192,7459,1,0,0:0:0:0:
448,192,7459,1,0,0:0:0:0:
320,192,7459,1,0,0:0:0:0:
64,192,7540,1,0,0:0:0:0:
192,192,7621,1,0,0:0:0:0:
448,192,7621,1,0,0:0:0:0:
320,192,7702,1,0,0:0:0:0:
192,192,7783,1,0,0:0:0:0:
64,192,7783,1,0,0:0:0:0:
448,192,7783,1,0,0:0:0:0:
320,192,7864,1,0,0:0:0:0:
64,192,7945,1,0,0:0:0:0:
448,192,7945,1,0,0:0:0:0:
192,192,8027,1,0,0:0:0:0:
64,192,8108,1,0,0:0:0:0:
320,192,8108,1,0,0:0:0:0:
448,192,8108,1,0,0:0:0:0:
192,192,8189,1,0,0:0:0:0:
320,192,8270,1,0,0:0:0:0:
64,192,8270,1,0,0:0:0:0:
448,192,8351,1,0,0:0:0:0:
320,192,8432,1,0,0:0:0:0:
192,192,8432,1,0,0:0:0:0:
64,192,8432,1,0,0:0:0:0:
448,192,8513,1,0,0:0:0:0:
192,192,8594,1,0,0:0:0:0:
320,192,8594,1,0,0:0:0:0:
64,192,8675,1,0,0:0:0:0:
192,192,8756,1,0,0:0:0:0:
448,192,8756,1,0,0:0:0:0:
320,192,8756,1,0,0:0:0:0:
64,192,8837,1,0,0:0:0:0:
448,192,8918,1,0,0:0:0:0:
192,192,8918,1,0,0:0:0:0:
320,192,8999,1,0,0:0:0:0:
192,192,9081,1,0,0:0:0:0:
64,192,9081,1,0,0:0:0:0:
448,192,9081,1,0,0:0:0:0:
320,192,9162,1,0,0:0:0:0:
64,192,9243,1,0,0:0:0:0:
448,192,9243,1,0,0:0:0:0:
192,192,9324,1,0,0:0:0:0:
320,192,9405,1,0,0:0:0:0:
64,192,9405,1,0,0:0:0:0:
448,192,9405,1,0,0:0:0:0:
192,192,9486,1,0,0:0:0:0:
320,192,9567,1,0,0:0:0:0:
64,192,9567,1,0,0:0:0:0:
448,192,9648,1,0,0:0:0:0:
192,192,9729,1,0,0:0:0:0:
320,192,9729,1,0,0:0:0:0:
64,192,9729,1,0,0:0:0:0:
448,192,9810,1,0,0:0:0:0:
192,192,9891,1,0,0:0:0:0:
64,192,9891,1,0,0:0:0:0:
320,192,9972,1,0,0:0:0:0:
448,192,10054,1,0,0:0:0:0:
192,192,10054,1,0,0:0:0:0:
64,192,10054,1,0,0:0:0:0:
320,192,10135,1,0,0:0:0:0:
192,192,10216,1,0,0:0:0:0:
448,192,10216,1,0,0:0:0:0:
64,192,10297,1,0,0:0:0:0:
192,192,10378,1,0,0:0:0:0:
320,192,10378,1,0,0:0:0:0:
448,192,10378,1,0,0:0:0:0:
64,192,10459,1,0,0:0:0:0:
320,192,10540,1,0,0:0:0:0:
448,192,10540,1,0,0:0:0:0:
192,192,10621,1,0,0:0:0:0:
64,192,10702,1,0,0:0:0:0:
320,192,10702,1,0,0:0:0:0:
448,192,10702,1,0,0:0:0:0:
192,192,10783,1,0,0:0:0:0:
64,192,10864,1,0,0:0:0:0:
320,192,10864,1,0,0:0:0:0:
448,192,10945,1,0,0:0:0:0:
320,192,11027,1,0,0:0:0:0:
192,192,11027,1,0,0:0:0:0:
64,192,11027,1,0,0:0:0:0:
448,192,11108,1,0,0:0:0:0:
320,192,11189,1,0,0:0:0:0:
192,192,11189,1,0,0:0:0:0:
64,192,11270,1,0,0:0:0:0:
192,192,11351,1,0,0:0:0:0:
320,192,11351,1,0,0:0:0:0:
448,192,11351,1,0,0:0:0:0:
64,192,11432,1,0,0:0:0:0:
192,192,11513,1,0,0:0:0:0:
448,192,11513,1,0,0:0:0:0:
320,192,11594,1,0,0:0:0:0:
192,192,11675,1,0,0:0:0:0:
64,192,11675,1,0,0:0:0:0:
448,192,11675,1,0,0:0:0:0:
320,192,11756,1,0,0:0:0:0:
448,192,11837,1,0,0:0:0:0:
64,192,11837,1,0,0:0:0:0:
192,192,11918,1,0,0:0:0:0:
320,192,11999,1,0,0:0:0:0:
448,192,11999,1,0,0:0:0:0:
64,192,11999,1,0,0:0:0:0:
192,192,12081,1,0,0:0:0:0:
320,192,12162,1,0,0:0:0:0:
64,192,12162,1,0,0:0:0:0:
448,192,12243,1,0,0:0:0:0:
320,192,12324,1,0,0:0:0:0:
192,192,12324,1,0,0:0:0:0:
64,192,12324,1,0,0:0:0:0:
448,192,12405,1,0,0:0:0:0:
192,192,12486,1,0,0:0:0:0:
320,192,12486,1,0,0:0:0:0:
64,192,12567,1,0,0:0:0:0:
192,192,12648,1,0,0:0:0:0:
320,192,12648,1,0,0:0:0:0:
448,192,12648,1,0,0:0:0:0:
64,192,12729,1,0,0:0:0:0:
192,192,12810,1,0,0:0:0:0:
448,192,12810,1,0,0:0:0:0:
320,192,12891,1,0,0:0:0:0:
192,192,12972,1,0,0:0:0:0:
64,192,12972,1,0,0:0:0:0:
448,192,12972,1,0,0:0:0:0:
320,192,13054,1,0,0:0:0:0:
448,192,13135,1,0,0:0:0:0:
64,192,13135,1,0,0:0:0:0:
192,192,13216,1,0,0:0:0:0:
320,192,13297,1,0,0:0:0:0:
64,192,13297,1,0,0:0:0:0:
448,192,13297,1,0,0:0:0:0:
192,192,13378,1,0,0:0:0:0:
320,192,13459,1,0,0:0:0:0:
64,192,13459,1,0,0:0:0:0:
448,192,13540,1,0,0:0:0:0:
320,192,13621,1,0,0:0:0:0:
64,192,13621,1,0,0:0:0:0:
192,192,13621,1,0,0:0:0:0:
448,192,13702,1,0,0:0:0:0:
192,192,13783,1,0,0:0:0:0:
320,192,13783,1,0,0:0:0:0:
64,192,13864,1,0,0:0:0:0:
192,192,13945,1,0,0:0:0:0:
320,192,13945,1,0,0:0:0:0:
448,192,13945,1,0,0:0:0:0:
64,192,14027,1,0,0:0:0:0:
192,192,14108,1,0,0:0:0:0:
448,192,14108,1,0,0:0:0:0:
320,192,14189,1,0,0:0:0:0:
192,192,14270,1,0,0:0:0:0:
64,192,14270,1,0,0:0:0:0:
448,192,14270,1,0,0:0:0:0:
320,192,14351,1,0,0:0:0:0:
192,192,14432,1,0,0:0:0:0:
64,192,14513,1,0,0:0:0:0:
448,192,14594,1,0,0:0:0:0:
192,192,14594,1,0,0:0:0:0:
320,192,14594,1,0,0:0:0:0:
64,192,14675,1,0,0:0:0:0:
192,192,14756,1,0,0:0:0:0:
320,192,14837,1,0,0:0:0:0:
448,192,14918,1,0,0:0:0:0:
320,192,14999,1,0,0:0:0:0:
192,192,15081,1,0,0:0:0:0:
64,192,15081,1,0,0:0:0:0:
448,192,15162,1,0,0:0:0:0:
320,192,15243,1,0,0:0:0:0:
192,192,15243,1,0,0:0:0:0:
64,192,15243,1,0,0:0:0:0:
448,192,15324,1,0,0:0:0:0:
64,192,15405,1,0,0:0:0:0:
192,192,15486,1,0,0:0:0:0:
320,192,15567,1,0,0:0:0:0:
448,192,15567,1,0,0:0:0:0:
64,192,15567,1,0,0:0:0:0:
192,192,15648,1,0,0:0:0:0:
320,192,15729,1,0,0:0:0:0:
448,192,15729,1,0,0:0:0:0:
64,192,15810,1,0,0:0:0:0:
192,192,15891,1,0,0:0:0:0:
320,192,15891,1,0,0:0:0:0:
448,192,15891,1,0,0:0:0:0:
64,192,15972,1,0,0:0:0:0:
320,192,16054,1,0,0:0:0:0:
192,192,16054,1,0,0:0:0:0:
448,192,16135,1,0,0:0:0:0:
320,192,16216,1,0,0:0:0:0:
192,192,16216,1,0,0:0:0:0:
64,192,16216,1,0,0:0:0:0:
448,192,16297,1,0,0:0:0:0:
192,192,16378,1,0,0:0:0:0:
64,192,16378,1,0,0:0:0:0:
320,192,16459,1,0,0:0:0:0:
192,192,16540,1,0,0:0:0:0:
64,192,16540,1,0,0:0:0:0:
448,192,16540,1,0,0:0:0:0:
320,192,16621,1,0,0:0:0:0:
448,192,16702,1,0,0:0:0:0:
64,192,16702,1,0,0:0:0:0:
192,192,16783,1,0,0:0:0:0:
320,192,16864,1,0,0:0:0:0:
448,192,16864,1,0,0:0:0:0:
64,192,16864,1,0,0:0:0:0:
192,192,16945,1,0,0:0:0:0:
320,192,17027,1,0,0:0:0:0:
64,192,17027,1,0,0:0:0:0:
192,192,17108,1,0,0:0:0:0:
320,192,17189,1,0,0:0:0:0:
448,192,17189,1,0,0:0:0:0:
64,192,17189,1,0,0:0:0:0:
192,192,17270,1,0,0:0:0:0:
448,192,17351,1,0,0:0:0:0:
320,192,17351,1,0,0:0:0:0:
64,192,17432,1,0,0:0:0:0:
192,192,17513,1,0,0:0:0:0:
448,192,17513,1,0,0:0:0:0:
320,192,17513,1,0,0:0:0:0:
64,192,17594,1,0,0:0:0:0:
192,192,17675,1,0,0:0:0:0:
448,192,17675,1,0,0:0:0:0:
320,192,17756,1,0,0:0:0:0:
192,192,17837,1,0,0:0:0:0:
64,192,17837,1,0,0:0:0:0:
448,192,17837,1,0,0:0:0:0:
320,192,17918,1,0,0:0:0:0:
64,192,17999,1,0,0:0:0:0:
192,192,17999,1,0,0:0:0:0:
448,192,18081,1,0,0:0:0:0:
320,192,18162,1,0,0:0:0:0:
192,192,18162,1,0,0:0:0:0:
64,192,18162,1,0,0:0:0:0:
448,192,18243,1,0,0:0:0:0:
320,192,18324,1,0,0:0:0:0:
64,192,18324,1,0,0:0:0:0:
448,192,18405,1,0,0:0:0:0:
320,192,18486,1,0,0:0:0:0:
192,192,18486,1,0,0:0:0:0:
64,192,18486,1,0,0:0:0:0:
448,192,18567,1,0,0:0:0:0:
192,192,18648,1,0,0:0:0:0:
320,192,18648,1,0,0:0:0:0:
64,192,18729,1,0,0:0:0:0:
192,192,18810,1,0,0:0:0:0:
448,192,18810,1,0,0:0:0:0:
320,192,18810,1,0,0:0:0:0:
64,192,18891,1,0,0:0:0:0:
192,192,18972,1,0,0:0:0:0:
448,192,18972,1,0,0:0:0:0:
320,192,19054,1,0,0:0:0:0:
448,192,19135,1,0,0:0:0:0:
192,192,19135,1,0,0:0:0:0:
64,192,19135,1,0,0:0:0:0:
320,192,19216,1,0,0:0:0:0:
64,192,19297,1,0,0:0:0:0:
448,192,19297,1,0,0:0:0:0:
192,192,19378,1,0,0:0:0:0:
320,192,19459,1,0,0:0:0:0:
64,192,19459,1,0,0:0:0:0:
448,192,19459,1,0,0:0:0:0:
192,192,19540,1,0,0:0:0:0:
320,192,19621,1,0,0:0:0:0:
64,192,19621,1,0,0:0:0:0:
448,192,19702,1,0,0:0:0:0:
192,192,19783,1,0,0:0:0:0:
320,192,19783,1,0,0:0:0:0:
64,192,19783,1,0,0:0:0:0:
448,192,19864,1,0,0:0:0:0:
192,192,19945,1,0,0:0:0:0:
320,192,19945,1,0,0:0:0:0:
64,192,20027,1,0,0:0:0:0:
192,192,20108,1,0,0:0:0:0:
320,192,20108,1,0,0:0:0:0:
448,192,20108,1,0,0:0:0:0:
64,192,20189,1,0,0:0:0:0:
448,192,20270,1,0,0:0:0:0:
192,192,20270,1,0,0:0:0:0:
320,192,20351,1,0,0:0:0:0:
192,192,20432,1,0,0:0:0:0:
64,192,20432,1,0,0:0:0:0:
448,192,20432,1,0,0:0:0:0:
320,192,20513,1,0,0:0:0:0:
448,192,20594,1,0,0:0:0:0:
64,192,20594,1,0,0:0:0:0:
192,192,20675,1,0,0:0:0:0:
320,192,20756,1,0,0:0:0:0:
448,192,20756,1,0,0:0:0:0:
64,192,20756,1,0,0:0:0:0:
192,192,20837,1,0,0:0:0:0:
320,192,20918,1,0,0:0:0:0:
64,192,20918,1,0,0:0:0:0:
448,192,20999,1,0,0:0:0:0:
320,192,21081,1,0,0:0:0:0:
64,192,21081,1,0,0:0:0:0:
192,192,21081,1,0,0:0:0:0:
448,192,21162,1,0,0:0:0:0:
192,192,21243,1,0,0:0:0:0:
320,192,21243,1,0,0:0:0:0:
64,192,21324,1,0,0:0:0:0:
448,192,21405,1,0,0:0:0:0:
192,192,21405,1,0,0:0:0:0:
320,192,21405,1,0,0:0:0:0:
64,192,21486,1,0,0:0:0:0:
448,192,21567,1,0,0:0:0:0:
192,192,21567,1,0,0:0:0:0:
64,192,21648,1,0,0:0:0:0:
448,192,21729,1,0,0:0:0:0:
192,192,21729,1,0,0:0:0:0:
320,192,21729,1,0,0:0:0:0:
64,192,21810,1,0,0:0:0:0:
320,192,21891,1,0,0:0:0:0:
448,192,21891,1,0,0:0:0:0:
192,192,21972,1,0,0:0:0:0:
320,192,22054,1,0,0:0:0:0:
64,192,22054,1,0,0:0:0:0:
448,192,22054,1,0,0:0:0:0:
192,192,22135,1,0,0:0:0:0:
320,192,22216,1,0,0:0:0:0:
64,192,22216,1,0,0:0:0:0:
448,192,22297,1,0,0:0:0:0:
192,192,22378,1,0,0:0:0:0:
64,192,22378,1,0,0:0:0:0:
320,192,22378,1,0,0:0:0:0:
448,192,22459,1,0,0:0:0:0:
192,192,22540,1,0,0:0:0:0:
64,192,22540,1,0,0:0:0:0:
320,192,22621,1,0,0:0:0:0:
448,192,22702,1,0,0:0:0:0:
192,192,22702,1,0,0:0:0:0:
64,192,22702,1,0,0:0:0:0:
320,192,22783,1,0,0:0:0:0:
192,192,22864,1,0,0:0:0:0:
448,192,22864,1,0,0:0:0:0:
320,192,22945,1,0,0:0:0:0:
192,192,23027,1,0,0:0:0:0:
64,192,23027,1,0,0:0:0:0:
448,192,23027,1,0,0:0:0:0:
320,192,23108,1,0,0:0:0:0:
64,192,23189,1,0,0:0:0:0:
448,192,23189,1,0,0:0:0:0:
192,192,23270,1,0,0:0:0:0:
320,192,23351,1,0,0:0:0:0:
64,192,23351,1,0,0:0:0:0:
448,192,23351,1,0,0:0:0:0:
192,192,23432,1,0,0:0:0:0:
320,192,23513,1,0,0:0:0:0:
192,192,23594,1,0,0:0:0:0:
320,192,23675,1,0,0:0:0:0:
448,192,23675,128,0,23756:0:0:0:0:
192,192,23756,1,0,0:0:0:0:
320,192,23837,1,0,0:0:0:0:
64,192,23837,128,0,23918:0:0:0:0:
192,192,23918,1,0,0:0:0:0:
320,192,23999,1,0,0:0:0:0:
192,192,24081,1,0,0:0:0:0:
320,192,24162,1,0,0:0:0:0:
64,192,24162,128,0,24243:0:0:0:0:
192,192,24243,1,0,0:0:0:0:
320,192,24324,1,0,0:0:0:0:
192,192,24405,1,0,0:0:0:0:
320,192,24486,1,0,0:0:0:0:
448,192,24486,128,0,24567:0:0:0:0:
192,192,24567,1,0,0:0:0:0:
320,192,24648,1,0,0:0:0:0:
192,192,24729,1,0,0:0:0:0:
320,192,24810,1,0,0:0:0:0:
192,192,24891,1,0,0:0:0:0:
320,192,24972,1,0,0:0:0:0:
192,192,25054,1,0,0:0:0:0:
320,192,25135,1,0,0:0:0:0:
192,192,25216,1,0,0:0:0:0:
320,192,25297,1,0,0:0:0:0:
64,192,25297,1,0,0:0:0:0:
448,192,25459,1,0,0:0:0:0:
64,192,25459,1,0,0:0:0:0:
320,192,25621,1,0,0:0:0:0:
192,192,25621,1,0,0:0:0:0:
320,192,25783,1,0,0:0:0:0:
64,192,25783,1,0,0:0:0:0:
192,192,25945,1,0,0:0:0:0:
64,192,25945,1,0,0:0:0:0:
448,192,25945,1,0,0:0:0:0:
320,192,26027,1,0,0:0:0:0:
192,192,26108,1,0,0:0:0:0:
448,192,26189,1,0,0:0:0:0:
64,192,26189,1,0,0:0:0:0:
192,192,26270,1,0,0:0:0:0:
320,192,26270,1,0,0:0:0:0:
448,192,26351,1,0,0:0:0:0:
320,192,26432,1,0,0:0:0:0:
64,192,26432,1,0,0:0:0:0:
192,192,26513,1,0,0:0:0:0:
320,192,26594,1,0,0:0:0:0:
448,192,26594,1,0,0:0:0:0:
64,192,26594,1,0,0:0:0:0:
192,192,26675,1,0,0:0:0:0:
448,192,26756,1,0,0:0:0:0:
320,192,26837,1,0,0:0:0:0:
192,192,26918,1,0,0:0:0:0:
64,192,26918,1,0,0:0:0:0:
448,192,26918,1,0,0:0:0:0:
320,192,26999,1,0,0:0:0:0:
64,192,27081,1,0,0:0:0:0:
448,192,27162,1,0,0:0:0:0:
320,192,27243,1,0,0:0:0:0:
192,192,27243,1,0,0:0:0:0:
64,192,27243,1,0,0:0:0:0:
448,192,27324,1,0,0:0:0:0:
192,192,27405,1,0,0:0:0:0:
320,192,27486,1,0,0:0:0:0:
64,192,27486,1,0,0:0:0:0:
448,192,27567,1,0,0:0:0:0:
192,192,27567,1,0,0:0:0:0:
320,192,27648,1,0,0:0:0:0:
64,192,27729,1,0,0:0:0:0:
448,192,27729,1,0,0:0:0:0:
192,192,27810,1,0,0:0:0:0:
320,192,27891,1,0,0:0:0:0:
64,192,27891,1,0,0:0:0:0:
448,192,27891,1,0,0:0:0:0:
192,192,27972,1,0,0:0:0:0:
320,192,28054,1,0,0:0:0:0:
448,192,28135,1,0,0:0:0:0:
320,192,28216,1,0,0:0:0:0:
192,192,28216,1,0,0:0:0:0:
64,192,28216,1,0,0:0:0:0:
448,192,28297,1,0,0:0:0:0:
192,192,28378,1,0,0:0:0:0:
64,192,28459,1,0,0:0:0:0:
192,192,28540,1,0,0:0:0:0:
320,192,28540,1,0,0:0:0:0:
448,192,28540,1,0,0:0:0:0:
64,192,28621,1,0,0:0:0:0:
448,192,28702,1,0,0:0:0:0:
320,192,28783,1,0,0:0:0:0:
192,192,28783,1,0,0:0:0:0:
64,192,28864,1,0,0:0:0:0:
448,192,28864,1,0,0:0:0:0:
320,192,28945,1,0,0:0:0:0:
192,192,29027,1,0,0:0:0:0:
64,192,29027,1,0,0:0:0:0:
448,192,29108,1,0,0:0:0:0:
320,192,29189,1,0,0:0:0:0:
64,192,29189,1,0,0:0:0:0:
192,192,29189,1,0,0:0:0:0:
448,192,29270,1,0,0:0:0:0:
320,192,29351,1,0,0:0:0:0:
64,192,29432,1,0,0:0:0:0:
192,192,29513,1,0,0:0:0:0:
320,192,29513,1,0,0:0:0:0:
448,192,29513,1,0,0:0:0:0:
64,192,29594,1,0,0:0:0:0:
192,192,29675,1,0,0:0:0:0:
448,192,29756,1,0,0:0:0:0:
320,192,29837,1,0,0:0:0:0:
64,192,29837,1,0,0:0:0:0:
192,192,29837,1,0,0:0:0:0:
448,192,29918,1,0,0:0:0:0:
320,192,29999,1,0,0:0:0:0:
192,192,30081,1,0,0:0:0:0:
448,192,30162,1,0,0:0:0:0:
320,192,30162,1,0,0:0:0:0:
64,192,30162,1,0,0:0:0:0:
192,192,30243,1,0,0:0:0:0:
64,192,30324,1,0,0:0:0:0:
448,192,30405,1,0,0:0:0:0:
320,192,30486,1,0,0:0:0:0:
192,192,30486,1,0,0:0:0:0:
64,192,30486,1,0,0:0:0:0:
448,192,30567,1,0,0:0:0:0:
320,192,30648,1,0,0:0:0:0:
192,192,30648,1,0,0:0:0:0:
64,192,30729,1,0,0:0:0:0:
192,192,30810,1,0,0:0:0:0:
320,192,30810,1,0,0:0:0:0:
448,192,30810,1,0,0:0:0:0:
64,192,30891,1,0,0:0:0:0:
448,192,30972,1,0,0:0:0:0:
320,192,30972,1,0,0:0:0:0:
192,192,31054,1,0,0:0:0:0:
64,192,31135,1,0,0:0:0:0:
320,192,31135,1,0,0:0:0:0:
448,192,31135,1,0,0:0:0:0:
192,192,31216,1,0,0:0:0:0:
448,192,31297,1,0,0:0:0:0:
64,192,31378,1,0,0:0:0:0:
320,192,31378,1,0,0:0:0:0:
448,192,31459,1,0,0:0:0:0:
192,192,31459,1,0,0:0:0:0:
64,192,31540,1,0,0:0:0:0:
320,192,31621,1,0,0:0:0:0:
192,192,31621,1,0,0:0:0:0:
448,192,31702,1,0,0:0:0:0:
320,192,31783,1,0,0:0:0:0:
64,192,31783,1,0,0:0:0:0:
192,192,31783,1,0,0:0:0:0:
448,192,31864,1,0,0:0:0:0:
64,192,31945,1,0,0:0:0:0:
320,192,32027,1,0,0:0:0:0:
64,192,32108,1,0,0:0:0:0:
448,192,32108,1,0,0:0:0:0:
192,192,32108,1,0,0:0:0:0:
320,192,32189,1,0,0:0:0:0:
448,192,32270,1,0,0:0:0:0:
64,192,32351,1,0,0:0:0:0:
192,192,32432,1,0,0:0:0:0:
448,192,32432,1,0,0:0:0:0:
320,192,32432,1,0,0:0:0:0:
64,192,32513,1,0,0:0:0:0:
192,192,32594,1,0,0:0:0:0:
320,192,32675,1,0,0:0:0:0:
448,192,32675,1,0,0:0:0:0:
192,192,32756,1,0,0:0:0:0:
64,192,32756,1,0,0:0:0:0:
320,192,32837,1,0,0:0:0:0:
448,192,32918,1,0,0:0:0:0:
64,192,32918,1,0,0:0:0:0:
192,192,32999,1,0,0:0:0:0:
320,192,33081,1,0,0:0:0:0:
448,192,33081,1,0,0:0:0:0:
64,192,33081,1,0,0:0:0:0:
192,192,33162,1,0,0:0:0:0:
320,192,33243,1,0,0:0:0:0:
64,192,33324,1,0,0:0:0:0:
448,192,33405,1,0,0:0:0:0:
320,192,33405,1,0,0:0:0:0:
192,192,33405,1,0,0:0:0:0:
64,192,33486,1,0,0:0:0:0:
448,192,33567,1,0,0:0:0:0:
320,192,33648,1,0,0:0:0:0:
192,192,33729,1,0,0:0:0:0:
64,192,33729,1,0,0:0:0:0:
448,192,33729,1,0,0:0:0:0:
320,192,33810,1,0,0:0:0:0:
192,192,33891,1,0,0:0:0:0:
448,192,33972,1,0,0:0:0:0:
64,192,33972,1,0,0:0:0:0:
192,192,34054,1,0,0:0:0:0:
320,192,34054,1,0,0:0:0:0:
448,192,34135,1,0,0:0:0:0:
320,192,34216,1,0,0:0:0:0:
64,192,34216,1,0,0:0:0:0:
192,192,34297,1,0,0:0:0:0:
320,192,34378,1,0,0:0:0:0:
448,192,34378,1,0,0:0:0:0:
64,192,34378,1,0,0:0:0:0:
192,192,34459,1,0,0:0:0:0:
448,192,34540,1,0,0:0:0:0:
64,192,34621,1,0,0:0:0:0:
192,192,34702,1,0,0:0:0:0:
320,192,34702,1,0,0:0:0:0:
448,192,34702,1,0,0:0:0:0:
64,192,34783,1,0,0:0:0:0:
320,192,34864,1,0,0:0:0:0:
192,192,34945,1,0,0:0:0:0:
320,192,35027,1,0,0:0:0:0:
64,192,35027,1,0,0:0:0:0:
448,192,35027,1,0,0:0:0:0:
192,192,35108,1,0,0:0:0:0:
320,192,35189,1,0,0:0:0:0:
448,192,35270,1,0,0:0:0:0:
320,192,35351,1,0,0:0:0:0:
192,192,35351,1,0,0:0:0:0:
64,192,35351,1,0,0:0:0:0:
448,192,35432,1,0,0:0:0:0:
192,192,35513,1,0,0:0:0:0:
64,192,35594,1,0,0:0:0:0:
448,192,35675,1,0,0:0:0:0:
320,192,35756,1,0,0:0:0:0:
192,192,35837,1,0,0:0:0:0:
64,192,35837,1,0,0:0:0:0:
448,192,35837,1,0,0:0:0:0:
320,192,35918,1,0,0:0:0:0:
64,192,35999,1,0,0:0:0:0:
192,192,35999,1,0,0:0:0:0:
448,192,35999,1,0,0:0:0:0:
320,192,36081,1,0,0:0:0:0:
192,192,36162,1,0,0:0:0:0:
64,192,36162,1,0,0:0:0:0:
448,192,36243,1,0,0:0:0:0:
320,192,36324,1,0,0:0:0:0:
192,192,36324,1,0,0:0:0:0:
64,192,36324,1,0,0:0:0:0:
448,192,36405,1,0,0:0:0:0:
320,192,36486,1,0,0:0:0:0:
64,192,36567,1,0,0:0:0:0:
192,192,36567,1,0,0:0:0:0:
320,192,36648,1,0,0:0:0:0:
448,192,36648,1,0,0:0:0:0:
192,192,36729,1,0,0:0:0:0:
64,192,36810,1,0,0:0:0:0:
448,192,36810,1,0,0:0:0:0:
320,192,36891,1,0,0:0:0:0:
192,192,36972,1,0,0:0:0:0:
64,192,36972,1,0,0:0:0:0:
448,192,36972,1,0,0:0:0:0:
320,192,37054,1,0,0:0:0:0:
192,192,37135,1,0,0:0:0:0:
448,192,37216,1,0,0:0:0:0:
320,192,37297,1,0,0:0:0:0:
64,192,37297,1,0,0:0:0:0:
192,192,37297,1,0,0:0:0:0:
448,192,37378,1,0,0:0:0:0:
64,192,37459,1,0,0:0:0:0:
192,192,37540,1,0,0:0:0:0:
320,192,37621,1,0,0:0:0:0:
448,192,37621,1,0,0:0:0:0:
64,192,37621,1,0,0:0:0:0:
192,192,37702,1,0,0:0:0:0:
320,192,37783,1,0,0:0:0:0:
64,192,37864,1,0,0:0:0:0:
448,192,37864,1,0,0:0:0:0:
320,192,37945,1,0,0:0:0:0:
192,192,37945,1,0,0:0:0:0:
64,192,38027,1,0,0:0:0:0:
448,192,38108,1,0,0:0:0:0:
192,192,38108,1,0,0:0:0:0:
320,192,38189,1,0,0:0:0:0:
192,192,38270,1,0,0:0:0:0:
64,192,38270,1,0,0:0:0:0:
448,192,38270,1,0,0:0:0:0:
320,192,38351,1,0,0:0:0:0:
64,192,38432,1,0,0:0:0:0:
448,192,38513,1,0,0:0:0:0:
320,192,38594,1,0,0:0:0:0:
192,192,38594,1,0,0:0:0:0:
64,192,38594,1,0,0:0:0:0:
448,192,38675,1,0,0:0:0:0:
320,192,38756,1,0,0:0:0:0:
192,192,38837,1,0,0:0:0:0:
320,192,38918,1,0,0:0:0:0:
448,192,38918,1,0,0:0:0:0:
64,192,38918,1,0,0:0:0:0:
192,192,38999,1,0,0:0:0:0:
448,192,39081,1,0,0:0:0:0:
64,192,39162,1,0,0:0:0:0:
320,192,39162,1,0,0:0:0:0:
192,192,39243,1,0,0:0:0:0:
448,192,39243,1,0,0:0:0:0:
64,192,39324,1,0,0:0:0:0:
320,192,39405,1,0,0:0:0:0:
192,192,39405,1,0,0:0:0:0:
448,192,39486,1,0,0:0:0:0:
320,192,39567,1,0,0:0:0:0:
192,192,39567,1,0,0:0:0:0:
64,192,39567,1,0,0:0:0:0:
448,192,39648,1,0,0:0:0:0:
320,192,39729,1,0,0:0:0:0:
192,192,39729,1,0,0:0:0:0:
64,192,39729,1,0,0:0:0:0:
448,192,39810,1,0,0:0:0:0:
64,192,39891,1,0,0:0:0:0:
192,192,39972,1,0,0:0:0:0:
320,192,40054,1,0,0:0:0:0:
448,192,40054,1,0,0:0:0:0:
64,192,40054,1,0,0:0:0:0:
192,192,40135,1,0,0:0:0:0:
320,192,40216,1,0,0:0:0:0:
448,192,40297,1,0,0:0:0:0:
192,192,40378,1,0,0:0:0:0:
320,192,40459,1,0,0:0:0:0:
64,192,40540,1,0,0:0:0:0:
192,192,40540,1,0,0:0:0:0:
448,192,40540,1,0,0:0:0:0:
320,192,40621,1,0,0:0:0:0:
64,192,40702,1,0,0:0:0:0:
448,192,40783,1,0,0:0:0:0:
320,192,40864,1,0,0:0:0:0:
64,192,40864,1,0,0:0:0:0:
192,192,40864,1,0,0:0:0:0:
448,192,40945,1,0,0:0:0:0:
320,192,41027,1,0,0:0:0:0:
192,192,41027,1,0,0:0:0:0:
64,192,41108,1,0,0:0:0:0:
192,192,41189,1,0,0:0:0:0:
320,192,41189,1,0,0:0:0:0:
448,192,41189,1,0,0:0:0:0:
64,192,41270,1,0,0:0:0:0:
192,192,41351,1,0,0:0:0:0:
448,192,41351,1,0,0:0:0:0:
320,192,41432,1,0,0:0:0:0:
448,192,41513,1,0,0:0:0:0:
192,192,41513,1,0,0:0:0:0:
64,192,41513,1,0,0:0:0:0:
320,192,41594,1,0,0:0:0:0:
448,192,41675,1,0,0:0:0:0:
64,192,41675,1,0,0:0:0:0:
192,192,41756,1,0,0:0:0:0:
320,192,41837,1,0,0:0:0:0:
448,192,41837,1,0,0:0:0:0:
64,192,41837,1,0,0:0:0:0:
192,192,41918,1,0,0:0:0:0:
320,192,41999,1,0,0:0:0:0:
64,192,41999,1,0,0:0:0:0:
448,192,42081,1,0,0:0:0:0:
320,192,42162,1,0,0:0:0:0:
192,192,42162,1,0,0:0:0:0:
64,192,42162,1,0,0:0:0:0:
448,192,42243,1,0,0:0:0:0:
320,192,42324,1,0,0:0:0:0:
192,192,42324,1,0,0:0:0:0:
64,192,42405,1,0,0:0:0:0:
192,192,42486,1,0,0:0:0:0:
320,192,42486,1,0,0:0:0:0:
448,192,42486,1,0,0:0:0:0:
64,192,42567,1,0,0:0:0:0:
192,192,42648,1,0,0:0:0:0:
448,192,42648,1,0,0:0:0:0:
320,192,42729,1,0,0:0:0:0:
64,192,42810,1,0,0:0:0:0:
192,192,42810,1,0,0:0:0:0:
448,192,42810,1,0,0:0:0:0:
320,192,42891,1,0,0:0:0:0:
64,192,42972,1,0,0:0:0:0:
192,192,42972,1,0,0:0:0:0:
448,192,43054,1,0,0:0:0:0:
64,192,43135,1,0,0:0:0:0:
192,192,43135,1,0,0:0:0:0:
320,192,43135,1,0,0:0:0:0:
448,192,43216,1,0,0:0:0:0:
64,192,43297,1,0,0:0:0:0:
320,192,43297,1,0,0:0:0:0:
192,192,43378,1,0,0:0:0:0:
320,192,43459,1,0,0:0:0:0:
64,192,43459,1,0,0:0:0:0:
448,192,43459,1,0,0:0:0:0:
192,192,43540,1,0,0:0:0:0:
320,192,43621,1,0,0:0:0:0:
448,192,43621,1,0,0:0:0:0:
64,192,43702,1,0,0:0:0:0:
192,192,43783,1,0,0:0:0:0:
320,192,43783,1,0,0:0:0:0:
448,192,43783,1,0,0:0:0:0:
64,192,43864,1,0,0:0:0:0:
192,192,43945,1,0,0:0:0:0:
448,192,43945,1,0,0:0:0:0:
320,192,44027,1,0,0:0:0:0:
192,192,44108,1,0,0:0:0:0:
64,192,44108,1,0,0:0:0:0:
448,192,44108,1,0,0:0:0:0:
320,192,44189,1,0,0:0:0:0:
64,192,44270,1,0,0:0:0:0:
320,192,44351,1,0,0:0:0:0:
64,192,44432,1,0,0:0:0:0:
192,192,44432,128,0,44513:0:0:0:0:
320,192,44513,1,0,0:0:0:0:
64,192,44594,1,0,0:0:0:0:
448,192,44594,128,0,44675:0:0:0:0:
320,192,44675,1,0,0:0:0:0:
64,192,44756,1,0,0:0:0:0:
320,192,44837,1,0,0:0:0:0:
64,192,44918,1,0,0:0:0:0:
448,192,44918,128,0,44999:0:0:0:0:
320,192,44999,1,0,0:0:0:0:
64,192,45081,1,0,0:0:0:0:
320,192,45162,1,0,0:0:0:0:
64,192,45243,1,0,0:0:0:0:
192,192,45243,128,0,45324:0:0:0:0:
320,192,45324,1,0,0:0:0:0:
64,192,45405,1,0,0:0:0:0:
320,192,45486,1,0,0:0:0:0:
64,192,45567,1,0,0:0:0:0:
320,192,45648,1,0,0:0:0:0:
64,192,45729,1,0,0:0:0:0:
320,192,45810,1,0,0:0:0:0:
64,192,45891,1,0,0:0:0:0:
320,192,45972,1,0,0:0:0:0:
64,192,46054,1,0,0:0:0:0:
448,192,46054,1,0,0:0:0:0:
192,192,46216,1,0,0:0:0:0:
448,192,46216,1,0,0:0:0:0:
320,192,46378,1,0,0:0:0:0:
64,192,46378,1,0,0:0:0:0:
448,192,46540,1,0,0:0:0:0:
64,192,46540,1,0,0:0:0:0:
192,192,46702,5,0,0:0:0:0:
448,192,46702,1,0,0:0:0:0:
320,192,46702,1,0,0:0:0:0:
64,192,46783,1,0,0:0:0:0:
320,192,46864,1,0,0:0:0:0:
192,192,46864,1,0,0:0:0:0:
448,192,46945,1,0,0:0:0:0:
64,192,47027,1,0,0:0:0:0:
320,192,47027,1,0,0:0:0:0:
192,192,47027,1,0,0:0:0:0:
448,192,47108,1,0,0:0:0:0:
64,192,47189,1,0,0:0:0:0:
320,192,47189,1,0,0:0:0:0:
192,192,47270,1,0,0:0:0:0:
64,192,47351,1,0,0:0:0:0:
448,192,47351,1,0,0:0:0:0:
320,192,47351,1,0,0:0:0:0:
192,192,47432,1,0,0:0:0:0:
448,192,47513,1,0,0:0:0:0:
64,192,47513,1,0,0:0:0:0:
320,192,47594,1,0,0:0:0:0:
448,192,47675,1,0,0:0:0:0:
64,192,47675,1,0,0:0:0:0:
192,192,47675,1,0,0:0:0:0:
320,192,47756,1,0,0:0:0:0:
448,192,47837,1,0,0:0:0:0:
192,192,47837,1,0,0:0:0:0:
64,192,47918,1,0,0:0:0:0:
448,192,47999,1,0,0:0:0:0:
320,192,47999,1,0,0:0:0:0:
192,192,47999,1,0,0:0:0:0:
64,192,48081,1,0,0:0:0:0:
448,192,48162,1,0,0:0:0:0:
320,192,48162,1,0,0:0:0:0:
192,192,48243,1,0,0:0:0:0:
64,192,48324,1,0,0:0:0:0:
448,192,48324,1,0,0:0:0:0:
320,192,48324,1,0,0:0:0:0:
192,192,48405,1,0,0:0:0:0:
64,192,48486,1,0,0:0:0:0:
320,192,48486,1,0,0:0:0:0:
448,192,48567,1,0,0:0:0:0:
64,192,48648,1,0,0:0:0:0:
320,192,48648,1,0,0:0:0:0:
192,192,48648,1,0,0:0:0:0:
448,192,48729,1,0,0:0:0:0:
64,192,48810,1,0,0:0:0:0:
192,192,48810,1,0,0:0:0:0:
320,192,48891,1,0,0:0:0:0:
448,192,48972,1,0,0:0:0:0:
64,192,48972,1,0,0:0:0:0:
192,192,48972,1,0,0:0:0:0:
320,192,49054,1,0,0:0:0:0:
448,192,49135,1,0,0:0:0:0:
192,192,49135,1,0,0:0:0:0:
64,192,49216,1,0,0:0:0:0:
448,192,49297,1,0,0:0:0:0:
320,192,49297,1,0,0:0:0:0:
192,192,49297,1,0,0:0:0:0:
64,192,49378,1,0,0:0:0:0:
320,192,49459,1,0,0:0:0:0:
192,192,49459,1,0,0:0:0:0:
448,192,49540,1,0,0:0:0:0:
64,192,49621,1,0,0:0:0:0:
320,192,49621,1,0,0:0:0:0:
192,192,49621,1,0,0:0:0:0:
448,192,49702,1,0,0:0:0:0:
64,192,49783,1,0,0:0:0:0:
320,192,49783,1,0,0:0:0:0:
192,192,49864,1,0,0:0:0:0:
64,192,49945,1,0,0:0:0:0:
448,192,49945,1,0,0:0:0:0:
320,192,49945,1,0,0:0:0:0:
192,192,50027,1,0,0:0:0:0:
448,192,50108,1,0,0:0:0:0:
64,192,50108,1,0,0:0:0:0:
320,192,50189,1,0,0:0:0:0:
448,192,50270,1,0,0:0:0:0:
64,192,50270,1,0,0:0:0:0:
192,192,50270,1,0,0:0:0:0:
320,192,50351,1,0,0:0:0:0:
448,192,50432,1,0,0:0:0:0:
192,192,50432,1,0,0:0:0:0:
64,192,50513,1,0,0:0:0:0:
448,192,50594,1,0,0:0:0:0:
320,192,50594,1,0,0:0:0:0:
192,192,50594,1,0,0:0:0:0:
64,192,50675,1,0,0:0:0:0:
320,192,50756,1,0,0:0:0:0:
192,192,50756,1,0,0:0:0:0:
448,192,50837,1,0,0:0:0:0:
64,192,50918,1,0,0:0:0:0:
320,192,50918,1,0,0:0:0:0:
192,192,50918,1,0,0:0:0:0:
448,192,50999,1,0,0:0:0:0:
64,192,51081,1,0,0:0:0:0:
320,192,51081,1,0,0:0:0:0:
192,192,51162,1,0,0:0:0:0:
448,192,51243,1,0,0:0:0:0:
64,192,51243,1,0,0:0:0:0:
320,192,51243,1,0,0:0:0:0:
192,192,51324,1,0,0:0:0:0:
448,192,51405,1,0,0:0:0:0:
320,192,51405,1,0,0:0:0:0:
64,192,51486,1,0,0:0:0:0:
448,192,51567,1,0,0:0:0:0:
320,192,51567,1,0,0:0:0:0:
192,192,51567,1,0,0:0:0:0:
64,192,51648,1,0,0:0:0:0:
448,192,51729,1,0,0:0:0:0:
192,192,51729,1,0,0:0:0:0:
320,192,51810,1,0,0:0:0:0:
448,192,51891,1,0,0:0:0:0:
64,192,51891,1,0,0:0:0:0:
192,192,51891,1,0,0:0:0:0:
320,192,51972,1,0,0:0:0:0:
64,192,52054,1,0,0:0:0:0:
192,192,52054,1,0,0:0:0:0:
448,192,52135,1,0,0:0:0:0:
64,192,52216,1,0,0:0:0:0:
320,192,52216,1,0,0:0:0:0:
192,192,52216,1,0,0:0:0:0:
448,192,52297,1,0,0:0:0:0:
64,192,52378,1,0,0:0:0:0:
320,192,52378,1,0,0:0:0:0:
192,192,52459,1,0,0:0:0:0:
64,192,52540,1,0,0:0:0:0:
448,192,52540,1,0,0:0:0:0:
320,192,52540,1,0,0:0:0:0:
192,192,52621,1,0,0:0:0:0:
64,192,52702,1,0,0:0:0:0:
448,192,52702,1,0,0:0:0:0:
320,192,52783,1,0,0:0:0:0:
448,192,52864,1,0,0:0:0:0:
64,192,52864,1,0,0:0:0:0:
192,192,52864,1,0,0:0:0:0:
320,192,52945,1,0,0:0:0:0:
448,192,53027,1,0,0:0:0:0:
192,192,53027,1,0,0:0:0:0:
64,192,53108,1,0,0:0:0:0:
448,192,53189,1,0,0:0:0:0:
320,192,53189,1,0,0:0:0:0:
192,192,53189,1,0,0:0:0:0:
64,192,53270,1,0,0:0:0:0:
320,192,53351,1,0,0:0:0:0:
192,192,53351,1,0,0:0:0:0:
448,192,53432,1,0,0:0:0:0:
64,192,53513,1,0,0:0:0:0:
320,192,53513,1,0,0:0:0:0:
192,192,53513,1,0,0:0:0:0:
448,192,53594,1,0,0:0:0:0:
64,192,53675,1,0,0:0:0:0:
320,192,53675,1,0,0:0:0:0:
192,192,53756,1,0,0:0:0:0:
64,192,53837,1,0,0:0:0:0:
448,192,53837,1,0,0:0:0:0:
320,192,53837,1,0,0:0:0:0:
192,192,53918,1,0,0:0:0:0:
448,192,53999,1,0,0:0:0:0:
64,192,53999,1,0,0:0:0:0:
320,192,54081,1,0,0:0:0:0:
448,192,54162,1,0,0:0:0:0:
64,192,54162,1,0,0:0:0:0:
192,192,54162,1,0,0:0:0:0:
320,192,54243,1,0,0:0:0:0:
448,192,54324,1,0,0:0:0:0:
192,192,54324,1,0,0:0:0:0:
64,192,54405,1,0,0:0:0:0:
448,192,54486,1,0,0:0:0:0:
320,192,54486,1,0,0:0:0:0:
192,192,54486,1,0,0:0:0:0:
64,192,54567,1,0,0:0:0:0:
320,192,54648,1,0,0:0:0:0:
192,192,54648,1,0,0:0:0:0:
448,192,54729,1,0,0:0:0:0:
64,192,54810,1,0,0:0:0:0:
320,192,54810,1,0,0:0:0:0:
192,192,54810,1,0,0:0:0:0:
448,192,54891,1,0,0:0:0:0:
64,192,54972,1,0,0:0:0:0:
320,192,54972,1,0,0:0:0:0:
192,192,55054,1,0,0:0:0:0:
64,192,55135,1,0,0:0:0:0:
448,192,55135,1,0,0:0:0:0:
320,192,55135,1,0,0:0:0:0:
192,192,55216,1,0,0:0:0:0:
448,192,55297,1,0,0:0:0:0:
64,192,55297,1,0,0:0:0:0:
320,192,55378,1,0,0:0:0:0:
448,192,55459,1,0,0:0:0:0:
64,192,55459,1,0,0:0:0:0:
192,192,55459,1,0,0:0:0:0:
320,192,55540,1,0,0:0:0:0:
448,192,55621,1,0,0:0:0:0:
192,192,55621,1,0,0:0:0:0:
64,192,55702,1,0,0:0:0:0:
448,192,55783,1,0,0:0:0:0:
320,192,55783,1,0,0:0:0:0:
192,192,55783,1,0,0:0:0:0:
64,192,55864,1,0,0:0:0:0:
448,192,55945,1,0,0:0:0:0:
320,192,56027,1,0,0:0:0:0:
448,192,56108,1,0,0:0:0:0:
64,192,56108,1,0,0:0:0:0:
192,192,56108,1,0,0:0:0:0:
320,192,56189,1,0,0:0:0:0:
448,192,56270,1,0,0:0:0:0:
64,192,56351,1,0,0:0:0:0:
192,192,56432,1,0,0:0:0:0:
64,192,56513,1,0,0:0:0:0:
448,192,56594,1,0,0:0:0:0:
320,192,56594,1,0,0:0:0:0:
192,192,56675,1,0,0:0:0:0:
64,192,56756,1,0,0:0:0:0:
448,192,56756,1,0,0:0:0:0:
320,192,56756,1,0,0:0:0:0:
192,192,56837,1,0,0:0:0:0:
320,192,56918,1,0,0:0:0:0:
448,192,56999,1,0,0:0:0:0:
64,192,57081,1,0,0:0:0:0:
320,192,57081,1,0,0:0:0:0:
192,192,57081,1,0,0:0:0:0:
448,192,57162,1,0,0:0:0:0:
64,192,57243,1,0,0:0:0:0:
192,192,57243,1,0,0:0:0:0:
320,192,57324,1,0,0:0:0:0:
448,192,57405,1,0,0:0:0:0:
64,192,57405,1,0,0:0:0:0:
192,192,57405,1,0,0:0:0:0:
320,192,57486,1,0,0:0:0:0:
64,192,57567,1,0,0:0:0:0:
448,192,57567,1,0,0:0:0:0:
192,192,57648,1,0,0:0:0:0:
64,192,57729,1,0,0:0:0:0:
448,192,57729,1,0,0:0:0:0:
320,192,57729,1,0,0:0:0:0:
192,192,57810,1,0,0:0:0:0:
448,192,57891,1,0,0:0:0:0:
320,192,57891,1,0,0:0:0:0:
64,192,57972,1,0,0:0:0:0:
448,192,58054,1,0,0:0:0:0:
320,192,58054,1,0,0:0:0:0:
192,192,58054,1,0,0:0:0:0:
64,192,58135,1,0,0:0:0:0:
320,192,58216,1,0,0:0:0:0:
192,192,58216,1,0,0:0:0:0:
448,192,58297,1,0,0:0:0:0:
64,192,58378,1,0,0:0:0:0:
320,192,58378,1,0,0:0:0:0:
192,192,58378,1,0,0:0:0:0:
448,192,58459,1,0,0:0:0:0:
64,192,58540,1,0,0:0:0:0:
320,192,58540,1,0,0:0:0:0:
448,192,58621,1,0,0:0:0:0:
64,192,58702,1,0,0:0:0:0:
320,192,58702,1,0,0:0:0:0:
192,192,58702,1,0,0:0:0:0:
448,192,58783,1,0,0:0:0:0:
64,192,58864,1,0,0:0:0:0:
192,192,58864,1,0,0:0:0:0:
320,192,58945,1,0,0:0:0:0:
448,192,59027,1,0,0:0:0:0:
64,192,59027,1,0,0:0:0:0:
192,192,59027,1,0,0:0:0:0:
320,192,59108,1,0,0:0:0:0:
448,192,59189,1,0,0:0:0:0:
192,192,59189,1,0,0:0:0:0:
64,192,59270,1,0,0:0:0:0:
448,192,59351,1,0,0:0:0:0:
320,192,59351,1,0,0:0:0:0:
192,192,59351,1,0,0:0:0:0:
64,192,59432,1,0,0:0:0:0:
448,192,59513,1,0,0:0:0:0:
320,192,59513,1,0,0:0:0:0:
192,192,59594,1,0,0:0:0:0:
64,192,59675,1,0,0:0:0:0:
448,192,59675,1,0,0:0:0:0:
320,192,59675,1,0,0:0:0:0:
192,192,59756,1,0,0:0:0:0:
64,192,59837,1,0,0:0:0:0:
320,192,59837,1,0,0:0:0:0:
192,192,59918,1,0,0:0:0:0:
64,192,59999,1,0,0:0:0:0:
448,192,59999,1,0,0:0:0:0:
320,192,59999,1,0,0:0:0:0:
192,192,60081,1,0,0:0:0:0:
448,192,60162,1,0,0:0:0:0:
64,192,60162,1,0,0:0:0:0:
320,192,60243,1,0,0:0:0:0:
448,192,60324,1,0,0:0:0:0:
64,192,60324,1,0,0:0:0:0:
192,192,60324,1,0,0:0:0:0:
320,192,60405,1,0,0:0:0:0:
448,192,60486,1,0,0:0:0:0:
192,192,60486,1,0,0:0:0:0:
64,192,60567,1,0,0:0:0:0:
448,192,60648,1,0,0:0:0:0:
320,192,60648,1,0,0:0:0:0:
192,192,60648,1,0,0:0:0:0:
64,192,60729,1,0,0:0:0:0:
320,192,60810,1,0,0:0:0:0:
192,192,60810,1,0,0:0:0:0:
448,192,60891,1,0,0:0:0:0:
64,192,60972,1,0,0:0:0:0:
320,192,60972,1,0,0:0:0:0:
192,192,60972,1,0,0:0:0:0:
448,192,61054,1,0,0:0:0:0:
64,192,61135,1,0,0:0:0:0:
320,192,61135,1,0,0:0:0:0:
192,192,61216,1,0,0:0:0:0:
448,192,61297,1,0,0:0:0:0:
64,192,61297,1,0,0:0:0:0:
320,192,61297,1,0,0:0:0:0:
192,192,61378,1,0,0:0:0:0:
448,192,61459,1,0,0:0:0:0:
64,192,61459,1,0,0:0:0:0:
320,192,61540,1,0,0:0:0:0:
448,192,61621,1,0,0:0:0:0:
64,192,61621,1,0,0:0:0:0:
192,192,61621,1,0,0:0:0:0:
320,192,61702,1,0,0:0:0:0:
448,192,61783,1,0,0:0:0:0:
192,192,61783,1,0,0:0:0:0:
64,192,61864,1,0,0:0:0:0:
448,192,61945,1,0,0:0:0:0:
320,192,61945,1,0,0:0:0:0:
192,192,61945,1,0,0:0:0:0:
64,192,62027,1,0,0:0:0:0:
320,192,62108,1,0,0:0:0:0:
192,192,62108,1,0,0:0:0:0:
448,192,62189,1,0,0:0:0:0:
64,192,62270,1,0,0:0:0:0:
320,192,62270,1,0,0:0:0:0:
192,192,62270,1,0,0:0:0:0:
448,192,62351,1,0,0:0:0:0:
64,192,62432,1,0,0:0:0:0:
320,192,62432,1,0,0:0:0:0:
192,192,62513,1,0,0:0:0:0:
64,192,62594,1,0,0:0:0:0:
448,192,62594,1,0,0:0:0:0:
320,192,62594,1,0,0:0:0:0:
192,192,62675,1,0,0:0:0:0:
448,192,62756,1,0,0:0:0:0:
64,192,62756,1,0,0:0:0:0:
320,192,62837,1,0,0:0:0:0:
448,192,62918,1,0,0:0:0:0:
64,192,62918,1,0,0:0:0:0:
192,192,62918,1,0,0:0:0:0:
320,192,62999,1,0,0:0:0:0:
448,192,63081,1,0,0:0:0:0:
192,192,63081,1,0,0:0:0:0:
320,192,63162,1,0,0:0:0:0:
448,192,63243,1,0,0:0:0:0:
64,192,63243,1,0,0:0:0:0:
192,192,63243,1,0,0:0:0:0:
320,192,63324,1,0,0:0:0:0:
64,192,63405,1,0,0:0:0:0:
192,192,63405,1,0,0:0:0:0:
448,192,63486,1,0,0:0:0:0:
64,192,63567,1,0,0:0:0:0:
320,192,63567,1,0,0:0:0:0:
192,192,63567,1,0,0:0:0:0:
448,192,63648,1,0,0:0:0:0:
64,192,63729,1,0,0:0:0:0:
320,192,63729,1,0,0:0:0:0:
192,192,63810,1,0,0:0:0:0:
448,192,63891,1,0,0:0:0:0:
64,192,63891,1,0,0:0:0:0:
320,192,63891,1,0,0:0:0:0:
192,192,63972,1,0,0:0:0:0:
448,192,64054,1,0,0:0:0:0:
320,192,64054,1,0,0:0:0:0:
64,192,64135,1,0,0:0:0:0:
448,192,64216,1,0,0:0:0:0:
320,192,64216,1,0,0:0:0:0:
192,192,64216,1,0,0:0:0:0:
64,192,64297,1,0,0:0:0:0:
448,192,64378,1,0,0:0:0:0:
192,192,64378,1,0,0:0:0:0:
64,192,64459,1,0,0:0:0:0:
448,192,64540,1,0,0:0:0:0:
320,192,64540,1,0,0:0:0:0:
192,192,64540,1,0,0:0:0:0:
64,192,64621,1,0,0:0:0:0:
320,192,64702,1,0,0:0:0:0:
192,192,64702,1,0,0:0:0:0:
448,192,64783,1,0,0:0:0:0:
64,192,64864,1,0,0:0:0:0:
320,192,64864,1,0,0:0:0:0:
192,192,64864,1,0,0:0:0:0:
448,192,64945,1,0,0:0:0:0:
64,192,65027,1,0,0:0:0:0:
448,192,65108,1,0,0:0:0:0:
64,192,65189,1,0,0:0:0:0:
320,192,65189,128,0,65270:0:0:0:0:
448,192,65270,1,0,0:0:0:0:
64,192,65351,1,0,0:0:0:0:
192,192,65351,128,0,65432:0:0:0:0:
448,192,65432,1,0,0:0:0:0:
64,192,65513,1,0,0:0:0:0:
448,192,65594,1,0,0:0:0:0:
64,192,65675,1,0,0:0:0:0:
192,192,65675,128,0,65756:0:0:0:0:
448,192,65756,1,0,0:0:0:0:
64,192,65837,1,0,0:0:0:0:
448,192,65918,1,0,0:0:0:0:
64,192,65999,1,0,0:0:0:0:
320,192,65999,128,0,66081:0:0:0:0:
448,192,66081,1,0,0:0:0:0:
64,192,66162,1,0,0:0:0:0:
448,192,66243,1,0,0:0:0:0:
64,192,66324,1,0,0:0:0:0:
448,192,66405,1,0,0:0:0:0:
64,192,66486,1,0,0:0:0:0:
448,192,66567,1,0,0:0:0:0:
64,192,66648,1,0,0:0:0:0:
448,192,66729,1,0,0:0:0:0:
64,192,66810,1,0,0:0:0:0:
320,192,66810,1,0,0:0:0:0:
192,192,66972,1,0,0:0:0:0:
320,192,66972,1,0,0:0:0:0:
64,192,67135,1,0,0:0:0:0:
448,192,67135,1,0,0:0:0:0:
192,192,67297,1,0,0:0:0:0:
64,192,67297,1,0,0:0:0:0:
192,192,67459,1,0,0:0:0:0:
448,192,67459,1,0,0:0:0:0:
320,192,67459,1,0,0:0:0:0:
64,192,67540,1,0,0:0:0:0:
448,192,67621,1,0,0:0:0:0:
192,192,67702,1,0,0:0:0:0:
320,192,67702,1,0,0:0:0:0:
64,192,67783,1,0,0:0:0:0:
448,192,67783,1,0,0:0:0:0:
192,192,67864,1,0,0:0:0:0:
64,192,67945,1,0,0:0:0:0:
320,192,67945,1,0,0:0:0:0:
448,192,68027,1,0,0:0:0:0:
64,192,68108,1,0,0:0:0:0:
192,192,68108,1,0,0:0:0:0:
320,192,68108,1,0,0:0:0:0:
448,192,68189,1,0,0:0:0:0:
192,192,68270,1,0,0:0:0:0:
64,192,68351,1,0,0:0:0:0:
192,192,68432,1,0,0:0:0:0:
448,192,68432,1,0,0:0:0:0:
320,192,68432,1,0,0:0:0:0:
64,192,68513,1,0,0:0:0:0:
320,192,68594,1,0,0:0:0:0:
192,192,68675,1,0,0:0:0:0:
64,192,68756,1,0,0:0:0:0:
448,192,68756,1,0,0:0:0:0:
320,192,68756,1,0,0:0:0:0:
192,192,68837,1,0,0:0:0:0:
448,192,68918,1,0,0:0:0:0:
64,192,68999,1,0,0:0:0:0:
320,192,68999,1,0,0:0:0:0:
192,192,69081,1,0,0:0:0:0:
448,192,69081,1,0,0:0:0:0:
64,192,69162,1,0,0:0:0:0:
192,192,69243,1,0,0:0:0:0:
320,192,69243,1,0,0:0:0:0:
448,192,69324,1,0,0:0:0:0:
64,192,69405,1,0,0:0:0:0:
192,192,69405,1,0,0:0:0:0:
320,192,69405,1,0,0:0:0:0:
448,192,69486,1,0,0:0:0:0:
64,192,69567,1,0,0:0:0:0:
192,192,69648,1,0,0:0:0:0:
64,192,69729,1,0,0:0:0:0:
448,192,69729,1,0,0:0:0:0:
320,192,69729,1,0,0:0:0:0:
192,192,69810,1,0,0:0:0:0:
448,192,69891,1,0,0:0:0:0:
320,192,69972,1,0,0:0:0:0:
64,192,70054,1,0,0:0:0:0:
192,192,70054,1,0,0:0:0:0:
448,192,70054,1,0,0:0:0:0:
320,192,70135,1,0,0:0:0:0:
192,192,70216,1,0,0:0:0:0:
64,192,70297,1,0,0:0:0:0:
448,192,70297,1,0,0:0:0:0:
192,192,70378,1,0,0:0:0:0:
320,192,70378,1,0,0:0:0:0:
64,192,70459,1,0,0:0:0:0:
448,192,70540,1,0,0:0:0:0:
320,192,70540,1,0,0:0:0:0:
192,192,70621,1,0,0:0:0:0:
64,192,70702,1,0,0:0:0:0:
448,192,70702,1,0,0:0:0:0:
320,192,70702,1,0,0:0:0:0:
192,192,70783,1,0,0:0:0:0:
64,192,70864,1,0,0:0:0:0:
320,192,70945,1,0,0:0:0:0:
64,192,71027,1,0,0:0:0:0:
192,192,71027,1,0,0:0:0:0:
448,192,71027,1,0,0:0:0:0:
320,192,71108,1,0,0:0:0:0:
448,192,71189,1,0,0:0:0:0:
192,192,71270,1,0,0:0:0:0:
64,192,71351,1,0,0:0:0:0:
448,192,71351,1,0,0:0:0:0:
320,192,71351,1,0,0:0:0:0:
192,192,71432,1,0,0:0:0:0:
64,192,71513,1,0,0:0:0:0:
448,192,71594,1,0,0:0:0:0:
192,192,71675,1,0,0:0:0:0:
64,192,71675,1,0,0:0:0:0:
320,192,71675,1,0,0:0:0:0:
448,192,71756,1,0,0:0:0:0:
320,192,71837,1,0,0:0:0:0:
192,192,71918,1,0,0:0:0:0:
64,192,71999,1,0,0:0:0:0:
448,192,71999,1,0,0:0:0:0:
320,192,71999,1,0,0:0:0:0:
192,192,72081,1,0,0:0:0:0:
64,192,72162,1,0,0:0:0:0:
448,192,72162,1,0,0:0:0:0:
320,192,72243,1,0,0:0:0:0:
64,192,72324,1,0,0:0:0:0:
192,192,72324,1,0,0:0:0:0:
448,192,72324,1,0,0:0:0:0:
320,192,72405,1,0,0:0:0:0:
192,192,72486,1,0,0:0:0:0:
64,192,72486,1,0,0:0:0:0:
448,192,72567,1,0,0:0:0:0:
64,192,72648,1,0,0:0:0:0:
192,192,72648,1,0,0:0:0:0:
320,192,72648,1,0,0:0:0:0:
448,192,72729,1,0,0:0:0:0:
192,192,72810,1,0,0:0:0:0:
64,192,72891,1,0,0:0:0:0:
320,192,72891,1,0,0:0:0:0:
192,192,72972,1,0,0:0:0:0:
448,192,72972,1,0,0:0:0:0:
320,192,73054,1,0,0:0:0:0:
64,192,73135,1,0,0:0:0:0:
448,192,73135,1,0,0:0:0:0:
192,192,73216,1,0,0:0:0:0:
64,192,73297,1,0,0:0:0:0:
448,192,73297,1,0,0:0:0:0:
320,192,73297,1,0,0:0:0:0:
192,192,73378,1,0,0:0:0:0:
320,192,73459,1,0,0:0:0:0:
64,192,73540,1,0,0:0:0:0:
192,192,73621,1,0,0:0:0:0:
448,192,73621,1,0,0:0:0:0:
320,192,73621,1,0,0:0:0:0:
64,192,73702,1,0,0:0:0:0:
192,192,73783,1,0,0:0:0:0:
320,192,73864,1,0,0:0:0:0:
192,192,73945,1,0,0:0:0:0:
64,192,73945,1,0,0:0:0:0:
448,192,73945,1,0,0:0:0:0:
320,192,74027,1,0,0:0:0:0:
448,192,74108,1,0,0:0:0:0:
64,192,74189,1,0,0:0:0:0:
192,192,74189,1,0,0:0:0:0:
448,192,74270,1,0,0:0:0:0:
320,192,74270,1,0,0:0:0:0:
64,192,74351,1,0,0:0:0:0:
192,192,74432,1,0,0:0:0:0:
320,192,74432,1,0,0:0:0:0:
448,192,74513,1,0,0:0:0:0:
64,192,74594,1,0,0:0:0:0:
192,192,74594,1,0,0:0:0:0:
320,192,74594,1,0,0:0:0:0:
448,192,74675,1,0,0:0:0:0:
64,192,74756,1,0,0:0:0:0:
320,192,74837,1,0,0:0:0:0:
192,192,74918,1,0,0:0:0:0:
64,192,74918,1,0,0:0:0:0:
448,192,74918,1,0,0:0:0:0:
320,192,74999,1,0,0:0:0:0:
192,192,75081,1,0,0:0:0:0:
64,192,75162,1,0,0:0:0:0:
192,192,75243,1,0,0:0:0:0:
448,192,75243,1,0,0:0:0:0:
320,192,75243,1,0,0:0:0:0:
64,192,75324,1,0,0:0:0:0:
448,192,75405,1,0,0:0:0:0:
192,192,75486,1,0,0:0:0:0:
320,192,75486,1,0,0:0:0:0:
64,192,75567,1,0,0:0:0:0:
448,192,75567,1,0,0:0:0:0:
192,192,75648,1,0,0:0:0:0:
64,192,75729,1,0,0:0:0:0:
320,192,75729,1,0,0:0:0:0:
448,192,75810,1,0,0:0:0:0:
64,192,75891,1,0,0:0:0:0:
192,192,75891,1,0,0:0:0:0:
320,192,75891,1,0,0:0:0:0:
448,192,75972,1,0,0:0:0:0:
192,192,76054,1,0,0:0:0:0:
320,192,76135,1,0,0:0:0:0:
64,192,76216,1,0,0:0:0:0:
192,192,76216,1,0,0:0:0:0:
448,192,76216,1,0,0:0:0:0:
320,192,76297,1,0,0:0:0:0:
64,192,76378,1,0,0:0:0:0:
448,192,76459,1,0,0:0:0:0:
64,192,76540,1,0,0:0:0:0:
192,192,76540,1,0,0:0:0:0:
320,192,76540,1,0,0:0:0:0:
448,192,76621,1,0,0:0:0:0:
64,192,76702,1,0,0:0:0:0:
192,192,76783,1,0,0:0:0:0:
64,192,76864,1,0,0:0:0:0:
448,192,76864,1,0,0:0:0:0:
320,192,76864,1,0,0:0:0:0:
192,192,76945,1,0,0:0:0:0:
448,192,77027,1,0,0:0:0:0:
320,192,77108,1,0,0:0:0:0:
192,192,77189,1,0,0:0:0:0:
64,192,77270,1,0,0:0:0:0:
192,192,77351,1,0,0:0:0:0:
448,192,77351,1,0,0:0:0:0:
320,192,77351,1,0,0:0:0:0:
64,192,77432,1,0,0:0:0:0:
192,192,77513,1,0,0:0:0:0:
448,192,77513,1,0,0:0:0:0:
320,192,77513,1,0,0:0:0:0:
64,192,77594,1,0,0:0:0:0:
448,192,77675,1,0,0:0:0:0:
320,192,77675,1,0,0:0:0:0:
192,192,77756,1,0,0:0:0:0:
64,192,77837,1,0,0:0:0:0:
448,192,77837,1,0,0:0:0:0:
320,192,77837,1,0,0:0:0:0:
192,192,77918,1,0,0:0:0:0:
64,192,77999,1,0,0:0:0:0:
448,192,78081,1,0,0:0:0:0:
320,192,78081,1,0,0:0:0:0:
64,192,78162,1,0,0:0:0:0:
192,192,78162,1,0,0:0:0:0:
448,192,78243,1,0,0:0:0:0:
192,192,78324,1,0,0:0:0:0:
320,192,78324,1,0,0:0:0:0:
64,192,78405,1,0,0:0:0:0:
192,192,78486,1,0,0:0:0:0:
448,192,78486,1,0,0:0:0:0:
320,192,78486,1,0,0:0:0:0:
64,192,78567,1,0,0:0:0:0:
448,192,78648,1,0,0:0:0:0:
192,192,78729,1,0,0:0:0:0:
64,192,78810,1,0,0:0:0:0:
448,192,78810,1,0,0:0:0:0:
320,192,78810,1,0,0:0:0:0:
192,192,78891,1,0,0:0:0:0:
320,192,78972,1,0,0:0:0:0:
448,192,79054,1,0,0:0:0:0:
64,192,79135,1,0,0:0:0:0:
192,192,79135,1,0,0:0:0:0:
320,192,79135,1,0,0:0:0:0:
448,192,79216,1,0,0:0:0:0:
64,192,79297,1,0,0:0:0:0:
192,192,79378,1,0,0:0:0:0:
320,192,79378,1,0,0:0:0:0:
64,192,79459,1,0,0:0:0:0:
448,192,79459,1,0,0:0:0:0:
320,192,79540,1,0,0:0:0:0:
192,192,79621,1,0,0:0:0:0:
448,192,79621,1,0,0:0:0:0:
64,192,79702,1,0,0:0:0:0:
192,192,79783,1,0,0:0:0:0:
448,192,79783,1,0,0:0:0:0:
320,192,79783,1,0,0:0:0:0:
64,192,79864,1,0,0:0:0:0:
320,192,79945,1,0,0:0:0:0:
192,192,80027,1,0,0:0:0:0:
64,192,80108,1,0,0:0:0:0:
448,192,80108,1,0,0:0:0:0:
320,192,80108,1,0,0:0:0:0:
192,192,80189,1,0,0:0:0:0:
64,192,80270,1,0,0:0:0:0:
448,192,80351,1,0,0:0:0:0:
64,192,80432,1,0,0:0:0:0:
192,192,80432,1,0,0:0:0:0:
320,192,80432,1,0,0:0:0:0:
448,192,80513,1,0,0:0:0:0:
192,192,80594,1,0,0:0:0:0:
64,192,80675,1,0,0:0:0:0:
320,192,80675,1,0,0:0:0:0:
192,192,80756,1,0,0:0:0:0:
448,192,80756,1,0,0:0:0:0:
320,192,80837,1,0,0:0:0:0:
64,192,80918,1,0,0:0:0:0:
448,192,80918,1,0,0:0:0:0:
192,192,80999,1,0,0:0:0:0:
64,192,81081,1,0,0:0:0:0:
448,192,81081,1,0,0:0:0:0:
320,192,81081,1,0,0:0:0:0:
192,192,81162,1,0,0:0:0:0:
64,192,81243,1,0,0:0:0:0:
448,192,81243,1,0,0:0:0:0:
320,192,81243,1,0,0:0:0:0:
192,192,81324,1,0,0:0:0:0:
320,192,81405,1,0,0:0:0:0:
448,192,81486,1,0,0:0:0:0:
64,192,81567,1,0,0:0:0:0:
192,192,81567,1,0,0:0:0:0:
320,192,81567,1,0,0:0:0:0:
448,192,81648,1,0,0:0:0:0:
64,192,81729,1,0,0:0:0:0:
192,192,81810,1,0,0:0:0:0:
448,192,81891,1,0,0:0:0:0:
64,192,81972,1,0,0:0:0:0:
192,192,82054,1,0,0:0:0:0:
448,192,82054,1,0,0:0:0:0:
320,192,82054,1,0,0:0:0:0:
64,192,82135,1,0,0:0:0:0:
320,192,82216,1,0,0:0:0:0:
192,192,82297,1,0,0:0:0:0:
64,192,82378,1,0,0:0:0:0:
448,192,82378,1,0,0:0:0:0:
320,192,82378,1,0,0:0:0:0:
192,192,82459,1,0,0:0:0:0:
64,192,82540,1,0,0:0:0:0:
448,192,82540,1,0,0:0:0:0:
320,192,82621,1,0,0:0:0:0:
64,192,82702,1,0,0:0:0:0:
192,192,82702,1,0,0:0:0:0:
448,192,82702,1,0,0:0:0:0:
320,192,82783,1,0,0:0:0:0:
192,192,82864,1,0,0:0:0:0:
448,192,82864,1,0,0:0:0:0:
64,192,82945,1,0,0:0:0:0:
192,192,83027,1,0,0:0:0:0:
448,192,83027,1,0,0:0:0:0:
320,192,83027,1,0,0:0:0:0:
64,192,83108,1,0,0:0:0:0:
320,192,83189,1,0,0:0:0:0:
192,192,83189,1,0,0:0:0:0:
448,192,83270,1,0,0:0:0:0:
320,192,83351,1,0,0:0:0:0:
64,192,83351,1,0,0:0:0:0:
192,192,83351,1,0,0:0:0:0:
448,192,83432,1,0,0:0:0:0:
320,192,83513,1,0,0:0:0:0:
64,192,83513,1,0,0:0:0:0:
192,192,83594,1,0,0:0:0:0:
448,192,83675,1,0,0:0:0:0:
320,192,83675,1,0,0:0:0:0:
64,192,83675,1,0,0:0:0:0:
192,192,83756,1,0,0:0:0:0:
448,192,83837,1,0,0:0:0:0:
64,192,83837,1,0,0:0:0:0:
320,192,83918,1,0,0:0:0:0:
448,192,83999,1,0,0:0:0:0:
64,192,83999,1,0,0:0:0:0:
192,192,83999,1,0,0:0:0:0:
320,192,84081,1,0,0:0:0:0:
448,192,84162,1,0,0:0:0:0:
192,192,84162,1,0,0:0:0:0:
64,192,84243,1,0,0:0:0:0:
320,192,84324,1,0,0:0:0:0:
448,192,84324,1,0,0:0:0:0:
192,192,84324,1,0,0:0:0:0:
64,192,84405,1,0,0:0:0:0:
320,192,84486,1,0,0:0:0:0:
448,192,84486,1,0,0:0:0:0:
192,192,84567,1,0,0:0:0:0:
320,192,84648,1,0,0:0:0:0:
448,192,84648,1,0,0:0:0:0:
64,192,84648,1,0,0:0:0:0:
192,192,84729,1,0,0:0:0:0:
320,192,84810,1,0,0:0:0:0:
64,192,84810,1,0,0:0:0:0:
448,192,84891,1,0,0:0:0:0:
320,192,84972,1,0,0:0:0:0:
64,192,84972,1,0,0:0:0:0:
192,192,84972,1,0,0:0:0:0:
448,192,85054,1,0,0:0:0:0:
64,192,85135,1,0,0:0:0:0:
192,192,85135,1,0,0:0:0:0:
320,192,85216,1,0,0:0:0:0:
448,192,85297,1,0,0:0:0:0:
64,192,85297,1,0,0:0:0:0:
192,192,85297,1,0,0:0:0:0:
320,192,85378,1,0,0:0:0:0:
448,192,85459,1,0,0:0:0:0:
192,192,85459,1,0,0:0:0:0:
64,192,85540,1,0,0:0:0:0:
448,192,85621,1,0,0:0:0:0:
320,192,85621,1,0,0:0:0:0:
192,192,85621,1,0,0:0:0:0:
64,192,85702,1,0,0:0:0:0:
320,192,85783,1,0,0:0:0:0:
64,192,85864,1,0,0:0:0:0:
320,192,85945,1,0,0:0:0:0:
448,192,85945,128,0,86027:0:0:0:0:
64,192,86027,1,0,0:0:0:0:
320,192,86108,1,0,0:0:0:0:
192,192,86108,128,0,86189:0:0:0:0:
64,192,86189,1,0,0:0:0:0:
320,192,86270,1,0,0:0:0:0:
64,192,86351,1,0,0:0:0:0:
320,192,86432,1,0,0:0:0:0:
192,192,86432,128,0,86513:0:0:0:0:
64,192,86513,1,0,0:0:0:0:
320,192,86594,1,0,0:0:0:0:
64,192,86675,1,0,0:0:0:0:
320,192,86756,1,0,0:0:0:0:
448,192,86756,128,0,86837:0:0:0:0:
64,192,86837,1,0,0:0:0:0:
320,192,86918,1,0,0:0:0:0:
64,192,86999,1,0,0:0:0:0:
320,192,87081,1,0,0:0:0:0:
64,192,87162,1,0,0:0:0:0:
320,192,87243,1,0,0:0:0:0:
64,192,87324,1,0,0:0:0:0:
320,192,87405,1,0,0:0:0:0:
64,192,87486,1,0,0:0:0:0:
320,192,87567,1,0,0:0:0:0:
192,192,87567,1,0,0:0:0:0:
448,192,87729,1,0,0:0:0:0:
192,192,87729,1,0,0:0:0:0:
320,192,87891,1,0,0:0:0:0:
64,192,87891,1,0,0:0:0:0:
320,192,88054,1,0,0:0:0:0:
448,192,88054,1,0,0:0:0:0:
448,192,88216,1,0,0:0:0:0:
192,192,88216,1,0,0:0:0:0:
64,192,88216,1,0,0:0:0:0:
320,192,88297,1,0,0:0:0:0:
64,192,88378,1,0,0:0:0:0:
448,192,88459,1,0,0:0:0:0:
192,192,88540,1,0,0:0:0:0:
320,192,88540,1,0,0:0:0:0:
64,192,88621,1,0,0:0:0:0:
448,192,88702,1,0,0:0:0:0:
192,192,88783,1,0,0:0:0:0:
320,192,88864,1,0,0:0:0:0:
64,192,88864,1,0,0:0:0:0:
448,192,88945,1,0,0:0:0:0:
192,192,89027,1,0,0:0:0:0:
64,192,89108,1,0,0:0:0:0:
448,192,89189,1,0,0:0:0:0:
320,192,89189,1,0,0:0:0:0:
192,192,89270,1,0,0:0:0:0:
64,192,89351,1,0,0:0:0:0:
320,192,89432,1,0,0:0:0:0:
192,192,89513,1,0,0:0:0:0:
448,192,89513,1,0,0:0:0:0:
64,192,89594,1,0,0:0:0:0:
320,192,89675,1,0,0:0:0:0:
448,192,89756,1,0,0:0:0:0:
192,192,89837,1,0,0:0:0:0:
64,192,89837,1,0,0:0:0:0:
320,192,89918,1,0,0:0:0:0:
448,192,89999,1,0,0:0:0:0:
64,192,90081,1,0,0:0:0:0:
192,192,90162,1,0,0:0:0:0:
320,192,90162,1,0,0:0:0:0:
448,192,90243,1,0,0:0:0:0:
64,192,90324,1,0,0:0:0:0:
192,192,90405,1,0,0:0:0:0:
320,192,90486,1,0,0:0:0:0:
448,192,90486,1,0,0:0:0:0:
64,192,90567,1,0,0:0:0:0:
192,192,90648,1,0,0:0:0:0:
448,192,90729,1,0,0:0:0:0:
320,192,90810,1,0,0:0:0:0:
64,192,90810,1,0,0:0:0:0:
192,192,90891,1,0,0:0:0:0:
448,192,90972,1,0,0:0:0:0:
320,192,91054,1,0,0:0:0:0:
64,192,91135,1,0,0:0:0:0:
192,192,91135,1,0,0:0:0:0:
448,192,91216,1,0,0:0:0:0:
320,192,91297,1,0,0:0:0:0:
192,192,91378,1,0,0:0:0:0:
64,192,91459,1,0,0:0:0:0:
448,192,91459,1,0,0:0:0:0:
320,192,91540,1,0,0:0:0:0:
192,192,91621,1,0,0:0:0:0:
448,192,91702,1,0,0:0:0:0:
64,192,91783,1,0,0:0:0:0:
320,192,91783,1,0,0:0:0:0:
192,192,91864,1,0,0:0:0:0:
448,192,91945,1,0,0:0:0:0:
64,192,92027,1,0,0:0:0:0:
320,192,92108,1,0,0:0:0:0:
192,192,92108,1,0,0:0:0:0:
448,192,92189,1,0,0:0:0:0:
64,192,92270,1,0,0:0:0:0:
320,192,92351,1,0,0:0:0:0:
192,192,92432,1,0,0:0:0:0:
448,192,92432,1,0,0:0:0:0:
64,192,92513,1,0,0:0:0:0:
320,192,92594,1,0,0:0:0:0:
448,192,92675,1,0,0:0:0:0:
192,192,92756,1,0,0:0:0:0:
64,192,92756,1,0,0:0:0:0:
320,192,92837,1,0,0:0:0:0:
448,192,92918,1,0,0:0:0:0:
64,192,92999,1,0,0:0:0:0:
192,192,93081,1,0,0:0:0:0:
320,192,93081,1,0,0:0:0:0:
448,192,93162,1,0,0:0:0:0:
64,192,93243,1,0,0:0:0:0:
192,192,93324,1,0,0:0:0:0:
320,192,93405,128,0,93486:0:0:0:0:
448,192,93405,1,0,0:0:0:0:
192,192,93486,1,0,0:0:0:0:
448,192,93567,1,0,0:0:0:0:
64,192,93648,1,0,0:0:0:0:
320,192,93729,1,0,0:0:0:0:
192,192,93810,1,0,0:0:0:0:
448,192,93891,128,0,93972:0:0:0:0:
64,192,93891,1,0,0:0:0:0:
320,192,93972,1,0,0:0:0:0:
192,192,94054,1,0,0:0:0:0:
320,192,94135,1,0,0:0:0:0:
448,192,94216,1,0,0:0:0:0:
64,192,94297,1,0,0:0:0:0:
192,192,94378,128,0,94459:0:0:0:0:
320,192,94378,1,0,0:0:0:0:
64,192,94459,1,0,0:0:0:0:
448,192,94540,1,0,0:0:0:0:
320,192,94621,1,0,0:0:0:0:
64,192,94702,128,0,94783:0:0:0:0:
192,192,94702,1,0,0:0:0:0:
448,192,94783,1,0,0:0:0:0:
320,192,94864,1,0,0:0:0:0:
192,192,94945,1,0,0:0:0:0:
320,192,95027,1,0,0:0:0:0:
64,192,95108,1,0,0:0:0:0:
448,192,95189,128,0,95270:0:0:0:0:
192,192,95189,1,0,0:0:0:0:
64,192,95270,1,0,0:0:0:0:
320,192,95351,1,0,0:0:0:0:
192,192,95432,1,0,0:0:0:0:
64,192,95513,1,0,0:0:0:0:
448,192,95594,1,0,0:0:0:0:
192,192,95675,128,0,95756:0:0:0:0:
320,192,95675,1,0,0:0:0:0:
64,192,95756,1,0,0:0:0:0:
320,192,95837,1,0,0:0:0:0:
448,192,95918,1,0,0:0:0:0:
192,192,95999,128,0,96081:0:0:0:0:
64,192,95999,1,0,0:0:0:0:
320,192,96081,1,0,0:0:0:0:
448,192,96162,1,0,0:0:0:0:
320,192,96243,1,0,0:0:0:0:
192,192,96324,1,0,0:0:0:0:
64,192,96324,1,0,0:0:0:0:
448,192,96405,1,0,0:0:0:0:
320,192,96486,1,0,0:0:0:0:
64,192,96567,1,0,0:0:0:0:
192,192,96648,1,0,0:0:0:0:
448,192,96648,1,0,0:0:0:0:
320,192,96729,1,0,0:0:0:0:
64,192,96810,1,0,0:0:0:0:
448,192,96891,1,0,0:0:0:0:
192,192,96972,1,0,0:0:0:0:
320,192,96972,1,0,0:0:0:0:
64,192,97054,1,0,0:0:0:0:
448,192,97135,1,0,0:0:0:0:
192,192,97216,1,0,0:0:0:0:
192,192,97783,1,0,0:0:0:0:
64,192,97864,128,0,97945:0:0:0:0:
448,192,97945,128,0,98027:0:0:0:0:
320,192,98027,128,0,98108:0:0:0:0:
320,192,98270,128,0,98351:0:0:0:0:
192,192,98432,1,0,0:0:0:0:
448,192,98432,1,0,0:0:0:0:
320,192,98594,5,0,0:0:0:0:
192,192,98594,1,0,0:0:0:0:
64,192,98594,1,0,0:0:0:0:
448,192,98675,1,0,0:0:0:0:
320,192,98756,1,0,0:0:0:0:
64,192,98756,1,0,0:0:0:0:
192,192,98837,1,0,0:0:0:0:
320,192,98918,1,0,0:0:0:0:
448,192,98918,1,0,0:0:0:0:
64,192,98918,1,0,0:0:0:0:
192,192,98999,1,0,0:0:0:0:
448,192,99081,1,0,0:0:0:0:
64,192,99081,1,0,0:0:0:0:
320,192,99162,1,0,0:0:0:0:
448,192,99243,1,0,0:0:0:0:
192,192,99243,1,0,0:0:0:0:
64,192,99243,1,0,0:0:0:0:
320,192,99324,1,0,0:0:0:0:
448,192,99405,1,0,0:0:0:0:
192,192,99405,1,0,0:0:0:0:
64,192,99486,1,0,0:0:0:0:
448,192,99567,1,0,0:0:0:0:
320,192,99567,1,0,0:0:0:0:
192,192,99567,1,0,0:0:0:0:
64,192,99648,1,0,0:0:0:0:
320,192,99729,1,0,0:0:0:0:
192,192,99729,1,0,0:0:0:0:
448,192,99810,1,0,0:0:0:0:
320,192,99891,1,0,0:0:0:0:
192,192,99891,1,0,0:0:0:0:
64,192,99891,1,0,0:0:0:0:
448,192,99972,1,0,0:0:0:0:
192,192,100054,1,0,0:0:0:0:
64,192,100054,1,0,0:0:0:0:
320,192,100135,1,0,0:0:0:0:
448,192,100216,1,0,0:0:0:0:
192,192,100216,1,0,0:0:0:0:
64,192,100216,1,0,0:0:0:0:
320,192,100297,1,0,0:0:0:0:
448,192,100378,1,0,0:0:0:0:
64,192,100378,1,0,0:0:0:0:
192,192,100459,1,0,0:0:0:0:
448,192,100540,1,0,0:0:0:0:
320,192,100540,1,0,0:0:0:0:
64,192,100540,1,0,0:0:0:0:
192,192,100621,1,0,0:0:0:0:
320,192,100702,1,0,0:0:0:0:
448,192,100702,1,0,0:0:0:0:
64,192,100783,1,0,0:0:0:0:
320,192,100864,1,0,0:0:0:0:
448,192,100864,1,0,0:0:0:0:
192,192,100864,1,0,0:0:0:0:
64,192,100945,1,0,0:0:0:0:
320,192,101027,1,0,0:0:0:0:
192,192,101027,1,0,0:0:0:0:
448,192,101108,1,0,0:0:0:0:
320,192,101189,1,0,0:0:0:0:
192,192,101189,1,0,0:0:0:0:
64,192,101189,1,0,0:0:0:0:
448,192,101270,1,0,0:0:0:0:
320,192,101351,1,0,0:0:0:0:
64,192,101351,1,0,0:0:0:0:
192,192,101432,1,0,0:0:0:0:
448,192,101513,1,0,0:0:0:0:
320,192,101513,1,0,0:0:0:0:
64,192,101513,1,0,0:0:0:0:
192,192,101594,1,0,0:0:0:0:
448,192,101675,1,0,0:0:0:0:
64,192,101675,1,0,0:0:0:0:
320,192,101756,1,0,0:0:0:0:
448,192,101837,1,0,0:0:0:0:
192,192,101837,1,0,0:0:0:0:
64,192,101837,1,0,0:0:0:0:
320,192,101918,1,0,0:0:0:0:
448,192,101999,1,0,0:0:0:0:
192,192,101999,1,0,0:0:0:0:
64,192,102081,1,0,0:0:0:0:
320,192,102162,1,0,0:0:0:0:
448,192,102162,1,0,0:0:0:0:
192,192,102162,1,0,0:0:0:0:
64,192,102243,1,0,0:0:0:0:
320,192,102324,1,0,0:0:0:0:
192,192,102324,1,0,0:0:0:0:
448,192,102405,1,0,0:0:0:0:
320,192,102486,1,0,0:0:0:0:
192,192,102486,1,0,0:0:0:0:
64,192,102486,1,0,0:0:0:0:
448,192,102567,1,0,0:0:0:0:
320,192,102648,1,0,0:0:0:0:
64,192,102648,1,0,0:0:0:0:
192,192,102729,1,0,0:0:0:0:
448,192,102810,1,0,0:0:0:0:
320,192,102810,1,0,0:0:0:0:
64,192,102810,1,0,0:0:0:0:
192,192,102891,1,0,0:0:0:0:
448,192,102972,1,0,0:0:0:0:
64,192,102972,1,0,0:0:0:0:
320,192,103054,1,0,0:0:0:0:
448,192,103135,1,0,0:0:0:0:
192,192,103135,1,0,0:0:0:0:
64,192,103135,1,0,0:0:0:0:
320,192,103216,1,0,0:0:0:0:
192,192,103297,1,0,0:0:0:0:
64,192,103297,1,0,0:0:0:0:
448,192,103378,1,0,0:0:0:0:
320,192,103459,1,0,0:0:0:0:
192,192,103459,1,0,0:0:0:0:
64,192,103459,1,0,0:0:0:0:
448,192,103540,1,0,0:0:0:0:
320,192,103621,1,0,0:0:0:0:
192,192,103621,1,0,0:0:0:0:
64,192,103702,1,0,0:0:0:0:
448,192,103783,1,0,0:0:0:0:
320,192,103783,1,0,0:0:0:0:
192,192,103783,1,0,0:0:0:0:
64,192,103864,1,0,0:0:0:0:
448,192,103945,1,0,0:0:0:0:
320,192,103945,1,0,0:0:0:0:
192,192,104027,1,0,0:0:0:0:
448,192,104108,1,0,0:0:0:0:
320,192,104108,1,0,0:0:0:0:
64,192,104108,1,0,0:0:0:0:
192,192,104189,1,0,0:0:0:0:
448,192,104270,1,0,0:0:0:0:
64,192,104270,1,0,0:0:0:0:
320,192,104351,1,0,0:0:0:0:
448,192,104432,1,0,0:0:0:0:
192,192,104432,1,0,0:0:0:0:
64,192,104432,1,0,0:0:0:0:
320,192,104513,1,0,0:0:0:0:
448,192,104594,1,0,0:0:0:0:
192,192,104594,1,0,0:0:0:0:
64,192,104675,1,0,0:0:0:0:
448,192,104756,1,0,0:0:0:0:
320,192,104756,1,0,0:0:0:0:
192,192,104756,1,0,0:0:0:0:
64,192,104837,1,0,0:0:0:0:
320,192,104918,1,0,0:0:0:0:
192,192,104918,1,0,0:0:0:0:
448,192,104999,1,0,0:0:0:0:
320,192,105081,1,0,0:0:0:0:
192,192,105081,1,0,0:0:0:0:
64,192,105081,1,0,0:0:0:0:
448,192,105162,1,0,0:0:0:0:
320,192,105243,1,0,0:0:0:0:
64,192,105243,1,0,0:0:0:0:
192,192,105324,1,0,0:0:0:0:
448,192,105405,1,0,0:0:0:0:
320,192,105405,1,0,0:0:0:0:
64,192,105405,1,0,0:0:0:0:
192,192,105486,1,0,0:0:0:0:
448,192,105567,1,0,0:0:0:0:
64,192,105567,1,0,0:0:0:0:
320,192,105648,1,0,0:0:0:0:
448,192,105729,1,0,0:0:0:0:
192,192,105729,1,0,0:0:0:0:
64,192,105729,1,0,0:0:0:0:
320,192,105810,1,0,0:0:0:0:
448,192,105891,1,0,0:0:0:0:
192,192,105891,1,0,0:0:0:0:
64,192,105972,1,0,0:0:0:0:
448,192,106054,1,0,0:0:0:0:
320,192,106054,1,0,0:0:0:0:
192,192,106054,1,0,0:0:0:0:
64,192,106135,1,0,0:0:0:0:
320,192,106216,1,0,0:0:0:0:
192,192,106216,1,0,0:0:0:0:
448,192,106297,1,0,0:0:0:0:
320,192,106378,1,0,0:0:0:0:
192,192,106378,1,0,0:0:0:0:
64,192,106378,1,0,0:0:0:0:
448,192,106459,1,0,0:0:0:0:
320,192,106540,1,0,0:0:0:0:
64,192,106540,1,0,0:0:0:0:
192,192,106621,1,0,0:0:0:0:
448,192,106702,1,0,0:0:0:0:
320,192,106702,1,0,0:0:0:0:
64,192,106702,1,0,0:0:0:0:
192,192,106783,1,0,0:0:0:0:
448,192,106864,1,0,0:0:0:0:
64,192,106864,1,0,0:0:0:0:
320,192,106945,1,0,0:0:0:0:
448,192,107027,1,0,0:0:0:0:
192,192,107027,1,0,0:0:0:0:
64,192,107027,1,0,0:0:0:0:
320,192,107108,1,0,0:0:0:0:
448,192,107189,1,0,0:0:0:0:
192,192,107189,1,0,0:0:0:0:
64,192,107270,1,0,0:0:0:0:
448,192,107351,1,0,0:0:0:0:
320,192,107351,1,0,0:0:0:0:
192,192,107351,1,0,0:0:0:0:
64,192,107432,1,0,0:0:0:0:
320,192,107513,1,0,0:0:0:0:
192,192,107513,1,0,0:0:0:0:
448,192,107594,1,0,0:0:0:0:
320,192,107675,1,0,0:0:0:0:
192,192,107675,1,0,0:0:0:0:
64,192,107675,1,0,0:0:0:0:
448,192,107756,1,0,0:0:0:0:
192,192,107837,1,0,0:0:0:0:
64,192,107918,1,0,0:0:0:0:
320,192,107999,1,0,0:0:0:0:
448,192,107999,1,0,0:0:0:0:
192,192,107999,1,0,0:0:0:0:
64,192,108081,1,0,0:0:0:0:
192,192,108162,1,0,0:0:0:0:
448,192,108243,1,0,0:0:0:0:
320,192,108324,1,0,0:0:0:0:
448,192,108405,1,0,0:0:0:0:
192,192,108486,1,0,0:0:0:0:
64,192,108486,1,0,0:0:0:0:
320,192,108567,1,0,0:0:0:0:
448,192,108648,1,0,0:0:0:0:
192,192,108648,1,0,0:0:0:0:
64,192,108648,1,0,0:0:0:0:
320,192,108729,1,0,0:0:0:0:
64,192,108810,1,0,0:0:0:0:
192,192,108891,1,0,0:0:0:0:
448,192,108972,1,0,0:0:0:0:
320,192,108972,1,0,0:0:0:0:
64,192,108972,1,0,0:0:0:0:
192,192,109054,1,0,0:0:0:0:
448,192,109135,1,0,0:0:0:0:
320,192,109135,1,0,0:0:0:0:
64,192,109216,1,0,0:0:0:0:
448,192,109297,1,0,0:0:0:0:
320,192,109297,1,0,0:0:0:0:
192,192,109297,1,0,0:0:0:0:
64,192,109378,1,0,0:0:0:0:
448,192,109459,1,0,0:0:0:0:
192,192,109459,1,0,0:0:0:0:
320,192,109540,1,0,0:0:0:0:
448,192,109621,1,0,0:0:0:0:
192,192,109621,1,0,0:0:0:0:
64,192,109621,1,0,0:0:0:0:
320,192,109702,1,0,0:0:0:0:
192,192,109783,1,0,0:0:0:0:
64,192,109783,1,0,0:0:0:0:
448,192,109864,1,0,0:0:0:0:
320,192,109945,1,0,0:0:0:0:
192,192,109945,1,0,0:0:0:0:
64,192,109945,1,0,0:0:0:0:
448,192,110027,1,0,0:0:0:0:
320,192,110108,1,0,0:0:0:0:
64,192,110108,1,0,0:0:0:0:
192,192,110189,1,0,0:0:0:0:
448,192,110270,1,0,0:0:0:0:
320,192,110270,1,0,0:0:0:0:
64,192,110270,1,0,0:0:0:0:
192,192,110351,1,0,0:0:0:0:
448,192,110432,1,0,0:0:0:0:
64,192,110432,1,0,0:0:0:0:
192,192,110513,1,0,0:0:0:0:
448,192,110594,1,0,0:0:0:0:
320,192,110594,1,0,0:0:0:0:
64,192,110594,1,0,0:0:0:0:
192,192,110675,1,0,0:0:0:0:
320,192,110756,1,0,0:0:0:0:
448,192,110756,1,0,0:0:0:0:
64,192,110837,1,0,0:0:0:0:
320,192,110918,1,0,0:0:0:0:
448,192,110918,1,0,0:0:0:0:
192,192,110918,1,0,0:0:0:0:
64,192,110999,1,0,0:0:0:0:
320,192,111081,1,0,0:0:0:0:
192,192,111081,1,0,0:0:0:0:
448,192,111162,1,0,0:0:0:0:
320,192,111243,1,0,0:0:0:0:
192,192,111243,1,0,0:0:0:0:
64,192,111243,1,0,0:0:0:0:
448,192,111324,1,0,0:0:0:0:
192,192,111405,1,0,0:0:0:0:
64,192,111405,1,0,0:0:0:0:
320,192,111486,1,0,0:0:0:0:
448,192,111567,1,0,0:0:0:0:
192,192,111567,1,0,0:0:0:0:
64,192,111567,1,0,0:0:0:0:
320,192,111648,1,0,0:0:0:0:
448,192,111729,1,0,0:0:0:0:
64,192,111729,1,0,0:0:0:0:
320,192,111810,1,0,0:0:0:0:
448,192,111891,1,0,0:0:0:0:
192,192,111891,1,0,0:0:0:0:
64,192,111891,1,0,0:0:0:0:
320,192,111972,1,0,0:0:0:0:
448,192,112054,1,0,0:0:0:0:
192,192,112054,1,0,0:0:0:0:
64,192,112135,1,0,0:0:0:0:
320,192,112216,1,0,0:0:0:0:
448,192,112216,1,0,0:0:0:0:
192,192,112216,1,0,0:0:0:0:
64,192,112297,1,0,0:0:0:0:
320,192,112378,1,0,0:0:0:0:
192,192,112378,1,0,0:0:0:0:
448,192,112459,1,0,0:0:0:0:
320,192,112540,1,0,0:0:0:0:
192,192,112540,1,0,0:0:0:0:
64,192,112540,1,0,0:0:0:0:
448,192,112621,1,0,0:0:0:0:
320,192,112702,1,0,0:0:0:0:
64,192,112702,1,0,0:0:0:0:
192,192,112783,1,0,0:0:0:0:
448,192,112864,1,0,0:0:0:0:
320,192,112864,1,0,0:0:0:0:
64,192,112864,1,0,0:0:0:0:
192,192,112945,1,0,0:0:0:0:
448,192,113027,1,0,0:0:0:0:
64,192,113027,1,0,0:0:0:0:
320,192,113108,1,0,0:0:0:0:
448,192,113189,1,0,0:0:0:0:
192,192,113189,1,0,0:0:0:0:
64,192,113189,1,0,0:0:0:0:
320,192,113270,1,0,0:0:0:0:
448,192,113351,1,0,0:0:0:0:
192,192,113351,1,0,0:0:0:0:
64,192,113432,1,0,0:0:0:0:
448,192,113513,1,0,0:0:0:0:
320,192,113513,1,0,0:0:0:0:
192,192,113513,1,0,0:0:0:0:
64,192,113594,1,0,0:0:0:0:
320,192,113675,1,0,0:0:0:0:
192,192,113675,1,0,0:0:0:0:
448,192,113756,1,0,0:0:0:0:
320,192,113837,1,0,0:0:0:0:
192,192,113837,1,0,0:0:0:0:
64,192,113837,1,0,0:0:0:0:
448,192,113918,1,0,0:0:0:0:
320,192,113999,1,0,0:0:0:0:
64,192,113999,1,0,0:0:0:0:
192,192,114081,1,0,0:0:0:0:
448,192,114162,1,0,0:0:0:0:
320,192,114162,1,0,0:0:0:0:
64,192,114162,1,0,0:0:0:0:
192,192,114243,1,0,0:0:0:0:
448,192,114324,1,0,0:0:0:0:
64,192,114324,1,0,0:0:0:0:
320,192,114405,1,0,0:0:0:0:
448,192,114486,1,0,0:0:0:0:
192,192,114486,1,0,0:0:0:0:
64,192,114486,1,0,0:0:0:0:
320,192,114567,1,0,0:0:0:0:
448,192,114648,1,0,0:0:0:0:
192,192,114648,1,0,0:0:0:0:
64,192,114729,1,0,0:0:0:0:
320,192,114810,1,0,0:0:0:0:
448,192,114810,1,0,0:0:0:0:
192,192,114810,1,0,0:0:0:0:
64,192,114891,1,0,0:0:0:0:
320,192,114972,1,0,0:0:0:0:
192,192,114972,1,0,0:0:0:0:
64,192,115054,1,0,0:0:0:0:
320,192,115135,1,0,0:0:0:0:
448,192,115135,1,0,0:0:0:0:
192,192,115135,1,0,0:0:0:0:
64,192,115216,1,0,0:0:0:0:
448,192,115297,1,0,0:0:0:0:
320,192,115297,1,0,0:0:0:0:
192,192,115378,1,0,0:0:0:0:
448,192,115459,1,0,0:0:0:0:
320,192,115459,1,0,0:0:0:0:
64,192,115459,1,0,0:0:0:0:
192,192,115540,1,0,0:0:0:0:
448,192,115621,1,0,0:0:0:0:
64,192,115621,1,0,0:0:0:0:
320,192,115702,1,0,0:0:0:0:
448,192,115783,1,0,0:0:0:0:
192,192,115783,1,0,0:0:0:0:
64,192,115783,1,0,0:0:0:0:
320,192,115864,1,0,0:0:0:0:
192,192,115945,1,0,0:0:0:0:
64,192,115945,1,0,0:0:0:0:
448,192,116027,1,0,0:0:0:0:
320,192,116108,1,0,0:0:0:0:
192,192,116108,1,0,0:0:0:0:
64,192,116108,1,0,0:0:0:0:
448,192,116189,1,0,0:0:0:0:
320,192,116270,1,0,0:0:0:0:
192,192,116270,1,0,0:0:0:0:
448,192,116351,1,0,0:0:0:0:
320,192,116432,1,0,0:0:0:0:
192,192,116432,1,0,0:0:0:0:
64,192,116432,1,0,0:0:0:0:
448,192,116513,1,0,0:0:0:0:
320,192,116594,1,0,0:0:0:0:
64,192,116594,1,0,0:0:0:0:
192,192,116675,1,0,0:0:0:0:
448,192,116756,1,0,0:0:0:0:
320,192,116756,1,0,0:0:0:0:
64,192,116756,1,0,0:0:0:0:
192,192,116837,1,0,0:0:0:0:
448,192,116918,1,0,0:0:0:0:
192,192,116999,1,0,0:0:0:0:
448,192,117081,1,0,0:0:0:0:
320,192,117081,128,0,117162:0:0:0:0:
192,192,117162,1,0,0:0:0:0:
448,192,117243,1,0,0:0:0:0:
64,192,117243,128,0,117324:0:0:0:0:
192,192,117324,1,0,0:0:0:0:
448,192,117405,1,0,0:0:0:0:
192,192,117486,1,0,0:0:0:0:
448,192,117567,1,0,0:0:0:0:
64,192,117567,128,0,117648:0:0:0:0:
192,192,117648,1,0,0:0:0:0:
448,192,117729,1,0,0:0:0:0:
192,192,117810,1,0,0:0:0:0:
448,192,117891,1,0,0:0:0:0:
320,192,117891,128,0,117972:0:0:0:0:
192,192,117972,1,0,0:0:0:0:
448,192,118054,1,0,0:0:0:0:
192,192,118135,1,0,0:0:0:0:
448,192,118216,1,0,0:0:0:0:
192,192,118297,1,0,0:0:0:0:
448,192,118378,1,0,0:0:0:0:
192,192,118459,1,0,0:0:0:0:
448,192,118540,1,0,0:0:0:0:
192,192,118621,1,0,0:0:0:0:
448,192,118702,1,0,0:0:0:0:
64,192,118702,1,0,0:0:0:0:
64,192,118864,1,0,0:0:0:0:
192,192,118864,1,0,0:0:0:0:
448,192,119027,1,0,0:0:0:0:
320,192,119027,1,0,0:0:0:0:
320,192,119189,1,0,0:0:0:0:
192,192,119189,1,0,0:0:0:0:
192,192,119351,1,0,0:0:0:0:
448,192,119351,1,0,0:0:0:0:
64,192,119351,1,0,0:0:0:0:
320,192,119432,1,0,0:0:0:0:
64,192,119513,1,0,0:0:0:0:
448,192,119594,1,0,0:0:0:0:
192,192,119594,1,0,0:0:0:0:
320,192,119675,1,0,0:0:0:0:
64,192,119675,1,0,0:0:0:0:
448,192,119756,1,0,0:0:0:0:
320,192,119837,1,0,0:0:0:0:
192,192,119837,1,0,0:0:0:0:
64,192,119918,1,0,0:0:0:0:
320,192,119999,1,0,0:0:0:0:
448,192,119999,1,0,0:0:0:0:
192,192,119999,1,0,0:0:0:0:
64,192,120081,1,0,0:0:0:0:
448,192,120162,1,0,0:0:0:0:
320,192,120243,1,0,0:0:0:0:
192,192,120324,1,0,0:0:0:0:
448,192,120324,1,0,0:0:0:0:
64,192,120324,1,0,0:0:0:0:
320,192,120405,1,0,0:0:0:0:
192,192,120486,1,0,0:0:0:0:
448,192,120567,1,0,0:0:0:0:
320,192,120648,1,0,0:0:0:0:
192,192,120648,1,0,0:0:0:0:
64,192,120648,1,0,0:0:0:0:
448,192,120729,1,0,0:0:0:0:
64,192,120810,1,0,0:0:0:0:
320,192,120891,1,0,0:0:0:0:
192,192,120891,1,0,0:0:0:0:
448,192,120972,1,0,0:0:0:0:
64,192,120972,1,0,0:0:0:0:
320,192,121054,1,0,0:0:0:0:
192,192,121135,1,0,0:0:0:0:
448,192,121135,1,0,0:0:0:0:
64,192,121216,1,0,0:0:0:0:
320,192,121297,1,0,0:0:0:0:
192,192,121297,1,0,0:0:0:0:
448,192,121297,1,0,0:0:0:0:
64,192,121378,1,0,0:0:0:0:
320,192,121459,1,0,0:0:0:0:
448,192,121540,1,0,0:0:0:0:
320,192,121621,1,0,0:0:0:0:
192,192,121621,1,0,0:0:0:0:
64,192,121621,1,0,0:0:0:0:
448,192,121702,1,0,0:0:0:0:
64,192,121783,1,0,0:0:0:0:
192,192,121864,1,0,0:0:0:0:
320,192,121945,1,0,0:0:0:0:
448,192,121945,1,0,0:0:0:0:
64,192,121945,1,0,0:0:0:0:
192,192,122027,1,0,0:0:0:0:
448,192,122108,1,0,0:0:0:0:
320,192,122189,1,0,0:0:0:0:
64,192,122189,1,0,0:0:0:0:
192,192,122270,1,0,0:0:0:0:
448,192,122270,1,0,0:0:0:0:
320,192,122351,1,0,0:0:0:0:
192,192,122432,1,0,0:0:0:0:
64,192,122432,1,0,0:0:0:0:
448,192,122513,1,0,0:0:0:0:
320,192,122594,1,0,0:0:0:0:
192,192,122594,1,0,0:0:0:0:
64,192,122594,1,0,0:0:0:0:
448,192,122675,1,0,0:0:0:0:
320,192,122756,1,0,0:0:0:0:
192,192,122837,1,0,0:0:0:0:
320,192,122918,1,0,0:0:0:0:
448,192,122918,1,0,0:0:0:0:
64,192,122918,1,0,0:0:0:0:
192,192,122999,1,0,0:0:0:0:
64,192,123081,1,0,0:0:0:0:
448,192,123162,1,0,0:0:0:0:
320,192,123243,1,0,0:0:0:0:
192,192,123243,1,0,0:0:0:0:
64,192,123243,1,0,0:0:0:0:
448,192,123324,1,0,0:0:0:0:
320,192,123405,1,0,0:0:0:0:
64,192,123486,1,0,0:0:0:0:
448,192,123567,1,0,0:0:0:0:
320,192,123567,1,0,0:0:0:0:
192,192,123567,1,0,0:0:0:0:
64,192,123648,1,0,0:0:0:0:
192,192,123729,1,0,0:0:0:0:
448,192,123810,1,0,0:0:0:0:
320,192,123891,1,0,0:0:0:0:
192,192,123891,1,0,0:0:0:0:
64,192,123891,1,0,0:0:0:0:
448,192,123972,1,0,0:0:0:0:
320,192,124054,1,0,0:0:0:0:
64,192,124054,1,0,0:0:0:0:
192,192,124135,1,0,0:0:0:0:
320,192,124216,1,0,0:0:0:0:
448,192,124216,1,0,0:0:0:0:
64,192,124216,1,0,0:0:0:0:
192,192,124297,1,0,0:0:0:0:
448,192,124378,1,0,0:0:0:0:
320,192,124378,1,0,0:0:0:0:
64,192,124459,1,0,0:0:0:0:
192,192,124540,1,0,0:0:0:0:
320,192,124540,1,0,0:0:0:0:
448,192,124540,1,0,0:0:0:0:
64,192,124621,1,0,0:0:0:0:
448,192,124702,1,0,0:0:0:0:
192,192,124783,1,0,0:0:0:0:
320,192,124783,1,0,0:0:0:0:
448,192,124864,1,0,0:0:0:0:
64,192,124864,1,0,0:0:0:0:
192,192,124945,1,0,0:0:0:0:
320,192,125027,1,0,0:0:0:0:
64,192,125027,1,0,0:0:0:0:
448,192,125108,1,0,0:0:0:0:
320,192,125189,1,0,0:0:0:0:
192,192,125189,1,0,0:0:0:0:
64,192,125189,1,0,0:0:0:0:
448,192,125270,1,0,0:0:0:0:
192,192,125351,1,0,0:0:0:0:
320,192,125432,1,0,0:0:0:0:
192,192,125513,1,0,0:0:0:0:
448,192,125513,1,0,0:0:0:0:
64,192,125513,1,0,0:0:0:0:
320,192,125594,1,0,0:0:0:0:
448,192,125675,1,0,0:0:0:0:
192,192,125756,1,0,0:0:0:0:
448,192,125837,1,0,0:0:0:0:
320,192,125837,1,0,0:0:0:0:
64,192,125837,1,0,0:0:0:0:
192,192,125918,1,0,0:0:0:0:
64,192,125999,1,0,0:0:0:0:
320,192,126081,1,0,0:0:0:0:
448,192,126081,1,0,0:0:0:0:
192,192,126162,1,0,0:0:0:0:
64,192,126162,1,0,0:0:0:0:
320,192,126243,1,0,0:0:0:0:
448,192,126324,1,0,0:0:0:0:
192,192,126324,1,0,0:0:0:0:
64,192,126405,1,0,0:0:0:0:
320,192,126486,1,0,0:0:0:0:
448,192,126486,1,0,0:0:0:0:
192,192,126486,1,0,0:0:0:0:
64,192,126567,1,0,0:0:0:0:
320,192,126648,1,0,0:0:0:0:
192,192,126729,1,0,0:0:0:0:
448,192,126810,1,0,0:0:0:0:
320,192,126810,1,0,0:0:0:0:
64,192,126810,1,0,0:0:0:0:
192,192,126891,1,0,0:0:0:0:
448,192,126972,1,0,0:0:0:0:
320,192,127054,1,0,0:0:0:0:
192,192,127135,1,0,0:0:0:0:
448,192,127135,1,0,0:0:0:0:
64,192,127135,1,0,0:0:0:0:
320,192,127216,1,0,0:0:0:0:
64,192,127297,1,0,0:0:0:0:
448,192,127378,1,0,0:0:0:0:
192,192,127378,1,0,0:0:0:0:
320,192,127459,1,0,0:0:0:0:
64,192,127459,1,0,0:0:0:0:
448,192,127540,1,0,0:0:0:0:
320,192,127621,1,0,0:0:0:0:
192,192,127621,1,0,0:0:0:0:
64,192,127702,1,0,0:0:0:0:
320,192,127783,1,0,0:0:0:0:
448,192,127783,1,0,0:0:0:0:
192,192,127783,1,0,0:0:0:0:
64,192,127864,1,0,0:0:0:0:
448,192,127945,1,0,0:0:0:0:
192,192,128027,1,0,0:0:0:0:
320,192,128108,1,0,0:0:0:0:
448,192,128108,1,0,0:0:0:0:
64,192,128108,1,0,0:0:0:0:
192,192,128189,1,0,0:0:0:0:
320,192,128270,1,0,0:0:0:0:
64,192,128351,1,0,0:0:0:0:
320,192,128432,1,0,0:0:0:0:
192,192,128432,1,0,0:0:0:0:
448,192,128432,1,0,0:0:0:0:
64,192,128513,1,0,0:0:0:0:
320,192,128594,1,0,0:0:0:0:
448,192,128675,1,0,0:0:0:0:
320,192,128756,1,0,0:0:0:0:
192,192,128756,1,0,0:0:0:0:
64,192,128756,1,0,0:0:0:0:
448,192,128837,1,0,0:0:0:0:
64,192,128918,1,0,0:0:0:0:
192,192,128999,1,0,0:0:0:0:
448,192,129081,1,0,0:0:0:0:
320,192,129162,1,0,0:0:0:0:
192,192,129243,1,0,0:0:0:0:
448,192,129243,1,0,0:0:0:0:
64,192,129243,1,0,0:0:0:0:
320,192,129324,1,0,0:0:0:0:
192,192,129405,1,0,0:0:0:0:
448,192,129405,1,0,0:0:0:0:
64,192,129405,1,0,0:0:0:0:
320,192,129486,1,0,0:0:0:0:
192,192,129567,1,0,0:0:0:0:
64,192,129567,1,0,0:0:0:0:
448,192,129648,1,0,0:0:0:0:
320,192,129729,1,0,0:0:0:0:
192,192,129729,1,0,0:0:0:0:
64,192,129729,1,0,0:0:0:0:
448,192,129810,1,0,0:0:0:0:
320,192,129891,1,0,0:0:0:0:
192,192,129972,1,0,0:0:0:0:
64,192,129972,1,0,0:0:0:0:
320,192,130054,1,0,0:0:0:0:
448,192,130054,1,0,0:0:0:0:
64,192,130135,1,0,0:0:0:0:
192,192,130216,1,0,0:0:0:0:
448,192,130216,1,0,0:0:0:0:
320,192,130297,1,0,0:0:0:0:
192,192,130378,1,0,0:0:0:0:
448,192,130378,1,0,0:0:0:0:
64,192,130378,1,0,0:0:0:0:
320,192,130459,1,0,0:0:0:0:
64,192,130540,1,0,0:0:0:0:
448,192,130621,1,0,0:0:0:0:
320,192,130702,1,0,0:0:0:0:
192,192,130702,1,0,0:0:0:0:
64,192,130702,1,0,0:0:0:0:
448,192,130783,1,0,0:0:0:0:
192,192,130864,1,0,0:0:0:0:
64,192,130945,1,0,0:0:0:0:
320,192,131027,1,0,0:0:0:0:
448,192,131027,1,0,0:0:0:0:
192,192,131027,1,0,0:0:0:0:
64,192,131108,1,0,0:0:0:0:
320,192,131189,1,0,0:0:0:0:
192,192,131270,1,0,0:0:0:0:
448,192,131270,1,0,0:0:0:0:
320,192,131351,1,0,0:0:0:0:
64,192,131351,1,0,0:0:0:0:
192,192,131432,1,0,0:0:0:0:
448,192,131513,1,0,0:0:0:0:
64,192,131513,1,0,0:0:0:0:
320,192,131594,1,0,0:0:0:0:
192,192,131675,1,0,0:0:0:0:
448,192,131675,1,0,0:0:0:0:
64,192,131675,1,0,0:0:0:0:
320,192,131756,1,0,0:0:0:0:
192,192,131837,1,0,0:0:0:0:
448,192,131918,1,0,0:0:0:0:
320,192,131999,1,0,0:0:0:0:
192,192,131999,1,0,0:0:0:0:
64,192,131999,1,0,0:0:0:0:
448,192,132081,1,0,0:0:0:0:
320,192,132162,1,0,0:0:0:0:
64,192,132243,1,0,0:0:0:0:
320,192,132324,1,0,0:0:0:0:
448,192,132324,1,0,0:0:0:0:
192,192,132324,1,0,0:0:0:0:
64,192,132405,1,0,0:0:0:0:
448,192,132486,1,0,0:0:0:0:
192,192,132567,1,0,0:0:0:0:
320,192,132567,1,0,0:0:0:0:
448,192,132648,1,0,0:0:0:0:
64,192,132648,1,0,0:0:0:0:
192,192,132729,1,0,0:0:0:0:
320,192,132810,1,0,0:0:0:0:
64,192,132810,1,0,0:0:0:0:
448,192,132891,1,0,0:0:0:0:
320,192,132972,1,0,0:0:0:0:
192,192,132972,1,0,0:0:0:0:
64,192,132972,1,0,0:0:0:0:
448,192,133054,1,0,0:0:0:0:
320,192,133135,1,0,0:0:0:0:
192,192,133135,1,0,0:0:0:0:
64,192,133135,1,0,0:0:0:0:
448,192,133216,1,0,0:0:0:0:
192,192,133297,1,0,0:0:0:0:
64,192,133378,1,0,0:0:0:0:
320,192,133459,1,0,0:0:0:0:
448,192,133459,1,0,0:0:0:0:
192,192,133459,1,0,0:0:0:0:
64,192,133540,1,0,0:0:0:0:
320,192,133621,1,0,0:0:0:0:
448,192,133702,1,0,0:0:0:0:
64,192,133783,1,0,0:0:0:0:
320,192,133864,1,0,0:0:0:0:
192,192,133945,1,0,0:0:0:0:
448,192,133945,1,0,0:0:0:0:
64,192,133945,1,0,0:0:0:0:
320,192,134027,1,0,0:0:0:0:
192,192,134108,1,0,0:0:0:0:
448,192,134189,1,0,0:0:0:0:
320,192,134270,1,0,0:0:0:0:
192,192,134270,1,0,0:0:0:0:
64,192,134270,1,0,0:0:0:0:
448,192,134351,1,0,0:0:0:0:
320,192,134432,1,0,0:0:0:0:
64,192,134432,1,0,0:0:0:0:
192,192,134513,1,0,0:0:0:0:
320,192,134594,1,0,0:0:0:0:
448,192,134594,1,0,0:0:0:0:
64,192,134594,1,0,0:0:0:0:
192,192,134675,1,0,0:0:0:0:
448,192,134756,1,0,0:0:0:0:
64,192,134756,1,0,0:0:0:0:
320,192,134837,1,0,0:0:0:0:
448,192,134918,1,0,0:0:0:0:
192,192,134918,1,0,0:0:0:0:
64,192,134918,1,0,0:0:0:0:
320,192,134999,1,0,0:0:0:0:
448,192,135081,1,0,0:0:0:0:
192,192,135081,1,0,0:0:0:0:
64,192,135162,1,0,0:0:0:0:
320,192,135243,1,0,0:0:0:0:
448,192,135243,1,0,0:0:0:0:
192,192,135243,1,0,0:0:0:0:
64,192,135324,1,0,0:0:0:0:
320,192,135405,1,0,0:0:0:0:
192,192,135405,1,0,0:0:0:0:
448,192,135486,1,0,0:0:0:0:
320,192,135567,1,0,0:0:0:0:
192,192,135567,1,0,0:0:0:0:
64,192,135567,1,0,0:0:0:0:
448,192,135648,1,0,0:0:0:0:
320,192,135729,1,0,0:0:0:0:
64,192,135729,1,0,0:0:0:0:
192,192,135810,1,0,0:0:0:0:
320,192,135891,1,0,0:0:0:0:
448,192,135891,1,0,0:0:0:0:
64,192,135891,1,0,0:0:0:0:
192,192,135972,1,0,0:0:0:0:
448,192,136054,1,0,0:0:0:0:
64,192,136054,1,0,0:0:0:0:
320,192,136135,1,0,0:0:0:0:
192,192,136216,1,0,0:0:0:0:
448,192,136216,1,0,0:0:0:0:
64,192,136216,1,0,0:0:0:0:
320,192,136297,1,0,0:0:0:0:
192,192,136378,1,0,0:0:0:0:
64,192,136378,1,0,0:0:0:0:
448,192,136459,1,0,0:0:0:0:
192,192,136540,1,0,0:0:0:0:
320,192,136540,1,0,0:0:0:0:
64,192,136540,1,0,0:0:0:0:
448,192,136621,1,0,0:0:0:0:
192,192,136702,1,0,0:0:0:0:
320,192,136702,1,0,0:0:0:0:
64,192,136783,1,0,0:0:0:0:
320,192,136864,1,0,0:0:0:0:
192,192,136864,1,0,0:0:0:0:
448,192,136864,1,0,0:0:0:0:
64,192,136945,1,0,0:0:0:0:
320,192,137027,1,0,0:0:0:0:
448,192,137027,1,0,0:0:0:0:
192,192,137108,1,0,0:0:0:0:
320,192,137189,1,0,0:0:0:0:
448,192,137189,1,0,0:0:0:0:
64,192,137189,1,0,0:0:0:0:
192,192,137270,1,0,0:0:0:0:
448,192,137351,1,0,0:0:0:0:
64,192,137351,1,0,0:0:0:0:
320,192,137432,1,0,0:0:0:0:
192,192,137513,1,0,0:0:0:0:
448,192,137513,1,0,0:0:0:0:
64,192,137513,1,0,0:0:0:0:
320,192,137594,1,0,0:0:0:0:
192,192,137675,1,0,0:0:0:0:
320,192,137756,1,0,0:0:0:0:
192,192,137837,1,0,0:0:0:0:
448,192,137837,128,0,137918:0:0:0:0:
320,192,137918,1,0,0:0:0:0:
192,192,137999,1,0,0:0:0:0:
64,192,137999,128,0,138081:0:0:0:0:
320,192,138081,1,0,0:0:0:0:
192,192,138162,1,0,0:0:0:0:
320,192,138243,1,0,0:0:0:0:
64,192,138324,128,0,138405:0:0:0:0:
192,192,138324,1,0,0:0:0:0:
320,192,138405,1,0,0:0:0:0:
192,192,138486,1,0,0:0:0:0:
320,192,138567,1,0,0:0:0:0:
448,192,138648,128,0,138729:0:0:0:0:
192,192,138648,1,0,0:0:0:0:
320,192,138729,1,0,0:0:0:0:
192,192,138810,1,0,0:0:0:0:
320,192,138891,1,0,0:0:0:0:
192,192,138972,1,0,0:0:0:0:
320,192,139054,1,0,0:0:0:0:
192,192,139135,1,0,0:0:0:0:
320,192,139216,1,0,0:0:0:0:
192,192,139297,1,0,0:0:0:0:
320,192,139378,1,0,0:0:0:0:
192,192,139459,1,0,0:0:0:0:
64,192,139459,1,0,0:0:0:0:
64,192,139621,1,0,0:0:0:0:
320,192,139621,1,0,0:0:0:0:
192,192,139783,1,0,0:0:0:0:
448,192,139783,1,0,0:0:0:0:
64,192,139945,1,0,0:0:0:0:
448,192,139945,1,0,0:0:0:0:
320,192,140108,5,0,0:0:0:0:
192,192,140108,1,0,0:0:0:0:
64,192,140108,1,0,0:0:0:0:
448,192,140189,1,0,0:0:0:0:
192,192,140270,1,0,0:0:0:0:
320,192,140270,1,0,0:0:0:0:
64,192,140351,1,0,0:0:0:0:
192,192,140432,1,0,0:0:0:0:
448,192,140432,1,0,0:0:0:0:
320,192,140432,1,0,0:0:0:0:
64,192,140513,1,0,0:0:0:0:
448,192,140594,1,0,0:0:0:0:
192,192,140594,1,0,0:0:0:0:
320,192,140675,1,0,0:0:0:0:
448,192,140756,1,0,0:0:0:0:
192,192,140756,1,0,0:0:0:0:
64,192,140756,1,0,0:0:0:0:
320,192,140837,1,0,0:0:0:0:
448,192,140918,1,0,0:0:0:0:
64,192,140918,1,0,0:0:0:0:
192,192,140999,1,0,0:0:0:0:
448,192,141081,1,0,0:0:0:0:
64,192,141081,1,0,0:0:0:0:
320,192,141081,1,0,0:0:0:0:
192,192,141162,1,0,0:0:0:0:
64,192,141243,1,0,0:0:0:0:
320,192,141243,1,0,0:0:0:0:
448,192,141324,1,0,0:0:0:0:
192,192,141405,1,0,0:0:0:0:
64,192,141405,1,0,0:0:0:0:
320,192,141405,1,0,0:0:0:0:
448,192,141486,1,0,0:0:0:0:
192,192,141567,1,0,0:0:0:0:
64,192,141567,1,0,0:0:0:0:
320,192,141648,1,0,0:0:0:0:
448,192,141729,1,0,0:0:0:0:
192,192,141729,1,0,0:0:0:0:
64,192,141729,1,0,0:0:0:0:
320,192,141810,1,0,0:0:0:0:
448,192,141891,1,0,0:0:0:0:
192,192,141891,1,0,0:0:0:0:
64,192,141972,1,0,0:0:0:0:
448,192,142054,1,0,0:0:0:0:
192,192,142054,1,0,0:0:0:0:
320,192,142054,1,0,0:0:0:0:
64,192,142135,1,0,0:0:0:0:
448,192,142216,1,0,0:0:0:0:
320,192,142216,1,0,0:0:0:0:
192,192,142297,1,0,0:0:0:0:
448,192,142378,1,0,0:0:0:0:
64,192,142378,1,0,0:0:0:0:
320,192,142378,1,0,0:0:0:0:
192,192,142459,1,0,0:0:0:0:
64,192,142540,1,0,0:0:0:0:
320,192,142540,1,0,0:0:0:0:
448,192,142621,1,0,0:0:0:0:
192,192,142702,1,0,0:0:0:0:
64,192,142702,1,0,0:0:0:0:
320,192,142702,1,0,0:0:0:0:
448,192,142783,1,0,0:0:0:0:
192,192,142864,1,0,0:0:0:0:
320,192,142864,1,0,0:0:0:0:
64,192,142945,1,0,0:0:0:0:
192,192,143027,1,0,0:0:0:0:
448,192,143027,1,0,0:0:0:0:
320,192,143027,1,0,0:0:0:0:
64,192,143108,1,0,0:0:0:0:
448,192,143189,1,0,0:0:0:0:
192,192,143189,1,0,0:0:0:0:
320,192,143270,1,0,0:0:0:0:
448,192,143351,1,0,0:0:0:0:
192,192,143351,1,0,0:0:0:0:
64,192,143351,1,0,0:0:0:0:
320,192,143432,1,0,0:0:0:0:
448,192,143513,1,0,0:0:0:0:
64,192,143513,1,0,0:0:0:0:
192,192,143594,1,0,0:0:0:0:
448,192,143675,1,0,0:0:0:0:
64,192,143675,1,0,0:0:0:0:
320,192,143675,1,0,0:0:0:0:
192,192,143756,1,0,0:0:0:0:
64,192,143837,1,0,0:0:0:0:
320,192,143837,1,0,0:0:0:0:
448,192,143918,1,0,0:0:0:0:
192,192,143999,1,0,0:0:0:0:
64,192,143999,1,0,0:0:0:0:
320,192,143999,1,0,0:0:0:0:
448,192,144081,1,0,0:0:0:0:
192,192,144162,1,0,0:0:0:0:
320,192,144162,1,0,0:0:0:0:
64,192,144243,1,0,0:0:0:0:
448,192,144324,1,0,0:0:0:0:
192,192,144324,1,0,0:0:0:0:
320,192,144324,1,0,0:0:0:0:
64,192,144405,1,0,0:0:0:0:
448,192,144486,1,0,0:0:0:0:
192,192,144486,1,0,0:0:0:0:
320,192,144567,1,0,0:0:0:0:
448,192,144648,1,0,0:0:0:0:
192,192,144648,1,0,0:0:0:0:
64,192,144648,1,0,0:0:0:0:
320,192,144729,1,0,0:0:0:0:
192,192,144810,1,0,0:0:0:0:
64,192,144810,1,0,0:0:0:0:
448,192,144891,1,0,0:0:0:0:
192,192,144972,1,0,0:0:0:0:
64,192,144972,1,0,0:0:0:0:
320,192,144972,1,0,0:0:0:0:
448,192,145054,1,0,0:0:0:0:
64,192,145135,1,0,0:0:0:0:
320,192,145135,1,0,0:0:0:0:
192,192,145216,1,0,0:0:0:0:
448,192,145297,1,0,0:0:0:0:
64,192,145297,1,0,0:0:0:0:
320,192,145297,1,0,0:0:0:0:
192,192,145378,1,0,0:0:0:0:
448,192,145459,1,0,0:0:0:0:
320,192,145459,1,0,0:0:0:0:
64,192,145540,1,0,0:0:0:0:
192,192,145621,1,0,0:0:0:0:
448,192,145621,1,0,0:0:0:0:
320,192,145621,1,0,0:0:0:0:
64,192,145702,1,0,0:0:0:0:
192,192,145783,1,0,0:0:0:0:
448,192,145783,1,0,0:0:0:0:
320,192,145864,1,0,0:0:0:0:
448,192,145945,1,0,0:0:0:0:
192,192,145945,1,0,0:0:0:0:
64,192,145945,1,0,0:0:0:0:
320,192,146027,1,0,0:0:0:0:
448,192,146108,1,0,0:0:0:0:
64,192,146108,1,0,0:0:0:0:
192,192,146189,1,0,0:0:0:0:
448,192,146270,1,0,0:0:0:0:
64,192,146270,1,0,0:0:0:0:
320,192,146270,1,0,0:0:0:0:
192,192,146351,1,0,0:0:0:0:
64,192,146432,1,0,0:0:0:0:
320,192,146432,1,0,0:0:0:0:
448,192,146513,1,0,0:0:0:0:
192,192,146594,1,0,0:0:0:0:
64,192,146594,1,0,0:0:0:0:
320,192,146594,1,0,0:0:0:0:
448,192,146675,1,0,0:0:0:0:
192,192,146756,1,0,0:0:0:0:
320,192,146756,1,0,0:0:0:0:
64,192,146837,1,0,0:0:0:0:
448,192,146918,1,0,0:0:0:0:
192,192,146918,1,0,0:0:0:0:
320,192,146918,1,0,0:0:0:0:
64,192,146999,1,0,0:0:0:0:
448,192,147081,1,0,0:0:0:0:
192,192,147081,1,0,0:0:0:0:
320,192,147162,1,0,0:0:0:0:
448,192,147243,1,0,0:0:0:0:
192,192,147243,1,0,0:0:0:0:
64,192,147243,1,0,0:0:0:0:
320,192,147324,1,0,0:0:0:0:
448,192,147405,1,0,0:0:0:0:
64,192,147405,1,0,0:0:0:0:
192,192,147486,1,0,0:0:0:0:
448,192,147567,1,0,0:0:0:0:
64,192,147567,1,0,0:0:0:0:
320,192,147567,1,0,0:0:0:0:
192,192,147648,1,0,0:0:0:0:
64,192,147729,1,0,0:0:0:0:
320,192,147729,1,0,0:0:0:0:
448,192,147810,1,0,0:0:0:0:
192,192,147891,1,0,0:0:0:0:
64,192,147891,1,0,0:0:0:0:
320,192,147891,1,0,0:0:0:0:
448,192,147972,1,0,0:0:0:0:
192,192,148054,1,0,0:0:0:0:
320,192,148054,1,0,0:0:0:0:
64,192,148135,1,0,0:0:0:0:
448,192,148216,1,0,0:0:0:0:
192,192,148216,1,0,0:0:0:0:
320,192,148216,1,0,0:0:0:0:
64,192,148297,1,0,0:0:0:0:
448,192,148378,1,0,0:0:0:0:
192,192,148378,1,0,0:0:0:0:
320,192,148459,1,0,0:0:0:0:
448,192,148540,1,0,0:0:0:0:
192,192,148540,1,0,0:0:0:0:
64,192,148540,1,0,0:0:0:0:
320,192,148621,1,0,0:0:0:0:
448,192,148702,1,0,0:0:0:0:
64,192,148702,1,0,0:0:0:0:
192,192,148783,1,0,0:0:0:0:
448,192,148864,1,0,0:0:0:0:
64,192,148864,1,0,0:0:0:0:
320,192,148864,1,0,0:0:0:0:
192,192,148945,1,0,0:0:0:0:
64,192,149027,1,0,0:0:0:0:
320,192,149027,1,0,0:0:0:0:
448,192,149108,1,0,0:0:0:0:
192,192,149189,1,0,0:0:0:0:
64,192,149189,1,0,0:0:0:0:
320,192,149189,1,0,0:0:0:0:
448,192,149270,1,0,0:0:0:0:
64,192,149351,1,0,0:0:0:0:
192,192,149432,1,0,0:0:0:0:
448,192,149513,1,0,0:0:0:0:
64,192,149513,1,0,0:0:0:0:
320,192,149513,1,0,0:0:0:0:
192,192,149594,1,0,0:0:0:0:
64,192,149675,1,0,0:0:0:0:
448,192,149756,1,0,0:0:0:0:
320,192,149837,1,0,0:0:0:0:
448,192,149918,1,0,0:0:0:0:
192,192,149999,1,0,0:0:0:0:
64,192,149999,1,0,0:0:0:0:
320,192,150081,1,0,0:0:0:0:
448,192,150162,1,0,0:0:0:0:
192,192,150162,1,0,0:0:0:0:
64,192,150162,1,0,0:0:0:0:
320,192,150243,1,0,0:0:0:0:
192,192,150324,1,0,0:0:0:0:
64,192,150405,1,0,0:0:0:0:
448,192,150486,1,0,0:0:0:0:
192,192,150486,1,0,0:0:0:0:
320,192,150486,1,0,0:0:0:0:
64,192,150567,1,0,0:0:0:0:
448,192,150648,1,0,0:0:0:0:
320,192,150648,1,0,0:0:0:0:
192,192,150729,1,0,0:0:0:0:
448,192,150810,1,0,0:0:0:0:
64,192,150810,1,0,0:0:0:0:
320,192,150810,1,0,0:0:0:0:
192,192,150891,1,0,0:0:0:0:
448,192,150972,1,0,0:0:0:0:
64,192,150972,1,0,0:0:0:0:
320,192,151054,1,0,0:0:0:0:
448,192,151135,1,0,0:0:0:0:
192,192,151135,1,0,0:0:0:0:
64,192,151135,1,0,0:0:0:0:
320,192,151216,1,0,0:0:0:0:
192,192,151297,1,0,0:0:0:0:
64,192,151297,1,0,0:0:0:0:
448,192,151378,1,0,0:0:0:0:
192,192,151459,1,0,0:0:0:0:
64,192,151459,1,0,0:0:0:0:
320,192,151459,1,0,0:0:0:0:
448,192,151540,1,0,0:0:0:0:
192,192,151621,1,0,0:0:0:0:
320,192,151621,1,0,0:0:0:0:
64,192,151702,1,0,0:0:0:0:
448,192,151783,1,0,0:0:0:0:
192,192,151783,1,0,0:0:0:0:
320,192,151783,1,0,0:0:0:0:
64,192,151864,1,0,0:0:0:0:
448,192,151945,1,0,0:0:0:0:
192,192,151945,1,0,0:0:0:0:
64,192,152027,1,0,0:0:0:0:
448,192,152108,1,0,0:0:0:0:
192,192,152108,1,0,0:0:0:0:
320,192,152108,1,0,0:0:0:0:
64,192,152189,1,0,0:0:0:0:
448,192,152270,1,0,0:0:0:0:
320,192,152270,1,0,0:0:0:0:
192,192,152351,1,0,0:0:0:0:
448,192,152432,1,0,0:0:0:0:
64,192,152432,1,0,0:0:0:0:
320,192,152432,1,0,0:0:0:0:
192,192,152513,1,0,0:0:0:0:
64,192,152594,1,0,0:0:0:0:
320,192,152594,1,0,0:0:0:0:
448,192,152675,1,0,0:0:0:0:
192,192,152756,1,0,0:0:0:0:
64,192,152756,1,0,0:0:0:0:
320,192,152756,1,0,0:0:0:0:
448,192,152837,1,0,0:0:0:0:
192,192,152918,1,0,0:0:0:0:
64,192,152918,1,0,0:0:0:0:
320,192,152999,1,0,0:0:0:0:
448,192,153081,1,0,0:0:0:0:
192,192,153081,1,0,0:0:0:0:
64,192,153081,1,0,0:0:0:0:
320,192,153162,1,0,0:0:0:0:
448,192,153243,1,0,0:0:0:0:
192,192,153243,1,0,0:0:0:0:
320,192,153324,1,0,0:0:0:0:
448,192,153405,1,0,0:0:0:0:
192,192,153405,1,0,0:0:0:0:
64,192,153405,1,0,0:0:0:0:
320,192,153486,1,0,0:0:0:0:
448,192,153567,1,0,0:0:0:0:
64,192,153567,1,0,0:0:0:0:
192,192,153648,1,0,0:0:0:0:
448,192,153729,1,0,0:0:0:0:
64,192,153729,1,0,0:0:0:0:
320,192,153729,1,0,0:0:0:0:
192,192,153810,1,0,0:0:0:0:
64,192,153891,1,0,0:0:0:0:
320,192,153891,1,0,0:0:0:0:
448,192,153972,1,0,0:0:0:0:
192,192,154054,1,0,0:0:0:0:
64,192,154054,1,0,0:0:0:0:
320,192,154054,1,0,0:0:0:0:
448,192,154135,1,0,0:0:0:0:
192,192,154216,1,0,0:0:0:0:
320,192,154216,1,0,0:0:0:0:
64,192,154297,1,0,0:0:0:0:
448,192,154378,1,0,0:0:0:0:
192,192,154378,1,0,0:0:0:0:
320,192,154378,1,0,0:0:0:0:
64,192,154459,1,0,0:0:0:0:
448,192,154540,1,0,0:0:0:0:
192,192,154540,1,0,0:0:0:0:
320,192,154621,1,0,0:0:0:0:
448,192,154702,1,0,0:0:0:0:
192,192,154702,1,0,0:0:0:0:
64,192,154702,1,0,0:0:0:0:
320,192,154783,1,0,0:0:0:0:
448,192,154864,1,0,0:0:0:0:
64,192,154864,1,0,0:0:0:0:
192,192,154945,1,0,0:0:0:0:
448,192,155027,1,0,0:0:0:0:
64,192,155027,1,0,0:0:0:0:
320,192,155027,1,0,0:0:0:0:
192,192,155108,1,0,0:0:0:0:
64,192,155189,1,0,0:0:0:0:
320,192,155189,1,0,0:0:0:0:
448,192,155270,1,0,0:0:0:0:
192,192,155351,1,0,0:0:0:0:
64,192,155351,1,0,0:0:0:0:
320,192,155351,1,0,0:0:0:0:
448,192,155432,1,0,0:0:0:0:
192,192,155513,1,0,0:0:0:0:
320,192,155513,1,0,0:0:0:0:
64,192,155594,1,0,0:0:0:0:
448,192,155675,1,0,0:0:0:0:
192,192,155675,1,0,0:0:0:0:
320,192,155675,1,0,0:0:0:0:
64,192,155756,1,0,0:0:0:0:
448,192,155837,1,0,0:0:0:0:
192,192,155837,1,0,0:0:0:0:
320,192,155918,1,0,0:0:0:0:
448,192,155999,1,0,0:0:0:0:
192,192,155999,1,0,0:0:0:0:
64,192,155999,1,0,0:0:0:0:
320,192,156081,1,0,0:0:0:0:
448,192,156162,1,0,0:0:0:0:
64,192,156162,1,0,0:0:0:0:
192,192,156243,1,0,0:0:0:0:
448,192,156324,1,0,0:0:0:0:
64,192,156324,1,0,0:0:0:0:
320,192,156324,1,0,0:0:0:0:
192,192,156405,1,0,0:0:0:0:
64,192,156486,1,0,0:0:0:0:
320,192,156486,1,0,0:0:0:0:
192,192,156567,1,0,0:0:0:0:
448,192,156648,1,0,0:0:0:0:
64,192,156648,1,0,0:0:0:0:
320,192,156648,1,0,0:0:0:0:
192,192,156729,1,0,0:0:0:0:
448,192,156810,1,0,0:0:0:0:
320,192,156810,1,0,0:0:0:0:
64,192,156891,1,0,0:0:0:0:
448,192,156972,1,0,0:0:0:0:
192,192,156972,1,0,0:0:0:0:
320,192,156972,1,0,0:0:0:0:
64,192,157054,1,0,0:0:0:0:
448,192,157135,1,0,0:0:0:0:
192,192,157135,1,0,0:0:0:0:
320,192,157216,1,0,0:0:0:0:
192,192,157297,1,0,0:0:0:0:
448,192,157297,1,0,0:0:0:0:
64,192,157297,1,0,0:0:0:0:
320,192,157378,1,0,0:0:0:0:
192,192,157459,1,0,0:0:0:0:
64,192,157459,1,0,0:0:0:0:
448,192,157540,1,0,0:0:0:0:
192,192,157621,1,0,0:0:0:0:
64,192,157621,1,0,0:0:0:0:
320,192,157621,1,0,0:0:0:0:
448,192,157702,1,0,0:0:0:0:
64,192,157783,1,0,0:0:0:0:
320,192,157783,1,0,0:0:0:0:
448,192,157864,1,0,0:0:0:0:
192,192,157945,1,0,0:0:0:0:
64,192,157945,1,0,0:0:0:0:
320,192,157945,1,0,0:0:0:0:
448,192,158027,1,0,0:0:0:0:
192,192,158108,1,0,0:0:0:0:
320,192,158108,1,0,0:0:0:0:
64,192,158189,1,0,0:0:0:0:
448,192,158270,1,0,0:0:0:0:
192,192,158270,1,0,0:0:0:0:
320,192,158270,1,0,0:0:0:0:
64,192,158351,1,0,0:0:0:0:
448,192,158432,1,0,0:0:0:0:
64,192,158513,1,0,0:0:0:0:
448,192,158594,1,0,0:0:0:0:
320,192,158594,128,0,158675:0:0:0:0:
64,192,158675,1,0,0:0:0:0:
192,192,158756,128,0,158837:0:0:0:0:
448,192,158756,1,0,0:0:0:0:
64,192,158837,1,0,0:0:0:0:
448,192,158918,1,0,0:0:0:0:
64,192,158999,1,0,0:0:0:0:
192,192,159081,128,0,159162:0:0:0:0:
448,192,159081,1,0,0:0:0:0:
64,192,159162,1,0,0:0:0:0:
448,192,159243,1,0,0:0:0:0:
64,192,159324,1,0,0:0:0:0:
320,192,159405,128,0,159486:0:0:0:0:
448,192,159405,1,0,0:0:0:0:
64,192,159486,1,0,0:0:0:0:
448,192,159567,1,0,0:0:0:0:
64,192,159648,1,0,0:0:0:0:
448,192,159729,1,0,0:0:0:0:
64,192,159810,1,0,0:0:0:0:
448,192,159891,1,0,0:0:0:0:
64,192,159972,1,0,0:0:0:0:
448,192,160054,1,0,0:0:0:0:
64,192,160135,1,0,0:0:0:0:
448,192,160216,1,0,0:0:0:0:
192,192,160216,1,0,0:0:0:0:
192,192,160378,1,0,0:0:0:0:
64,192,160378,1,0,0:0:0:0:
448,192,160540,1,0,0:0:0:0:
320,192,160540,1,0,0:0:0:0:
320,192,160702,1,0,0:0:0:0:
192,192,160702,1,0,0:0:0:0:
448,192,160864,1,0,0:0:0:0:
64,192,160864,1,0,0:0:0:0:
192,192,160864,1,0,0:0:0:0:
320,192,160945,1,0,0:0:0:0:
448,192,161027,1,0,0:0:0:0:
64,192,161108,1,0,0:0:0:0:
192,192,161108,1,0,0:0:0:0:
448,192,161189,1,0,0:0:0:0:
320,192,161189,1,0,0:0:0:0:
64,192,161270,1,0,0:0:0:0:
320,192,161351,1,0,0:0:0:0:
192,192,161351,1,0,0:0:0:0:
448,192,161432,1,0,0:0:0:0:
320,192,161513,1,0,0:0:0:0:
64,192,161513,1,0,0:0:0:0:
192,192,161513,1,0,0:0:0:0:
448,192,161594,1,0,0:0:0:0:
64,192,161675,1,0,0:0:0:0:
320,192,161756,1,0,0:0:0:0:
448,192,161837,1,0,0:0:0:0:
64,192,161837,1,0,0:0:0:0:
192,192,161837,1,0,0:0:0:0:
320,192,161918,1,0,0:0:0:0:
192,192,161999,1,0,0:0:0:0:
64,192,162081,1,0,0:0:0:0:
320,192,162162,1,0,0:0:0:0:
448,192,162162,1,0,0:0:0:0:
192,192,162162,1,0,0:0:0:0:
64,192,162243,1,0,0:0:0:0:
448,192,162324,1,0,0:0:0:0:
320,192,162405,1,0,0:0:0:0:
192,192,162405,1,0,0:0:0:0:
448,192,162486,1,0,0:0:0:0:
64,192,162486,1,0,0:0:0:0:
320,192,162567,1,0,0:0:0:0:
64,192,162648,1,0,0:0:0:0:
192,192,162648,1,0,0:0:0:0:
448,192,162729,1,0,0:0:0:0:
320,192,162810,1,0,0:0:0:0:
64,192,162810,1,0,0:0:0:0:
192,192,162810,1,0,0:0:0:0:
448,192,162891,1,0,0:0:0:0:
320,192,162972,1,0,0:0:0:0:
64,192,163054,1,0,0:0:0:0:
320,192,163135,1,0,0:0:0:0:
448,192,163135,1,0,0:0:0:0:
192,192,163135,1,0,0:0:0:0:
64,192,163216,1,0,0:0:0:0:
448,192,163297,1,0,0:0:0:0:
192,192,163378,1,0,0:0:0:0:
448,192,163459,1,0,0:0:0:0:
320,192,163459,1,0,0:0:0:0:
64,192,163459,1,0,0:0:0:0:
192,192,163540,1,0,0:0:0:0:
64,192,163621,1,0,0:0:0:0:
320,192,163702,1,0,0:0:0:0:
448,192,163702,1,0,0:0:0:0:
64,192,163783,1,0,0:0:0:0:
192,192,163783,1,0,0:0:0:0:
320,192,163864,1,0,0:0:0:0:
448,192,163945,1,0,0:0:0:0:
192,192,163945,1,0,0:0:0:0:
64,192,164027,1,0,0:0:0:0:
320,192,164108,1,0,0:0:0:0:
448,192,164108,1,0,0:0:0:0:
192,192,164108,1,0,0:0:0:0:
64,192,164189,1,0,0:0:0:0:
320,192,164270,1,0,0:0:0:0:
192,192,164351,1,0,0:0:0:0:
448,192,164432,1,0,0:0:0:0:
320,192,164432,1,0,0:0:0:0:
64,192,164432,1,0,0:0:0:0:
192,192,164513,1,0,0:0:0:0:
448,192,164594,1,0,0:0:0:0:
64,192,164675,1,0,0:0:0:0:
320,192,164756,1,0,0:0:0:0:
448,192,164756,1,0,0:0:0:0:
192,192,164756,1,0,0:0:0:0:
64,192,164837,1,0,0:0:0:0:
320,192,164918,1,0,0:0:0:0:
448,192,164999,1,0,0:0:0:0:
320,192,165081,1,0,0:0:0:0:
64,192,165081,1,0,0:0:0:0:
192,192,165081,1,0,0:0:0:0:
448,192,165162,1,0,0:0:0:0:
192,192,165243,1,0,0:0:0:0:
64,192,165324,1,0,0:0:0:0:
320,192,165405,1,0,0:0:0:0:
448,192,165405,1,0,0:0:0:0:
192,192,165405,1,0,0:0:0:0:
64,192,165486,1,0,0:0:0:0:
320,192,165567,1,0,0:0:0:0:
448,192,165567,1,0,0:0:0:0:
192,192,165648,1,0,0:0:0:0:
448,192,165729,1,0,0:0:0:0:
320,192,165729,1,0,0:0:0:0:
64,192,165729,1,0,0:0:0:0:
192,192,165810,1,0,0:0:0:0:
320,192,165891,1,0,0:0:0:0:
64,192,165891,1,0,0:0:0:0:
448,192,165972,1,0,0:0:0:0:
320,192,166054,1,0,0:0:0:0:
64,192,166054,1,0,0:0:0:0:
192,192,166054,1,0,0:0:0:0:
448,192,166135,1,0,0:0:0:0:
64,192,166216,1,0,0:0:0:0:
320,192,166297,1,0,0:0:0:0:
192,192,166297,1,0,0:0:0:0:
448,192,166378,1,0,0:0:0:0:
64,192,166378,1,0,0:0:0:0:
192,192,166459,1,0,0:0:0:0:
320,192,166540,1,0,0:0:0:0:
448,192,166540,1,0,0:0:0:0:
64,192,166621,1,0,0:0:0:0:
320,192,166702,1,0,0:0:0:0:
448,192,166702,1,0,0:0:0:0:
192,192,166702,1,0,0:0:0:0:
64,192,166783,1,0,0:0:0:0:
192,192,166864,1,0,0:0:0:0:
320,192,166945,1,0,0:0:0:0:
448,192,167027,1,0,0:0:0:0:
64,192,167027,1,0,0:0:0:0:
192,192,167027,1,0,0:0:0:0:
320,192,167108,1,0,0:0:0:0:
64,192,167189,1,0,0:0:0:0:
192,192,167270,1,0,0:0:0:0:
448,192,167351,1,0,0:0:0:0:
320,192,167351,1,0,0:0:0:0:
64,192,167351,1,0,0:0:0:0:
192,192,167432,1,0,0:0:0:0:
448,192,167513,1,0,0:0:0:0:
320,192,167594,1,0,0:0:0:0:
64,192,167594,1,0,0:0:0:0:
448,192,167675,1,0,0:0:0:0:
192,192,167675,1,0,0:0:0:0:
320,192,167756,1,0,0:0:0:0:
64,192,167837,1,0,0:0:0:0:
192,192,167837,1,0,0:0:0:0:
448,192,167918,1,0,0:0:0:0:
320,192,167999,1,0,0:0:0:0:
64,192,167999,1,0,0:0:0:0:
192,192,167999,1,0,0:0:0:0:
448,192,168081,1,0,0:0:0:0:
320,192,168162,1,0,0:0:0:0:
192,192,168243,1,0,0:0:0:0:
320,192,168324,1,0,0:0:0:0:
448,192,168324,1,0,0:0:0:0:
64,192,168324,1,0,0:0:0:0:
192,192,168405,1,0,0:0:0:0:
64,192,168486,1,0,0:0:0:0:
320,192,168567,1,0,0:0:0:0:
448,192,168648,1,0,0:0:0:0:
64,192,168648,1,0,0:0:0:0:
192,192,168648,1,0,0:0:0:0:
320,192,168729,1,0,0:0:0:0:
448,192,168810,1,0,0:0:0:0:
64,192,168891,1,0,0:0:0:0:
192,192,168891,1,0,0:0:0:0:
448,192,168972,1,0,0:0:0:0:
320,192,168972,1,0,0:0:0:0:
64,192,169054,1,0,0:0:0:0:
320,192,169135,1,0,0:0:0:0:
192,192,169135,1,0,0:0:0:0:
448,192,169216,1,0,0:0:0:0:
320,192,169297,1,0,0:0:0:0:
64,192,169297,1,0,0:0:0:0:
192,192,169297,1,0,0:0:0:0:
448,192,169378,1,0,0:0:0:0:
64,192,169459,1,0,0:0:0:0:
192,192,169540,1,0,0:0:0:0:
448,192,169621,1,0,0:0:0:0:
320,192,169621,1,0,0:0:0:0:
64,192,169621,1,0,0:0:0:0:
192,192,169702,1,0,0:0:0:0:
320,192,169783,1,0,0:0:0:0:
448,192,169864,1,0,0:0:0:0:
320,192,169945,1,0,0:0:0:0:
64,192,169945,1,0,0:0:0:0:
192,192,169945,1,0,0:0:0:0:
448,192,170027,1,0,0:0:0:0:
320,192,170108,1,0,0:0:0:0:
64,192,170189,1,0,0:0:0:0:
320,192,170270,1,0,0:0:0:0:
448,192,170270,1,0,0:0:0:0:
192,192,170270,1,0,0:0:0:0:
64,192,170351,1,0,0:0:0:0:
448,192,170432,1,0,0:0:0:0:
192,192,170513,1,0,0:0:0:0:
64,192,170594,1,0,0:0:0:0:
320,192,170675,1,0,0:0:0:0:
448,192,170756,1,0,0:0:0:0:
64,192,170756,1,0,0:0:0:0:
192,192,170756,1,0,0:0:0:0:
320,192,170837,1,0,0:0:0:0:
448,192,170918,1,0,0:0:0:0:
64,192,170918,1,0,0:0:0:0:
192,192,170918,1,0,0:0:0:0:
320,192,170999,1,0,0:0:0:0:
448,192,171081,1,0,0:0:0:0:
192,192,171081,1,0,0:0:0:0:
64,192,171162,1,0,0:0:0:0:
320,192,171243,1,0,0:0:0:0:
448,192,171243,1,0,0:0:0:0:
192,192,171243,1,0,0:0:0:0:
64,192,171324,1,0,0:0:0:0:
320,192,171405,1,0,0:0:0:0:
448,192,171486,1,0,0:0:0:0:
192,192,171486,1,0,0:0:0:0:
320,192,171567,1,0,0:0:0:0:
64,192,171567,1,0,0:0:0:0:
448,192,171648,1,0,0:0:0:0:
64,192,171729,1,0,0:0:0:0:
192,192,171729,1,0,0:0:0:0:
320,192,171810,1,0,0:0:0:0:
448,192,171891,1,0,0:0:0:0:
64,192,171891,1,0,0:0:0:0:
192,192,171891,1,0,0:0:0:0:
320,192,171972,1,0,0:0:0:0:
448,192,172054,1,0,0:0:0:0:
64,192,172135,1,0,0:0:0:0:
320,192,172216,1,0,0:0:0:0:
448,192,172216,1,0,0:0:0:0:
192,192,172216,1,0,0:0:0:0:
64,192,172297,1,0,0:0:0:0:
192,192,172378,1,0,0:0:0:0:
448,192,172459,1,0,0:0:0:0:
320,192,172540,1,0,0:0:0:0:
64,192,172540,1,0,0:0:0:0:
192,192,172540,1,0,0:0:0:0:
448,192,172621,1,0,0:0:0:0:
320,192,172702,1,0,0:0:0:0:
64,192,172783,1,0,0:0:0:0:
192,192,172783,1,0,0:0:0:0:
320,192,172864,1,0,0:0:0:0:
448,192,172864,1,0,0:0:0:0:
192,192,172945,1,0,0:0:0:0:
448,192,173027,1,0,0:0:0:0:
64,192,173027,1,0,0:0:0:0:
320,192,173108,1,0,0:0:0:0:
448,192,173189,1,0,0:0:0:0:
64,192,173189,1,0,0:0:0:0:
192,192,173189,1,0,0:0:0:0:
320,192,173270,1,0,0:0:0:0:
192,192,173351,1,0,0:0:0:0:
64,192,173432,1,0,0:0:0:0:
320,192,173513,1,0,0:0:0:0:
448,192,173513,1,0,0:0:0:0:
192,192,173513,1,0,0:0:0:0:
64,192,173594,1,0,0:0:0:0:
320,192,173675,1,0,0:0:0:0:
448,192,173756,1,0,0:0:0:0:
320,192,173837,1,0,0:0:0:0:
64,192,173837,1,0,0:0:0:0:
192,192,173837,1,0,0:0:0:0:
448,192,173918,1,0,0:0:0:0:
64,192,173999,1,0,0:0:0:0:
320,192,174081,1,0,0:0:0:0:
192,192,174081,1,0,0:0:0:0:
448,192,174162,1,0,0:0:0:0:
64,192,174162,1,0,0:0:0:0:
192,192,174243,1,0,0:0:0:0:
320,192,174324,1,0,0:0:0:0:
448,192,174324,1,0,0:0:0:0:
64,192,174405,1,0,0:0:0:0:
320,192,174486,1,0,0:0:0:0:
448,192,174486,1,0,0:0:0:0:
192,192,174486,1,0,0:0:0:0:
64,192,174567,1,0,0:0:0:0:
320,192,174648,1,0,0:0:0:0:
448,192,174648,1,0,0:0:0:0:
192,192,174648,1,0,0:0:0:0:
64,192,174729,1,0,0:0:0:0:
192,192,174810,1,0,0:0:0:0:
448,192,174891,1,0,0:0:0:0:
320,192,174972,1,0,0:0:0:0:
64,192,174972,1,0,0:0:0:0:
192,192,174972,1,0,0:0:0:0:
448,192,175054,1,0,0:0:0:0:
320,192,175135,1,0,0:0:0:0:
64,192,175216,1,0,0:0:0:0:
448,192,175297,1,0,0:0:0:0:
320,192,175378,1,0,0:0:0:0:
448,192,175459,1,0,0:0:0:0:
64,192,175459,1,0,0:0:0:0:
192,192,175459,1,0,0:0:0:0:
320,192,175540,1,0,0:0:0:0:
192,192,175621,1,0,0:0:0:0:
64,192,175702,1,0,0:0:0:0:
320,192,175783,1,0,0:0:0:0:
448,192,175783,1,0,0:0:0:0:
192,192,175783,1,0,0:0:0:0:
64,192,175864,1,0,0:0:0:0:
320,192,175945,1,0,0:0:0:0:
448,192,175945,1,0,0:0:0:0:
192,192,176027,1,0,0:0:0:0:
448,192,176108,1,0,0:0:0:0:
320,192,176108,1,0,0:0:0:0:
64,192,176108,1,0,0:0:0:0:
192,192,176189,1,0,0:0:0:0:
448,192,176270,1,0,0:0:0:0:
64,192,176270,1,0,0:0:0:0:
320,192,176351,1,0,0:0:0:0:
448,192,176432,128,0,176918:0:0:0:0:
192,192,176432,128,0,176837:0:0:0:0:
64,192,176432,128,0,176837:0:0:0:0:
320,192,176918,128,0,177243:0:0:0:0:
64,192,176918,128,0,177162:0:0:0:0:
192,192,176918,128,0,177162:0:0:0:0:
192,192,177243,128,0,177567:0:0:0:0:
448,192,177243,128,0,177486:0:0:0:0:
64,192,177243,128,0,177486:0:0:0:0:
64,192,177567,128,0,180324:0:0:0:0:
448,192,177567,128,0,178945:0:0:0:0:
320,192,177567,128,0,179918:0:0:0:0:
192,192,178702,128,0,179756:0:0:0:0:
448,192,179027,128,0,180081:0:0:0:0:
192,192,179837,128,0,180324:0:0:0:0:
320,192,179999,128,0,180324:0:0:0:0:
448,192,180162,128,0,180324:0:0:0:0:
