osu file format v14

[General]
AudioFilename: rr155.mp3
AudioLeadIn: 0
PreviewTime: 116129
Countdown: 0
SampleSet: Soft
StackLeniency: 0.7
Mode: 3
LetterboxInBreaks: 0
SpecialStyle: 0
WidescreenStoryboard: 0

[Editor]
DistanceSpacing: 0.9
BeatDivisor: 4
GridSize: 8
TimelineZoom: 2

[Metadata]
Title:Rainbow Road (STAMINA KILLER CUT) (150-185BPM)
TitleUnicode:Rainbow Road (STAMINA KILLER CUT) (150-185BPM)
Artist:nanobii
ArtistUnicode:nanobii
Creator:Worms
Version:155BPM 4K Handstream
Source:
Tags:monstercat 016 expedition happy hardcore
BeatmapID:2079625
BeatmapSetID:994633

[Difficulty]
HPDrainRate:9
CircleSize:4
OverallDifficulty:9
ApproachRate:5
SliderMultiplier:1.4
SliderTickRate:1

[Events]
//Background and Video events
0,0,"prime_world-wallpaper-1366x768.jpg",0,0
//Break Periods
//Storyboard Layer 0 (Background)
//Storyboard Layer 1 (Fail)
//Storyboard Layer 2 (Pass)
//Storyboard Layer 3 (Foreground)
//Storyboard Sound Samples

[TimingPoints]
0,387.0968,4,2,0,5,1,0

[HitObjects]
448,192,6193,5,0,0:0:0:0:
192,192,6193,1,0,0:0:0:0:
64,192,6193,1,0,0:0:0:0:
320,192,6290,1,0,0:0:0:0:
64,192,6387,1,0,0:0:0:0:
448,192,6387,1,0,0:0:0:0:
192,192,6483,1,0,0:0:0:0:
64,192,6580,1,0,0:0:0:0:
448,192,6580,1,0,0:0:0:0:
320,192,6580,1,0,0:0:0:0:
192,192,6677,1,0,0:0:0:0:
320,192,6774,1,0,0:0:0:0:
64,192,6774,1,0,0:0:0:0:
448,192,6870,1,0,0:0:0:0:
320,192,6967,1,0,0:0:0:0:
192,192,6967,1,0,0:0:0:0:
64,192,6967,1,0,0:0:0:0:
448,192,7064,1,0,0:0:0:0:
192,192,7161,1,0,0:0:0:0:
320,192,7161,1,0,0:0:0:0:
64,192,7258,1,0,0:0:0:0:
192,192,7354,1,0,0:0:0:0:
320,192,7354,1,0,0:0:0:0:
448,192,7354,1,0,0:0:0:0:
64,192,7451,1,0,0:0:0:0:
192,192,7548,1,0,0:0:0:0:
448,192,7548,1,0,0:0:0:0:
320,192,7645,1,0,0:0:0:0:
192,192,7741,1,0,0:0:0:0:
448,192,7741,1,0,0:0:0:0:
64,192,7741,1,0,0:0:0:0:
320,192,7838,1,0,0:0:0:0:
192,192,7935,1,0,0:0:0:0:
64,192,7935,1,0,0:0:0:0:
448,192,8032,1,0,0:0:0:0:
320,192,8129,1,0,0:0:0:0:
192,192,8129,1,0,0:0:0:0:
64,192,8129,1,0,0:0:0:0:
448,192,8225,1,0,0:0:0:0:
320,192,8322,1,0,0:0:0:0:
64,192,8322,1,0,0:0:0:0:
192,192,8419,1,0,0:0:0:0:
320,192,8516,1,0,0:0:0:0:
64,192,8516,1,0,0:0:0:0:
448,192,8516,1,0,0:0:0:0:
192,192,8612,1,0,0:0:0:0:
448,192,8709,1,0,0:0:0:0:
320,192,8709,1,0,0:0:0:0:
64,192,8806,1,0,0:0:0:0:
192,192,8903,1,0,0:0:0:0:
448,192,8903,1,0,0:0:0:0:
320,192,8903,1,0,0:0:0:0:
64,192,9000,1,0,0:0:0:0:
192,192,9096,1,0,0:0:0:0:
448,192,9096,1,0,0:0:0:0:
320,192,9193,1,0,0:0:0:0:
192,192,9290,1,0,0:0:0:0:
64,192,9290,1,0,0:0:0:0:
448,192,9290,1,0,0:0:0:0:
320,192,9387,1,0,0:0:0:0:
64,192,9483,1,0,0:0:0:0:
448,192,9483,1,0,0:0:0:0:
192,192,9580,1,0,0:0:0:0:
64,192,9677,1,0,0:0:0:0:
320,192,9677,1,0,0:0:0:0:
448,192,9677,1,0,0:0:0:0:
192,192,9774,1,0,0:0:0:0:
320,192,9870,1,0,0:0:0:0:
64,192,9870,1,0,0:0:0:0:
448,192,9967,1,0,0:0:0:0:
320,192,10064,1,0,0:0:0:0:
192,192,10064,1,0,0:0:0:0:
64,192,10064,1,0,0:0:0:0:
448,192,10161,1,0,0:0:0:0:
192,192,10258,1,0,0:0:0:0:
320,192,10258,1,0,0:0:0:0:
64,192,10354,1,0,0:0:0:0:
192,192,10451,1,0,0:0:0:0:
448,192,10451,1,0,0:0:0:0:
320,192,10451,1,0,0:0:0:0:
64,192,10548,1,0,0:0:0:0:
448,192,10645,1,0,0:0:0:0:
192,192,10645,1,0,0:0:0:0:
320,192,10741,1,0,0:0:0:0:
192,192,10838,1,0,0:0:0:0:
64,192,10838,1,0,0:0:0:0:
448,192,10838,1,0,0:0:0:0:
320,192,10935,1,0,0:0:0:0:
64,192,11032,1,0,0:0:0:0:
448,192,11032,1,0,0:0:0:0:
192,192,11129,1,0,0:0:0:0:
320,192,11225,1,0,0:0:0:0:
64,192,11225,1,0,0:0:0:0:
448,192,11225,1,0,0:0:0:0:
192,192,11322,1,0,0:0:0:0:
320,192,11419,1,0,0:0:0:0:
64,192,11419,1,0,0:0:0:0:
448,192,11516,1,0,0:0:0:0:
192,192,11612,1,0,0:0:0:0:
320,192,11612,1,0,0:0:0:0:
64,192,11612,1,0,0:0:0:0:
448,192,11709,1,0,0:0:0:0:
192,192,11806,1,0,0:0:0:0:
64,192,11806,1,0,0:0:0:0:
320,192,11903,1,0,0:0:0:0:
448,192,12000,1,0,0:0:0:0:
192,192,12000,1,0,0:0:0:0:
64,192,12000,1,0,0:0:0:0:
320,192,12096,1,0,0:0:0:0:
192,192,12193,1,0,0:0:0:0:
448,192,12193,1,0,0:0:0:0:
64,192,12290,1,0,0:0:0:0:
192,192,12387,1,0,0:0:0:0:
320,192,12387,1,0,0:0:0:0:
448,192,12387,1,0,0:0:0:0:
64,192,12483,1,0,0:0:0:0:
320,192,12580,1,0,0:0:0:0:
448,192,12580,1,0,0:0:0:0:
192,192,12677,1,0,0:0:0:0:
64,192,12774,1,0,0:0:0:0:
320,192,12774,1,0,0:0:0:0:
448,192,12774,1,0,0:0:0:0:
192,192,12870,1,0,0:0:0:0:
64,192,12967,1,0,0:0:0:0:
320,192,12967,1,0,0:0:0:0:
448,192,13064,1,0,0:0:0:0:
320,192,13161,1,0,0:0:0:0:
192,192,13161,1,0,0:0:0:0:
64,192,13161,1,0,0:0:0:0:
448,192,13258,1,0,0:0:0:0:
320,192,13354,1,0,0:0:0:0:
192,192,13354,1,0,0:0:0:0:
64,192,13451,1,0,0:0:0:0:
192,192,13548,1,0,0:0:0:0:
320,192,13548,1,0,0:0:0:0:
448,192,13548,1,0,0:0:0:0:
64,192,13645,1,0,0:0:0:0:
192,192,13741,1,0,0:0:0:0:
448,192,13741,1,0,0:0:0:0:
320,192,13838,1,0,0:0:0:0:
192,192,13935,1,0,0:0:0:0:
64,192,13935,1,0,0:0:0:0:
448,192,13935,1,0,0:0:0:0:
320,192,14032,1,0,0:0:0:0:
448,192,14129,1,0,0:0:0:0:
64,192,14129,1,0,0:0:0:0:
192,192,14225,1,0,0:0:0:0:
320,192,14322,1,0,0:0:0:0:
448,192,14322,1,0,0:0:0:0:
64,192,14322,1,0,0:0:0:0:
192,192,14419,1,0,0:0:0:0:
320,192,14516,1,0,0:0:0:0:
64,192,14516,1,0,0:0:0:0:
448,192,14612,1,0,0:0:0:0:
320,192,14709,1,0,0:0:0:0:
192,192,14709,1,0,0:0:0:0:
64,192,14709,1,0,0:0:0:0:
448,192,14806,1,0,0:0:0:0:
192,192,14903,1,0,0:0:0:0:
320,192,14903,1,0,0:0:0:0:
64,192,15000,1,0,0:0:0:0:
192,192,15096,1,0,0:0:0:0:
320,192,15096,1,0,0:0:0:0:
448,192,15096,1,0,0:0:0:0:
64,192,15193,1,0,0:0:0:0:
192,192,15290,1,0,0:0:0:0:
448,192,15290,1,0,0:0:0:0:
320,192,15387,1,0,0:0:0:0:
192,192,15483,1,0,0:0:0:0:
64,192,15483,1,0,0:0:0:0:
448,192,15483,1,0,0:0:0:0:
320,192,15580,1,0,0:0:0:0:
448,192,15677,1,0,0:0:0:0:
64,192,15677,1,0,0:0:0:0:
192,192,15774,1,0,0:0:0:0:
320,192,15870,1,0,0:0:0:0:
64,192,15870,1,0,0:0:0:0:
448,192,15870,1,0,0:0:0:0:
192,192,15967,1,0,0:0:0:0:
320,192,16064,1,0,0:0:0:0:
64,192,16064,1,0,0:0:0:0:
448,192,16161,1,0,0:0:0:0:
320,192,16258,1,0,0:0:0:0:
64,192,16258,1,0,0:0:0:0:
192,192,16258,1,0,0:0:0:0:
448,192,16354,1,0,0:0:0:0:
192,192,16451,1,0,0:0:0:0:
320,192,16451,1,0,0:0:0:0:
64,192,16548,1,0,0:0:0:0:
192,192,16645,1,0,0:0:0:0:
320,192,16645,1,0,0:0:0:0:
448,192,16645,1,0,0:0:0:0:
64,192,16741,1,0,0:0:0:0:
192,192,16838,1,0,0:0:0:0:
448,192,16838,1,0,0:0:0:0:
320,192,16935,1,0,0:0:0:0:
192,192,17032,1,0,0:0:0:0:
64,192,17032,1,0,0:0:0:0:
448,192,17032,1,0,0:0:0:0:
320,192,17129,1,0,0:0:0:0:
192,192,17225,1,0,0:0:0:0:
64,192,17322,1,0,0:0:0:0:
448,192,17419,1,0,0:0:0:0:
192,192,17419,1,0,0:0:0:0:
320,192,17419,1,0,0:0:0:0:
64,192,17516,1,0,0:0:0:0:
192,192,17612,1,0,0:0:0:0:
320,192,17709,1,0,0:0:0:0:
448,192,17806,1,0,0:0:0:0:
320,192,17903,1,0,0:0:0:0:
192,192,18000,1,0,0:0:0:0:
64,192,18000,1,0,0:0:0:0:
448,192,18096,1,0,0:0:0:0:
320,192,18193,1,0,0:0:0:0:
192,192,18193,1,0,0:0:0:0:
64,192,18193,1,0,0:0:0:0:
448,192,18290,1,0,0:0:0:0:
64,192,18387,1,0,0:0:0:0:
192,192,18483,1,0,0:0:0:0:
320,192,18580,1,0,0:0:0:0:
448,192,18580,1,0,0:0:0:0:
64,192,18580,1,0,0:0:0:0:
192,192,18677,1,0,0:0:0:0:
320,192,18774,1,0,0:0:0:0:
448,192,18774,1,0,0:0:0:0:
64,192,18870,1,0,0:0:0:0:
192,192,18967,1,0,0:0:0:0:
320,192,18967,1,0,0:0:0:0:
448,192,18967,1,0,0:0:0:0:
64,192,19064,1,0,0:0:0:0:
320,192,19161,1,0,0:0:0:0:
192,192,19161,1,0,0:0:0:0:
448,192,19258,1,0,0:0:0:0:
320,192,19354,1,0,0:0:0:0:
192,192,19354,1,0,0:0:0:0:
64,192,19354,1,0,0:0:0:0:
448,192,19451,1,0,0:0:0:0:
192,192,19548,1,0,0:0:0:0:
64,192,19548,1,0,0:0:0:0:
320,192,19645,1,0,0:0:0:0:
192,192,19741,1,0,0:0:0:0:
64,192,19741,1,0,0:0:0:0:
448,192,19741,1,0,0:0:0:0:
320,192,19838,1,0,0:0:0:0:
448,192,19935,1,0,0:0:0:0:
64,192,19935,1,0,0:0:0:0:
192,192,20032,1,0,0:0:0:0:
320,192,20129,1,0,0:0:0:0:
448,192,20129,1,0,0:0:0:0:
64,192,20129,1,0,0:0:0:0:
192,192,20225,1,0,0:0:0:0:
320,192,20322,1,0,0:0:0:0:
64,192,20322,1,0,0:0:0:0:
192,192,20419,1,0,0:0:0:0:
320,192,20516,1,0,0:0:0:0:
448,192,20516,1,0,0:0:0:0:
64,192,20516,1,0,0:0:0:0:
192,192,20612,1,0,0:0:0:0:
448,192,20709,1,0,0:0:0:0:
320,192,20709,1,0,0:0:0:0:
64,192,20806,1,0,0:0:0:0:
192,192,20903,1,0,0:0:0:0:
448,192,20903,1,0,0:0:0:0:
320,192,20903,1,0,0:0:0:0:
64,192,21000,1,0,0:0:0:0:
192,192,21096,1,0,0:0:0:0:
448,192,21096,1,0,0:0:0:0:
320,192,21193,1,0,0:0:0:0:
192,192,21290,1,0,0:0:0:0:
64,192,21290,1,0,0:0:0:0:
448,192,21290,1,0,0:0:0:0:
320,192,21387,1,0,0:0:0:0:
64,192,21483,1,0,0:0:0:0:
192,192,21483,1,0,0:0:0:0:
448,192,21580,1,0,0:0:0:0:
320,192,21677,1,0,0:0:0:0:
192,192,21677,1,0,0:0:0:0:
64,192,21677,1,0,0:0:0:0:
448,192,21774,1,0,0:0:0:0:
320,192,21870,1,0,0:0:0:0:
64,192,21870,1,0,0:0:0:0:
448,192,21967,1,0,0:0:0:0:
320,192,22064,1,0,0:0:0:0:
192,192,22064,1,0,0:0:0:0:
64,192,22064,1,0,0:0:0:0:
448,192,22161,1,0,0:0:0:0:
192,192,22258,1,0,0:0:0:0:
320,192,22258,1,0,0:0:0:0:
64,192,22354,1,0,0:0:0:0:
192,192,22451,1,0,0:0:0:0:
448,192,22451,1,0,0:0:0:0:
320,192,22451,1,0,0:0:0:0:
64,192,22548,1,0,0:0:0:0:
192,192,22645,1,0,0:0:0:0:
448,192,22645,1,0,0:0:0:0:
320,192,22741,1,0,0:0:0:0:
448,192,22838,1,0,0:0:0:0:
192,192,22838,1,0,0:0:0:0:
64,192,22838,1,0,0:0:0:0:
320,192,22935,1,0,0:0:0:0:
64,192,23032,1,0,0:0:0:0:
448,192,23032,1,0,0:0:0:0:
192,192,23129,1,0,0:0:0:0:
320,192,23225,1,0,0:0:0:0:
64,192,23225,1,0,0:0:0:0:
448,192,23225,1,0,0:0:0:0:
192,192,23322,1,0,0:0:0:0:
320,192,23419,1,0,0:0:0:0:
64,192,23419,1,0,0:0:0:0:
448,192,23516,1,0,0:0:0:0:
192,192,23612,1,0,0:0:0:0:
320,192,23612,1,0,0:0:0:0:
64,192,23612,1,0,0:0:0:0:
448,192,23709,1,0,0:0:0:0:
192,192,23806,1,0,0:0:0:0:
320,192,23806,1,0,0:0:0:0:
64,192,23903,1,0,0:0:0:0:
192,192,24000,1,0,0:0:0:0:
320,192,24000,1,0,0:0:0:0:
448,192,24000,1,0,0:0:0:0:
64,192,24096,1,0,0:0:0:0:
448,192,24193,1,0,0:0:0:0:
192,192,24193,1,0,0:0:0:0:
320,192,24290,1,0,0:0:0:0:
192,192,24387,1,0,0:0:0:0:
64,192,24387,1,0,0:0:0:0:
448,192,24387,1,0,0:0:0:0:
320,192,24483,1,0,0:0:0:0:
448,192,24580,1,0,0:0:0:0:
64,192,24580,1,0,0:0:0:0:
192,192,24677,1,0,0:0:0:0:
320,192,24774,1,0,0:0:0:0:
448,192,24774,1,0,0:0:0:0:
64,192,24774,1,0,0:0:0:0:
192,192,24870,1,0,0:0:0:0:
320,192,24967,1,0,0:0:0:0:
64,192,24967,1,0,0:0:0:0:
448,192,25064,1,0,0:0:0:0:
320,192,25161,1,0,0:0:0:0:
64,192,25161,1,0,0:0:0:0:
192,192,25161,1,0,0:0:0:0:
448,192,25258,1,0,0:0:0:0:
192,192,25354,1,0,0:0:0:0:
320,192,25354,1,0,0:0:0:0:
64,192,25451,1,0,0:0:0:0:
448,192,25548,1,0,0:0:0:0:
192,192,25548,1,0,0:0:0:0:
320,192,25548,1,0,0:0:0:0:
64,192,25645,1,0,0:0:0:0:
448,192,25741,1,0,0:0:0:0:
192,192,25741,1,0,0:0:0:0:
64,192,25838,1,0,0:0:0:0:
448,192,25935,1,0,0:0:0:0:
192,192,25935,1,0,0:0:0:0:
320,192,25935,1,0,0:0:0:0:
64,192,26032,1,0,0:0:0:0:
320,192,26129,1,0,0:0:0:0:
448,192,26129,1,0,0:0:0:0:
192,192,26225,1,0,0:0:0:0:
320,192,26322,1,0,0:0:0:0:
64,192,26322,1,0,0:0:0:0:
448,192,26322,1,0,0:0:0:0:
192,192,26419,1,0,0:0:0:0:
320,192,26516,1,0,0:0:0:0:
64,192,26516,1,0,0:0:0:0:
448,192,26612,1,0,0:0:0:0:
192,192,26709,1,0,0:0:0:0:
64,192,26709,1,0,0:0:0:0:
320,192,26709,1,0,0:0:0:0:
448,192,26806,1,0,0:0:0:0:
192,192,26903,1,0,0:0:0:0:
64,192,26903,1,0,0:0:0:0:
320,192,27000,1,0,0:0:0:0:
448,192,27096,1,0,0:0:0:0:
192,192,27096,1,0,0:0:0:0:
64,192,27096,1,0,0:0:0:0:
320,192,27193,1,0,0:0:0:0:
192,192,27290,1,0,0:0:0:0:
448,192,27290,1,0,0:0:0:0:
320,192,27387,1,0,0:0:0:0:
192,192,27483,1,0,0:0:0:0:
64,192,27483,1,0,0:0:0:0:
448,192,27483,1,0,0:0:0:0:
320,192,27580,1,0,0:0:0:0:
64,192,27677,1,0,0:0:0:0:
448,192,27677,1,0,0:0:0:0:
192,192,27774,1,0,0:0:0:0:
320,192,27870,1,0,0:0:0:0:
64,192,27870,1,0,0:0:0:0:
448,192,27870,1,0,0:0:0:0:
192,192,27967,1,0,0:0:0:0:
320,192,28064,1,0,0:0:0:0:
192,192,28161,1,0,0:0:0:0:
320,192,28258,1,0,0:0:0:0:
448,192,28258,128,0,28354:0:0:0:0:
192,192,28354,1,0,0:0:0:0:
320,192,28451,1,0,0:0:0:0:
64,192,28451,128,0,28548:0:0:0:0:
192,192,28548,1,0,0:0:0:0:
320,192,28645,1,0,0:0:0:0:
192,192,28741,1,0,0:0:0:0:
320,192,28838,1,0,0:0:0:0:
64,192,28838,128,0,28935:0:0:0:0:
192,192,28935,1,0,0:0:0:0:
320,192,29032,1,0,0:0:0:0:
192,192,29129,1,0,0:0:0:0:
320,192,29225,1,0,0:0:0:0:
448,192,29225,128,0,29322:0:0:0:0:
192,192,29322,1,0,0:0:0:0:
320,192,29419,1,0,0:0:0:0:
192,192,29516,1,0,0:0:0:0:
320,192,29612,1,0,0:0:0:0:
192,192,29709,1,0,0:0:0:0:
320,192,29806,1,0,0:0:0:0:
192,192,29903,1,0,0:0:0:0:
320,192,30000,1,0,0:0:0:0:
192,192,30096,1,0,0:0:0:0:
320,192,30193,1,0,0:0:0:0:
64,192,30193,1,0,0:0:0:0:
448,192,30387,1,0,0:0:0:0:
64,192,30387,1,0,0:0:0:0:
320,192,30580,1,0,0:0:0:0:
192,192,30580,1,0,0:0:0:0:
320,192,30774,1,0,0:0:0:0:
64,192,30774,1,0,0:0:0:0:
192,192,30967,1,0,0:0:0:0:
64,192,30967,1,0,0:0:0:0:
448,192,30967,1,0,0:0:0:0:
320,192,31064,1,0,0:0:0:0:
192,192,31161,1,0,0:0:0:0:
448,192,31258,1,0,0:0:0:0:
64,192,31258,1,0,0:0:0:0:
192,192,31354,1,0,0:0:0:0:
320,192,31354,1,0,0:0:0:0:
448,192,31451,1,0,0:0:0:0:
320,192,31548,1,0,0:0:0:0:
64,192,31548,1,0,0:0:0:0:
192,192,31645,1,0,0:0:0:0:
320,192,31741,1,0,0:0:0:0:
448,192,31741,1,0,0:0:0:0:
64,192,31741,1,0,0:0:0:0:
192,192,31838,1,0,0:0:0:0:
448,192,31935,1,0,0:0:0:0:
320,192,32032,1,0,0:0:0:0:
192,192,32129,1,0,0:0:0:0:
64,192,32129,1,0,0:0:0:0:
448,192,32129,1,0,0:0:0:0:
320,192,32225,1,0,0:0:0:0:
64,192,32322,1,0,0:0:0:0:
448,192,32419,1,0,0:0:0:0:
320,192,32516,1,0,0:0:0:0:
192,192,32516,1,0,0:0:0:0:
64,192,32516,1,0,0:0:0:0:
448,192,32612,1,0,0:0:0:0:
192,192,32709,1,0,0:0:0:0:
320,192,32806,1,0,0:0:0:0:
64,192,32806,1,0,0:0:0:0:
448,192,32903,1,0,0:0:0:0:
192,192,32903,1,0,0:0:0:0:
320,192,33000,1,0,0:0:0:0:
64,192,33096,1,0,0:0:0:0:
448,192,33096,1,0,0:0:0:0:
192,192,33193,1,0,0:0:0:0:
320,192,33290,1,0,0:0:0:0:
64,192,33290,1,0,0:0:0:0:
448,192,33290,1,0,0:0:0:0:
192,192,33387,1,0,0:0:0:0:
320,192,33483,1,0,0:0:0:0:
448,192,33580,1,0,0:0:0:0:
320,192,33677,1,0,0:0:0:0:
192,192,33677,1,0,0:0:0:0:
64,192,33677,1,0,0:0:0:0:
448,192,33774,1,0,0:0:0:0:
192,192,33870,1,0,0:0:0:0:
64,192,33967,1,0,0:0:0:0:
192,192,34064,1,0,0:0:0:0:
320,192,34064,1,0,0:0:0:0:
448,192,34064,1,0,0:0:0:0:
64,192,34161,1,0,0:0:0:0:
448,192,34258,1,0,0:0:0:0:
320,192,34354,1,0,0:0:0:0:
192,192,34354,1,0,0:0:0:0:
64,192,34451,1,0,0:0:0:0:
448,192,34451,1,0,0:0:0:0:
320,192,34548,1,0,0:0:0:0:
192,192,34645,1,0,0:0:0:0:
64,192,34645,1,0,0:0:0:0:
448,192,34741,1,0,0:0:0:0:
320,192,34838,1,0,0:0:0:0:
64,192,34838,1,0,0:0:0:0:
192,192,34838,1,0,0:0:0:0:
448,192,34935,1,0,0:0:0:0:
320,192,35032,1,0,0:0:0:0:
64,192,35129,1,0,0:0:0:0:
192,192,35225,1,0,0:0:0:0:
320,192,35225,1,0,0:0:0:0:
448,192,35225,1,0,0:0:0:0:
64,192,35322,1,0,0:0:0:0:
192,192,35419,1,0,0:0:0:0:
448,192,35516,1,0,0:0:0:0:
320,192,35612,1,0,0:0:0:0:
64,192,35612,1,0,0:0:0:0:
192,192,35612,1,0,0:0:0:0:
448,192,35709,1,0,0:0:0:0:
320,192,35806,1,0,0:0:0:0:
192,192,35903,1,0,0:0:0:0:
448,192,36000,1,0,0:0:0:0:
320,192,36000,1,0,0:0:0:0:
64,192,36000,1,0,0:0:0:0:
192,192,36096,1,0,0:0:0:0:
64,192,36193,1,0,0:0:0:0:
448,192,36290,1,0,0:0:0:0:
320,192,36387,1,0,0:0:0:0:
192,192,36387,1,0,0:0:0:0:
64,192,36387,1,0,0:0:0:0:
448,192,36483,1,0,0:0:0:0:
320,192,36580,1,0,0:0:0:0:
192,192,36580,1,0,0:0:0:0:
64,192,36677,1,0,0:0:0:0:
192,192,36774,1,0,0:0:0:0:
320,192,36774,1,0,0:0:0:0:
448,192,36774,1,0,0:0:0:0:
64,192,36870,1,0,0:0:0:0:
448,192,36967,1,0,0:0:0:0:
320,192,36967,1,0,0:0:0:0:
192,192,37064,1,0,0:0:0:0:
64,192,37161,1,0,0:0:0:0:
320,192,37161,1,0,0:0:0:0:
448,192,37161,1,0,0:0:0:0:
192,192,37258,1,0,0:0:0:0:
448,192,37354,1,0,0:0:0:0:
64,192,37451,1,0,0:0:0:0:
320,192,37451,1,0,0:0:0:0:
448,192,37548,1,0,0:0:0:0:
192,192,37548,1,0,0:0:0:0:
64,192,37645,1,0,0:0:0:0:
320,192,37741,1,0,0:0:0:0:
192,192,37741,1,0,0:0:0:0:
448,192,37838,1,0,0:0:0:0:
320,192,37935,1,0,0:0:0:0:
64,192,37935,1,0,0:0:0:0:
192,192,37935,1,0,0:0:0:0:
448,192,38032,1,0,0:0:0:0:
64,192,38129,1,0,0:0:0:0:
320,192,38225,1,0,0:0:0:0:
64,192,38322,1,0,0:0:0:0:
448,192,38322,1,0,0:0:0:0:
192,192,38322,1,0,0:0:0:0:
320,192,38419,1,0,0:0:0:0:
448,192,38516,1,0,0:0:0:0:
64,192,38612,1,0,0:0:0:0:
192,192,38709,1,0,0:0:0:0:
448,192,38709,1,0,0:0:0:0:
320,192,38709,1,0,0:0:0:0:
64,192,38806,1,0,0:0:0:0:
192,192,38903,1,0,0:0:0:0:
320,192,39000,1,0,0:0:0:0:
448,192,39000,1,0,0:0:0:0:
192,192,39096,1,0,0:0:0:0:
64,192,39096,1,0,0:0:0:0:
320,192,39193,1,0,0:0:0:0:
448,192,39290,1,0,0:0:0:0:
64,192,39290,1,0,0:0:0:0:
192,192,39387,1,0,0:0:0:0:
320,192,39483,1,0,0:0:0:0:
448,192,39483,1,0,0:0:0:0:
64,192,39483,1,0,0:0:0:0:
192,192,39580,1,0,0:0:0:0:
320,192,39677,1,0,0:0:0:0:
64,192,39774,1,0,0:0:0:0:
448,192,39870,1,0,0:0:0:0:
320,192,39870,1,0,0:0:0:0:
192,192,39870,1,0,0:0:0:0:
64,192,39967,1,0,0:0:0:0:
448,192,40064,1,0,0:0:0:0:
320,192,40161,1,0,0:0:0:0:
192,192,40258,1,0,0:0:0:0:
64,192,40258,1,0,0:0:0:0:
448,192,40258,1,0,0:0:0:0:
320,192,40354,1,0,0:0:0:0:
192,192,40451,1,0,0:0:0:0:
448,192,40548,1,0,0:0:0:0:
64,192,40548,1,0,0:0:0:0:
192,192,40645,1,0,0:0:0:0:
320,192,40645,1,0,0:0:0:0:
448,192,40741,1,0,0:0:0:0:
320,192,40838,1,0,0:0:0:0:
64,192,40838,1,0,0:0:0:0:
192,192,40935,1,0,0:0:0:0:
320,192,41032,1,0,0:0:0:0:
448,192,41032,1,0,0:0:0:0:
64,192,41032,1,0,0:0:0:0:
192,192,41129,1,0,0:0:0:0:
448,192,41225,1,0,0:0:0:0:
64,192,41322,1,0,0:0:0:0:
192,192,41419,1,0,0:0:0:0:
320,192,41419,1,0,0:0:0:0:
448,192,41419,1,0,0:0:0:0:
64,192,41516,1,0,0:0:0:0:
320,192,41612,1,0,0:0:0:0:
192,192,41709,1,0,0:0:0:0:
320,192,41806,1,0,0:0:0:0:
64,192,41806,1,0,0:0:0:0:
448,192,41806,1,0,0:0:0:0:
192,192,41903,1,0,0:0:0:0:
320,192,42000,1,0,0:0:0:0:
448,192,42096,1,0,0:0:0:0:
320,192,42193,1,0,0:0:0:0:
192,192,42193,1,0,0:0:0:0:
64,192,42193,1,0,0:0:0:0:
448,192,42290,1,0,0:0:0:0:
192,192,42387,1,0,0:0:0:0:
64,192,42483,1,0,0:0:0:0:
448,192,42580,1,0,0:0:0:0:
320,192,42677,1,0,0:0:0:0:
192,192,42774,1,0,0:0:0:0:
64,192,42774,1,0,0:0:0:0:
448,192,42774,1,0,0:0:0:0:
320,192,42870,1,0,0:0:0:0:
64,192,42967,1,0,0:0:0:0:
192,192,42967,1,0,0:0:0:0:
448,192,42967,1,0,0:0:0:0:
320,192,43064,1,0,0:0:0:0:
192,192,43161,1,0,0:0:0:0:
64,192,43161,1,0,0:0:0:0:
448,192,43258,1,0,0:0:0:0:
320,192,43354,1,0,0:0:0:0:
192,192,43354,1,0,0:0:0:0:
64,192,43354,1,0,0:0:0:0:
448,192,43451,1,0,0:0:0:0:
320,192,43548,1,0,0:0:0:0:
64,192,43645,1,0,0:0:0:0:
192,192,43645,1,0,0:0:0:0:
320,192,43741,1,0,0:0:0:0:
448,192,43741,1,0,0:0:0:0:
192,192,43838,1,0,0:0:0:0:
64,192,43935,1,0,0:0:0:0:
448,192,43935,1,0,0:0:0:0:
320,192,44032,1,0,0:0:0:0:
192,192,44129,1,0,0:0:0:0:
64,192,44129,1,0,0:0:0:0:
448,192,44129,1,0,0:0:0:0:
320,192,44225,1,0,0:0:0:0:
192,192,44322,1,0,0:0:0:0:
448,192,44419,1,0,0:0:0:0:
320,192,44516,1,0,0:0:0:0:
64,192,44516,1,0,0:0:0:0:
192,192,44516,1,0,0:0:0:0:
448,192,44612,1,0,0:0:0:0:
64,192,44709,1,0,0:0:0:0:
192,192,44806,1,0,0:0:0:0:
320,192,44903,1,0,0:0:0:0:
448,192,44903,1,0,0:0:0:0:
64,192,44903,1,0,0:0:0:0:
192,192,45000,1,0,0:0:0:0:
320,192,45096,1,0,0:0:0:0:
64,192,45193,1,0,0:0:0:0:
448,192,45193,1,0,0:0:0:0:
320,192,45290,1,0,0:0:0:0:
192,192,45290,1,0,0:0:0:0:
64,192,45387,1,0,0:0:0:0:
448,192,45483,1,0,0:0:0:0:
192,192,45483,1,0,0:0:0:0:
320,192,45580,1,0,0:0:0:0:
192,192,45677,1,0,0:0:0:0:
64,192,45677,1,0,0:0:0:0:
448,192,45677,1,0,0:0:0:0:
320,192,45774,1,0,0:0:0:0:
64,192,45870,1,0,0:0:0:0:
448,192,45967,1,0,0:0:0:0:
320,192,46064,1,0,0:0:0:0:
192,192,46064,1,0,0:0:0:0:
64,192,46064,1,0,0:0:0:0:
448,192,46161,1,0,0:0:0:0:
320,192,46258,1,0,0:0:0:0:
192,192,46354,1,0,0:0:0:0:
320,192,46451,1,0,0:0:0:0:
448,192,46451,1,0,0:0:0:0:
64,192,46451,1,0,0:0:0:0:
192,192,46548,1,0,0:0:0:0:
448,192,46645,1,0,0:0:0:0:
64,192,46741,1,0,0:0:0:0:
320,192,46741,1,0,0:0:0:0:
192,192,46838,1,0,0:0:0:0:
448,192,46838,1,0,0:0:0:0:
64,192,46935,1,0,0:0:0:0:
320,192,47032,1,0,0:0:0:0:
192,192,47032,1,0,0:0:0:0:
448,192,47129,1,0,0:0:0:0:
320,192,47225,1,0,0:0:0:0:
192,192,47225,1,0,0:0:0:0:
64,192,47225,1,0,0:0:0:0:
448,192,47322,1,0,0:0:0:0:
320,192,47419,1,0,0:0:0:0:
192,192,47419,1,0,0:0:0:0:
64,192,47419,1,0,0:0:0:0:
448,192,47516,1,0,0:0:0:0:
64,192,47612,1,0,0:0:0:0:
192,192,47709,1,0,0:0:0:0:
320,192,47806,1,0,0:0:0:0:
448,192,47806,1,0,0:0:0:0:
64,192,47806,1,0,0:0:0:0:
192,192,47903,1,0,0:0:0:0:
320,192,48000,1,0,0:0:0:0:
448,192,48096,1,0,0:0:0:0:
192,192,48193,1,0,0:0:0:0:
320,192,48290,1,0,0:0:0:0:
64,192,48387,1,0,0:0:0:0:
192,192,48387,1,0,0:0:0:0:
448,192,48387,1,0,0:0:0:0:
320,192,48483,1,0,0:0:0:0:
64,192,48580,1,0,0:0:0:0:
448,192,48677,1,0,0:0:0:0:
320,192,48774,1,0,0:0:0:0:
64,192,48774,1,0,0:0:0:0:
192,192,48774,1,0,0:0:0:0:
448,192,48870,1,0,0:0:0:0:
320,192,48967,1,0,0:0:0:0:
192,192,48967,1,0,0:0:0:0:
64,192,49064,1,0,0:0:0:0:
192,192,49161,1,0,0:0:0:0:
320,192,49161,1,0,0:0:0:0:
448,192,49161,1,0,0:0:0:0:
64,192,49258,1,0,0:0:0:0:
192,192,49354,1,0,0:0:0:0:
448,192,49354,1,0,0:0:0:0:
320,192,49451,1,0,0:0:0:0:
448,192,49548,1,0,0:0:0:0:
192,192,49548,1,0,0:0:0:0:
64,192,49548,1,0,0:0:0:0:
320,192,49645,1,0,0:0:0:0:
448,192,49741,1,0,0:0:0:0:
64,192,49741,1,0,0:0:0:0:
192,192,49838,1,0,0:0:0:0:
320,192,49935,1,0,0:0:0:0:
448,192,49935,1,0,0:0:0:0:
64,192,49935,1,0,0:0:0:0:
192,192,50032,1,0,0:0:0:0:
320,192,50129,1,0,0:0:0:0:
64,192,50129,1,0,0:0:0:0:
448,192,50225,1,0,0:0:0:0:
320,192,50322,1,0,0:0:0:0:
192,192,50322,1,0,0:0:0:0:
64,192,50322,1,0,0:0:0:0:
448,192,50419,1,0,0:0:0:0:
320,192,50516,1,0,0:0:0:0:
192,192,50516,1,0,0:0:0:0:
64,192,50612,1,0,0:0:0:0:
192,192,50709,1,0,0:0:0:0:
320,192,50709,1,0,0:0:0:0:
448,192,50709,1,0,0:0:0:0:
64,192,50806,1,0,0:0:0:0:
192,192,50903,1,0,0:0:0:0:
448,192,50903,1,0,0:0:0:0:
320,192,51000,1,0,0:0:0:0:
64,192,51096,1,0,0:0:0:0:
192,192,51096,1,0,0:0:0:0:
448,192,51096,1,0,0:0:0:0:
320,192,51193,1,0,0:0:0:0:
64,192,51290,1,0,0:0:0:0:
192,192,51290,1,0,0:0:0:0:
448,192,51387,1,0,0:0:0:0:
64,192,51483,1,0,0:0:0:0:
192,192,51483,1,0,0:0:0:0:
320,192,51483,1,0,0:0:0:0:
448,192,51580,1,0,0:0:0:0:
64,192,51677,1,0,0:0:0:0:
320,192,51677,1,0,0:0:0:0:
192,192,51774,1,0,0:0:0:0:
320,192,51870,1,0,0:0:0:0:
64,192,51870,1,0,0:0:0:0:
448,192,51870,1,0,0:0:0:0:
192,192,51967,1,0,0:0:0:0:
320,192,52064,1,0,0:0:0:0:
448,192,52064,1,0,0:0:0:0:
64,192,52161,1,0,0:0:0:0:
192,192,52258,1,0,0:0:0:0:
320,192,52258,1,0,0:0:0:0:
448,192,52258,1,0,0:0:0:0:
64,192,52354,1,0,0:0:0:0:
192,192,52451,1,0,0:0:0:0:
448,192,52451,1,0,0:0:0:0:
320,192,52548,1,0,0:0:0:0:
192,192,52645,1,0,0:0:0:0:
64,192,52645,1,0,0:0:0:0:
448,192,52645,1,0,0:0:0:0:
320,192,52741,1,0,0:0:0:0:
64,192,52838,1,0,0:0:0:0:
320,192,52935,1,0,0:0:0:0:
64,192,53032,1,0,0:0:0:0:
192,192,53032,128,0,53129:0:0:0:0:
320,192,53129,1,0,0:0:0:0:
64,192,53225,1,0,0:0:0:0:
448,192,53225,128,0,53322:0:0:0:0:
320,192,53322,1,0,0:0:0:0:
64,192,53419,1,0,0:0:0:0:
320,192,53516,1,0,0:0:0:0:
64,192,53612,1,0,0:0:0:0:
448,192,53612,128,0,53709:0:0:0:0:
320,192,53709,1,0,0:0:0:0:
64,192,53806,1,0,0:0:0:0:
320,192,53903,1,0,0:0:0:0:
64,192,54000,1,0,0:0:0:0:
192,192,54000,128,0,54096:0:0:0:0:
320,192,54096,1,0,0:0:0:0:
64,192,54193,1,0,0:0:0:0:
320,192,54290,1,0,0:0:0:0:
64,192,54387,1,0,0:0:0:0:
320,192,54483,1,0,0:0:0:0:
64,192,54580,1,0,0:0:0:0:
320,192,54677,1,0,0:0:0:0:
64,192,54774,1,0,0:0:0:0:
320,192,54870,1,0,0:0:0:0:
64,192,54967,1,0,0:0:0:0:
448,192,54967,1,0,0:0:0:0:
192,192,55161,1,0,0:0:0:0:
448,192,55161,1,0,0:0:0:0:
320,192,55354,1,0,0:0:0:0:
64,192,55354,1,0,0:0:0:0:
448,192,55548,1,0,0:0:0:0:
64,192,55548,1,0,0:0:0:0:
192,192,55741,5,0,0:0:0:0:
448,192,55741,1,0,0:0:0:0:
320,192,55741,1,0,0:0:0:0:
64,192,55838,1,0,0:0:0:0:
320,192,55935,1,0,0:0:0:0:
192,192,55935,1,0,0:0:0:0:
448,192,56032,1,0,0:0:0:0:
64,192,56129,1,0,0:0:0:0:
320,192,56129,1,0,0:0:0:0:
192,192,56129,1,0,0:0:0:0:
448,192,56225,1,0,0:0:0:0:
64,192,56322,1,0,0:0:0:0:
320,192,56322,1,0,0:0:0:0:
192,192,56419,1,0,0:0:0:0:
64,192,56516,1,0,0:0:0:0:
448,192,56516,1,0,0:0:0:0:
320,192,56516,1,0,0:0:0:0:
192,192,56612,1,0,0:0:0:0:
448,192,56709,1,0,0:0:0:0:
64,192,56709,1,0,0:0:0:0:
320,192,56806,1,0,0:0:0:0:
448,192,56903,1,0,0:0:0:0:
64,192,56903,1,0,0:0:0:0:
192,192,56903,1,0,0:0:0:0:
320,192,57000,1,0,0:0:0:0:
448,192,57096,1,0,0:0:0:0:
192,192,57096,1,0,0:0:0:0:
64,192,57193,1,0,0:0:0:0:
448,192,57290,1,0,0:0:0:0:
320,192,57290,1,0,0:0:0:0:
192,192,57290,1,0,0:0:0:0:
64,192,57387,1,0,0:0:0:0:
448,192,57483,1,0,0:0:0:0:
320,192,57483,1,0,0:0:0:0:
192,192,57580,1,0,0:0:0:0:
64,192,57677,1,0,0:0:0:0:
448,192,57677,1,0,0:0:0:0:
320,192,57677,1,0,0:0:0:0:
192,192,57774,1,0,0:0:0:0:
64,192,57870,1,0,0:0:0:0:
320,192,57870,1,0,0:0:0:0:
448,192,57967,1,0,0:0:0:0:
64,192,58064,1,0,0:0:0:0:
320,192,58064,1,0,0:0:0:0:
192,192,58064,1,0,0:0:0:0:
448,192,58161,1,0,0:0:0:0:
64,192,58258,1,0,0:0:0:0:
192,192,58258,1,0,0:0:0:0:
320,192,58354,1,0,0:0:0:0:
448,192,58451,1,0,0:0:0:0:
64,192,58451,1,0,0:0:0:0:
192,192,58451,1,0,0:0:0:0:
320,192,58548,1,0,0:0:0:0:
448,192,58645,1,0,0:0:0:0:
192,192,58645,1,0,0:0:0:0:
64,192,58741,1,0,0:0:0:0:
448,192,58838,1,0,0:0:0:0:
320,192,58838,1,0,0:0:0:0:
192,192,58838,1,0,0:0:0:0:
64,192,58935,1,0,0:0:0:0:
320,192,59032,1,0,0:0:0:0:
192,192,59032,1,0,0:0:0:0:
448,192,59129,1,0,0:0:0:0:
64,192,59225,1,0,0:0:0:0:
320,192,59225,1,0,0:0:0:0:
192,192,59225,1,0,0:0:0:0:
448,192,59322,1,0,0:0:0:0:
64,192,59419,1,0,0:0:0:0:
320,192,59419,1,0,0:0:0:0:
192,192,59516,1,0,0:0:0:0:
64,192,59612,1,0,0:0:0:0:
448,192,59612,1,0,0:0:0:0:
320,192,59612,1,0,0:0:0:0:
192,192,59709,1,0,0:0:0:0:
448,192,59806,1,0,0:0:0:0:
64,192,59806,1,0,0:0:0:0:
320,192,59903,1,0,0:0:0:0:
448,192,60000,1,0,0:0:0:0:
64,192,60000,1,0,0:0:0:0:
192,192,60000,1,0,0:0:0:0:
320,192,60096,1,0,0:0:0:0:
448,192,60193,1,0,0:0:0:0:
192,192,60193,1,0,0:0:0:0:
64,192,60290,1,0,0:0:0:0:
448,192,60387,1,0,0:0:0:0:
320,192,60387,1,0,0:0:0:0:
192,192,60387,1,0,0:0:0:0:
64,192,60483,1,0,0:0:0:0:
320,192,60580,1,0,0:0:0:0:
192,192,60580,1,0,0:0:0:0:
448,192,60677,1,0,0:0:0:0:
64,192,60774,1,0,0:0:0:0:
320,192,60774,1,0,0:0:0:0:
192,192,60774,1,0,0:0:0:0:
448,192,60870,1,0,0:0:0:0:
64,192,60967,1,0,0:0:0:0:
320,192,60967,1,0,0:0:0:0:
192,192,61064,1,0,0:0:0:0:
448,192,61161,1,0,0:0:0:0:
64,192,61161,1,0,0:0:0:0:
320,192,61161,1,0,0:0:0:0:
192,192,61258,1,0,0:0:0:0:
448,192,61354,1,0,0:0:0:0:
320,192,61354,1,0,0:0:0:0:
64,192,61451,1,0,0:0:0:0:
448,192,61548,1,0,0:0:0:0:
320,192,61548,1,0,0:0:0:0:
192,192,61548,1,0,0:0:0:0:
64,192,61645,1,0,0:0:0:0:
448,192,61741,1,0,0:0:0:0:
192,192,61741,1,0,0:0:0:0:
320,192,61838,1,0,0:0:0:0:
448,192,61935,1,0,0:0:0:0:
64,192,61935,1,0,0:0:0:0:
192,192,61935,1,0,0:0:0:0:
320,192,62032,1,0,0:0:0:0:
64,192,62129,1,0,0:0:0:0:
192,192,62129,1,0,0:0:0:0:
448,192,62225,1,0,0:0:0:0:
64,192,62322,1,0,0:0:0:0:
320,192,62322,1,0,0:0:0:0:
192,192,62322,1,0,0:0:0:0:
448,192,62419,1,0,0:0:0:0:
64,192,62516,1,0,0:0:0:0:
320,192,62516,1,0,0:0:0:0:
192,192,62612,1,0,0:0:0:0:
64,192,62709,1,0,0:0:0:0:
448,192,62709,1,0,0:0:0:0:
320,192,62709,1,0,0:0:0:0:
192,192,62806,1,0,0:0:0:0:
64,192,62903,1,0,0:0:0:0:
448,192,62903,1,0,0:0:0:0:
320,192,63000,1,0,0:0:0:0:
448,192,63096,1,0,0:0:0:0:
64,192,63096,1,0,0:0:0:0:
192,192,63096,1,0,0:0:0:0:
320,192,63193,1,0,0:0:0:0:
448,192,63290,1,0,0:0:0:0:
192,192,63290,1,0,0:0:0:0:
64,192,63387,1,0,0:0:0:0:
448,192,63483,1,0,0:0:0:0:
320,192,63483,1,0,0:0:0:0:
192,192,63483,1,0,0:0:0:0:
64,192,63580,1,0,0:0:0:0:
320,192,63677,1,0,0:0:0:0:
192,192,63677,1,0,0:0:0:0:
448,192,63774,1,0,0:0:0:0:
64,192,63870,1,0,0:0:0:0:
320,192,63870,1,0,0:0:0:0:
192,192,63870,1,0,0:0:0:0:
448,192,63967,1,0,0:0:0:0:
64,192,64064,1,0,0:0:0:0:
320,192,64064,1,0,0:0:0:0:
192,192,64161,1,0,0:0:0:0:
64,192,64258,1,0,0:0:0:0:
448,192,64258,1,0,0:0:0:0:
320,192,64258,1,0,0:0:0:0:
192,192,64354,1,0,0:0:0:0:
448,192,64451,1,0,0:0:0:0:
64,192,64451,1,0,0:0:0:0:
320,192,64548,1,0,0:0:0:0:
448,192,64645,1,0,0:0:0:0:
64,192,64645,1,0,0:0:0:0:
192,192,64645,1,0,0:0:0:0:
320,192,64741,1,0,0:0:0:0:
448,192,64838,1,0,0:0:0:0:
192,192,64838,1,0,0:0:0:0:
64,192,64935,1,0,0:0:0:0:
448,192,65032,1,0,0:0:0:0:
320,192,65032,1,0,0:0:0:0:
192,192,65032,1,0,0:0:0:0:
64,192,65129,1,0,0:0:0:0:
320,192,65225,1,0,0:0:0:0:
192,192,65225,1,0,0:0:0:0:
448,192,65322,1,0,0:0:0:0:
64,192,65419,1,0,0:0:0:0:
320,192,65419,1,0,0:0:0:0:
192,192,65419,1,0,0:0:0:0:
448,192,65516,1,0,0:0:0:0:
64,192,65612,1,0,0:0:0:0:
320,192,65612,1,0,0:0:0:0:
192,192,65709,1,0,0:0:0:0:
64,192,65806,1,0,0:0:0:0:
448,192,65806,1,0,0:0:0:0:
320,192,65806,1,0,0:0:0:0:
192,192,65903,1,0,0:0:0:0:
448,192,66000,1,0,0:0:0:0:
64,192,66000,1,0,0:0:0:0:
320,192,66096,1,0,0:0:0:0:
448,192,66193,1,0,0:0:0:0:
64,192,66193,1,0,0:0:0:0:
192,192,66193,1,0,0:0:0:0:
320,192,66290,1,0,0:0:0:0:
448,192,66387,1,0,0:0:0:0:
192,192,66387,1,0,0:0:0:0:
64,192,66483,1,0,0:0:0:0:
448,192,66580,1,0,0:0:0:0:
320,192,66580,1,0,0:0:0:0:
192,192,66580,1,0,0:0:0:0:
64,192,66677,1,0,0:0:0:0:
448,192,66774,1,0,0:0:0:0:
320,192,66870,1,0,0:0:0:0:
448,192,66967,1,0,0:0:0:0:
64,192,66967,1,0,0:0:0:0:
192,192,66967,1,0,0:0:0:0:
320,192,67064,1,0,0:0:0:0:
448,192,67161,1,0,0:0:0:0:
64,192,67258,1,0,0:0:0:0:
192,192,67354,1,0,0:0:0:0:
64,192,67451,1,0,0:0:0:0:
448,192,67548,1,0,0:0:0:0:
320,192,67548,1,0,0:0:0:0:
192,192,67645,1,0,0:0:0:0:
64,192,67741,1,0,0:0:0:0:
448,192,67741,1,0,0:0:0:0:
320,192,67741,1,0,0:0:0:0:
192,192,67838,1,0,0:0:0:0:
320,192,67935,1,0,0:0:0:0:
448,192,68032,1,0,0:0:0:0:
64,192,68129,1,0,0:0:0:0:
320,192,68129,1,0,0:0:0:0:
192,192,68129,1,0,0:0:0:0:
448,192,68225,1,0,0:0:0:0:
64,192,68322,1,0,0:0:0:0:
192,192,68322,1,0,0:0:0:0:
320,192,68419,1,0,0:0:0:0:
448,192,68516,1,0,0:0:0:0:
64,192,68516,1,0,0:0:0:0:
192,192,68516,1,0,0:0:0:0:
320,192,68612,1,0,0:0:0:0:
64,192,68709,1,0,0:0:0:0:
448,192,68709,1,0,0:0:0:0:
192,192,68806,1,0,0:0:0:0:
64,192,68903,1,0,0:0:0:0:
448,192,68903,1,0,0:0:0:0:
320,192,68903,1,0,0:0:0:0:
192,192,69000,1,0,0:0:0:0:
448,192,69096,1,0,0:0:0:0:
320,192,69096,1,0,0:0:0:0:
64,192,69193,1,0,0:0:0:0:
448,192,69290,1,0,0:0:0:0:
320,192,69290,1,0,0:0:0:0:
192,192,69290,1,0,0:0:0:0:
64,192,69387,1,0,0:0:0:0:
320,192,69483,1,0,0:0:0:0:
192,192,69483,1,0,0:0:0:0:
448,192,69580,1,0,0:0:0:0:
64,192,69677,1,0,0:0:0:0:
320,192,69677,1,0,0:0:0:0:
192,192,69677,1,0,0:0:0:0:
448,192,69774,1,0,0:0:0:0:
64,192,69870,1,0,0:0:0:0:
320,192,69870,1,0,0:0:0:0:
448,192,69967,1,0,0:0:0:0:
64,192,70064,1,0,0:0:0:0:
320,192,70064,1,0,0:0:0:0:
192,192,70064,1,0,0:0:0:0:
448,192,70161,1,0,0:0:0:0:
64,192,70258,1,0,0:0:0:0:
192,192,70258,1,0,0:0:0:0:
320,192,70354,1,0,0:0:0:0:
448,192,70451,1,0,0:0:0:0:
64,192,70451,1,0,0:0:0:0:
192,192,70451,1,0,0:0:0:0:
320,192,70548,1,0,0:0:0:0:
448,192,70645,1,0,0:0:0:0:
192,192,70645,1,0,0:0:0:0:
64,192,70741,1,0,0:0:0:0:
448,192,70838,1,0,0:0:0:0:
320,192,70838,1,0,0:0:0:0:
192,192,70838,1,0,0:0:0:0:
64,192,70935,1,0,0:0:0:0:
448,192,71032,1,0,0:0:0:0:
320,192,71032,1,0,0:0:0:0:
192,192,71129,1,0,0:0:0:0:
64,192,71225,1,0,0:0:0:0:
448,192,71225,1,0,0:0:0:0:
320,192,71225,1,0,0:0:0:0:
192,192,71322,1,0,0:0:0:0:
64,192,71419,1,0,0:0:0:0:
320,192,71419,1,0,0:0:0:0:
192,192,71516,1,0,0:0:0:0:
64,192,71612,1,0,0:0:0:0:
448,192,71612,1,0,0:0:0:0:
320,192,71612,1,0,0:0:0:0:
192,192,71709,1,0,0:0:0:0:
448,192,71806,1,0,0:0:0:0:
64,192,71806,1,0,0:0:0:0:
320,192,71903,1,0,0:0:0:0:
448,192,72000,1,0,0:0:0:0:
64,192,72000,1,0,0:0:0:0:
192,192,72000,1,0,0:0:0:0:
320,192,72096,1,0,0:0:0:0:
448,192,72193,1,0,0:0:0:0:
192,192,72193,1,0,0:0:0:0:
64,192,72290,1,0,0:0:0:0:
448,192,72387,1,0,0:0:0:0:
320,192,72387,1,0,0:0:0:0:
192,192,72387,1,0,0:0:0:0:
64,192,72483,1,0,0:0:0:0:
320,192,72580,1,0,0:0:0:0:
192,192,72580,1,0,0:0:0:0:
448,192,72677,1,0,0:0:0:0:
64,192,72774,1,0,0:0:0:0:
320,192,72774,1,0,0:0:0:0:
192,192,72774,1,0,0:0:0:0:
448,192,72870,1,0,0:0:0:0:
64,192,72967,1,0,0:0:0:0:
320,192,72967,1,0,0:0:0:0:
192,192,73064,1,0,0:0:0:0:
448,192,73161,1,0,0:0:0:0:
64,192,73161,1,0,0:0:0:0:
320,192,73161,1,0,0:0:0:0:
192,192,73258,1,0,0:0:0:0:
448,192,73354,1,0,0:0:0:0:
64,192,73354,1,0,0:0:0:0:
320,192,73451,1,0,0:0:0:0:
448,192,73548,1,0,0:0:0:0:
64,192,73548,1,0,0:0:0:0:
192,192,73548,1,0,0:0:0:0:
320,192,73645,1,0,0:0:0:0:
448,192,73741,1,0,0:0:0:0:
192,192,73741,1,0,0:0:0:0:
64,192,73838,1,0,0:0:0:0:
448,192,73935,1,0,0:0:0:0:
320,192,73935,1,0,0:0:0:0:
192,192,73935,1,0,0:0:0:0:
64,192,74032,1,0,0:0:0:0:
320,192,74129,1,0,0:0:0:0:
192,192,74129,1,0,0:0:0:0:
448,192,74225,1,0,0:0:0:0:
64,192,74322,1,0,0:0:0:0:
320,192,74322,1,0,0:0:0:0:
192,192,74322,1,0,0:0:0:0:
448,192,74419,1,0,0:0:0:0:
64,192,74516,1,0,0:0:0:0:
320,192,74516,1,0,0:0:0:0:
192,192,74612,1,0,0:0:0:0:
64,192,74709,1,0,0:0:0:0:
448,192,74709,1,0,0:0:0:0:
320,192,74709,1,0,0:0:0:0:
192,192,74806,1,0,0:0:0:0:
448,192,74903,1,0,0:0:0:0:
64,192,74903,1,0,0:0:0:0:
320,192,75000,1,0,0:0:0:0:
448,192,75096,1,0,0:0:0:0:
64,192,75096,1,0,0:0:0:0:
192,192,75096,1,0,0:0:0:0:
320,192,75193,1,0,0:0:0:0:
448,192,75290,1,0,0:0:0:0:
192,192,75290,1,0,0:0:0:0:
320,192,75387,1,0,0:0:0:0:
448,192,75483,1,0,0:0:0:0:
64,192,75483,1,0,0:0:0:0:
192,192,75483,1,0,0:0:0:0:
320,192,75580,1,0,0:0:0:0:
64,192,75677,1,0,0:0:0:0:
192,192,75677,1,0,0:0:0:0:
448,192,75774,1,0,0:0:0:0:
64,192,75870,1,0,0:0:0:0:
320,192,75870,1,0,0:0:0:0:
192,192,75870,1,0,0:0:0:0:
448,192,75967,1,0,0:0:0:0:
64,192,76064,1,0,0:0:0:0:
320,192,76064,1,0,0:0:0:0:
192,192,76161,1,0,0:0:0:0:
448,192,76258,1,0,0:0:0:0:
64,192,76258,1,0,0:0:0:0:
320,192,76258,1,0,0:0:0:0:
192,192,76354,1,0,0:0:0:0:
448,192,76451,1,0,0:0:0:0:
320,192,76451,1,0,0:0:0:0:
64,192,76548,1,0,0:0:0:0:
448,192,76645,1,0,0:0:0:0:
320,192,76645,1,0,0:0:0:0:
192,192,76645,1,0,0:0:0:0:
64,192,76741,1,0,0:0:0:0:
448,192,76838,1,0,0:0:0:0:
192,192,76838,1,0,0:0:0:0:
64,192,76935,1,0,0:0:0:0:
448,192,77032,1,0,0:0:0:0:
320,192,77032,1,0,0:0:0:0:
192,192,77032,1,0,0:0:0:0:
64,192,77129,1,0,0:0:0:0:
320,192,77225,1,0,0:0:0:0:
192,192,77225,1,0,0:0:0:0:
448,192,77322,1,0,0:0:0:0:
64,192,77419,1,0,0:0:0:0:
320,192,77419,1,0,0:0:0:0:
192,192,77419,1,0,0:0:0:0:
448,192,77516,1,0,0:0:0:0:
64,192,77612,1,0,0:0:0:0:
448,192,77709,1,0,0:0:0:0:
64,192,77806,1,0,0:0:0:0:
320,192,77806,128,0,77903:0:0:0:0:
448,192,77903,1,0,0:0:0:0:
64,192,78000,1,0,0:0:0:0:
192,192,78000,128,0,78096:0:0:0:0:
448,192,78096,1,0,0:0:0:0:
64,192,78193,1,0,0:0:0:0:
448,192,78290,1,0,0:0:0:0:
64,192,78387,1,0,0:0:0:0:
192,192,78387,128,0,78483:0:0:0:0:
448,192,78483,1,0,0:0:0:0:
64,192,78580,1,0,0:0:0:0:
448,192,78677,1,0,0:0:0:0:
64,192,78774,1,0,0:0:0:0:
320,192,78774,128,0,78870:0:0:0:0:
448,192,78870,1,0,0:0:0:0:
64,192,78967,1,0,0:0:0:0:
448,192,79064,1,0,0:0:0:0:
64,192,79161,1,0,0:0:0:0:
448,192,79258,1,0,0:0:0:0:
64,192,79354,1,0,0:0:0:0:
448,192,79451,1,0,0:0:0:0:
64,192,79548,1,0,0:0:0:0:
448,192,79645,1,0,0:0:0:0:
64,192,79741,1,0,0:0:0:0:
320,192,79741,1,0,0:0:0:0:
192,192,79935,1,0,0:0:0:0:
320,192,79935,1,0,0:0:0:0:
64,192,80129,1,0,0:0:0:0:
448,192,80129,1,0,0:0:0:0:
192,192,80322,1,0,0:0:0:0:
64,192,80322,1,0,0:0:0:0:
192,192,80516,1,0,0:0:0:0:
448,192,80516,1,0,0:0:0:0:
320,192,80516,1,0,0:0:0:0:
64,192,80612,1,0,0:0:0:0:
448,192,80709,1,0,0:0:0:0:
192,192,80806,1,0,0:0:0:0:
320,192,80806,1,0,0:0:0:0:
64,192,80903,1,0,0:0:0:0:
448,192,80903,1,0,0:0:0:0:
192,192,81000,1,0,0:0:0:0:
64,192,81096,1,0,0:0:0:0:
320,192,81096,1,0,0:0:0:0:
448,192,81193,1,0,0:0:0:0:
64,192,81290,1,0,0:0:0:0:
192,192,81290,1,0,0:0:0:0:
320,192,81290,1,0,0:0:0:0:
448,192,81387,1,0,0:0:0:0:
192,192,81483,1,0,0:0:0:0:
64,192,81580,1,0,0:0:0:0:
192,192,81677,1,0,0:0:0:0:
448,192,81677,1,0,0:0:0:0:
320,192,81677,1,0,0:0:0:0:
64,192,81774,1,0,0:0:0:0:
320,192,81870,1,0,0:0:0:0:
192,192,81967,1,0,0:0:0:0:
64,192,82064,1,0,0:0:0:0:
448,192,82064,1,0,0:0:0:0:
320,192,82064,1,0,0:0:0:0:
192,192,82161,1,0,0:0:0:0:
448,192,82258,1,0,0:0:0:0:
64,192,82354,1,0,0:0:0:0:
320,192,82354,1,0,0:0:0:0:
192,192,82451,1,0,0:0:0:0:
448,192,82451,1,0,0:0:0:0:
64,192,82548,1,0,0:0:0:0:
192,192,82645,1,0,0:0:0:0:
320,192,82645,1,0,0:0:0:0:
448,192,82741,1,0,0:0:0:0:
64,192,82838,1,0,0:0:0:0:
192,192,82838,1,0,0:0:0:0:
320,192,82838,1,0,0:0:0:0:
448,192,82935,1,0,0:0:0:0:
64,192,83032,1,0,0:0:0:0:
192,192,83129,1,0,0:0:0:0:
64,192,83225,1,0,0:0:0:0:
448,192,83225,1,0,0:0:0:0:
320,192,83225,1,0,0:0:0:0:
192,192,83322,1,0,0:0:0:0:
448,192,83419,1,0,0:0:0:0:
320,192,83516,1,0,0:0:0:0:
64,192,83612,1,0,0:0:0:0:
192,192,83612,1,0,0:0:0:0:
448,192,83612,1,0,0:0:0:0:
320,192,83709,1,0,0:0:0:0:
192,192,83806,1,0,0:0:0:0:
64,192,83903,1,0,0:0:0:0:
448,192,83903,1,0,0:0:0:0:
192,192,84000,1,0,0:0:0:0:
320,192,84000,1,0,0:0:0:0:
64,192,84096,1,0,0:0:0:0:
448,192,84193,1,0,0:0:0:0:
320,192,84193,1,0,0:0:0:0:
192,192,84290,1,0,0:0:0:0:
64,192,84387,1,0,0:0:0:0:
448,192,84387,1,0,0:0:0:0:
320,192,84387,1,0,0:0:0:0:
192,192,84483,1,0,0:0:0:0:
64,192,84580,1,0,0:0:0:0:
320,192,84677,1,0,0:0:0:0:
64,192,84774,1,0,0:0:0:0:
192,192,84774,1,0,0:0:0:0:
448,192,84774,1,0,0:0:0:0:
320,192,84870,1,0,0:0:0:0:
448,192,84967,1,0,0:0:0:0:
192,192,85064,1,0,0:0:0:0:
64,192,85161,1,0,0:0:0:0:
448,192,85161,1,0,0:0:0:0:
320,192,85161,1,0,0:0:0:0:
192,192,85258,1,0,0:0:0:0:
64,192,85354,1,0,0:0:0:0:
448,192,85451,1,0,0:0:0:0:
192,192,85548,1,0,0:0:0:0:
64,192,85548,1,0,0:0:0:0:
320,192,85548,1,0,0:0:0:0:
448,192,85645,1,0,0:0:0:0:
320,192,85741,1,0,0:0:0:0:
192,192,85838,1,0,0:0:0:0:
64,192,85935,1,0,0:0:0:0:
448,192,85935,1,0,0:0:0:0:
320,192,85935,1,0,0:0:0:0:
192,192,86032,1,0,0:0:0:0:
64,192,86129,1,0,0:0:0:0:
448,192,86129,1,0,0:0:0:0:
320,192,86225,1,0,0:0:0:0:
64,192,86322,1,0,0:0:0:0:
192,192,86322,1,0,0:0:0:0:
448,192,86322,1,0,0:0:0:0:
320,192,86419,1,0,0:0:0:0:
192,192,86516,1,0,0:0:0:0:
64,192,86516,1,0,0:0:0:0:
448,192,86612,1,0,0:0:0:0:
64,192,86709,1,0,0:0:0:0:
192,192,86709,1,0,0:0:0:0:
320,192,86709,1,0,0:0:0:0:
448,192,86806,1,0,0:0:0:0:
192,192,86903,1,0,0:0:0:0:
64,192,87000,1,0,0:0:0:0:
320,192,87000,1,0,0:0:0:0:
192,192,87096,1,0,0:0:0:0:
448,192,87096,1,0,0:0:0:0:
320,192,87193,1,0,0:0:0:0:
64,192,87290,1,0,0:0:0:0:
448,192,87290,1,0,0:0:0:0:
192,192,87387,1,0,0:0:0:0:
64,192,87483,1,0,0:0:0:0:
448,192,87483,1,0,0:0:0:0:
320,192,87483,1,0,0:0:0:0:
192,192,87580,1,0,0:0:0:0:
320,192,87677,1,0,0:0:0:0:
64,192,87774,1,0,0:0:0:0:
192,192,87870,1,0,0:0:0:0:
448,192,87870,1,0,0:0:0:0:
320,192,87870,1,0,0:0:0:0:
64,192,87967,1,0,0:0:0:0:
192,192,88064,1,0,0:0:0:0:
320,192,88161,1,0,0:0:0:0:
192,192,88258,1,0,0:0:0:0:
64,192,88258,1,0,0:0:0:0:
448,192,88258,1,0,0:0:0:0:
320,192,88354,1,0,0:0:0:0:
448,192,88451,1,0,0:0:0:0:
64,192,88548,1,0,0:0:0:0:
192,192,88548,1,0,0:0:0:0:
448,192,88645,1,0,0:0:0:0:
320,192,88645,1,0,0:0:0:0:
64,192,88741,1,0,0:0:0:0:
192,192,88838,1,0,0:0:0:0:
320,192,88838,1,0,0:0:0:0:
448,192,88935,1,0,0:0:0:0:
64,192,89032,1,0,0:0:0:0:
192,192,89032,1,0,0:0:0:0:
320,192,89032,1,0,0:0:0:0:
448,192,89129,1,0,0:0:0:0:
64,192,89225,1,0,0:0:0:0:
320,192,89322,1,0,0:0:0:0:
192,192,89419,1,0,0:0:0:0:
64,192,89419,1,0,0:0:0:0:
448,192,89419,1,0,0:0:0:0:
320,192,89516,1,0,0:0:0:0:
192,192,89612,1,0,0:0:0:0:
64,192,89709,1,0,0:0:0:0:
192,192,89806,1,0,0:0:0:0:
448,192,89806,1,0,0:0:0:0:
320,192,89806,1,0,0:0:0:0:
64,192,89903,1,0,0:0:0:0:
448,192,90000,1,0,0:0:0:0:
192,192,90096,1,0,0:0:0:0:
320,192,90096,1,0,0:0:0:0:
64,192,90193,1,0,0:0:0:0:
448,192,90193,1,0,0:0:0:0:
192,192,90290,1,0,0:0:0:0:
64,192,90387,1,0,0:0:0:0:
320,192,90387,1,0,0:0:0:0:
448,192,90483,1,0,0:0:0:0:
64,192,90580,1,0,0:0:0:0:
192,192,90580,1,0,0:0:0:0:
320,192,90580,1,0,0:0:0:0:
448,192,90677,1,0,0:0:0:0:
192,192,90774,1,0,0:0:0:0:
320,192,90870,1,0,0:0:0:0:
64,192,90967,1,0,0:0:0:0:
192,192,90967,1,0,0:0:0:0:
448,192,90967,1,0,0:0:0:0:
320,192,91064,1,0,0:0:0:0:
64,192,91161,1,0,0:0:0:0:
448,192,91258,1,0,0:0:0:0:
64,192,91354,1,0,0:0:0:0:
192,192,91354,1,0,0:0:0:0:
320,192,91354,1,0,0:0:0:0:
448,192,91451,1,0,0:0:0:0:
64,192,91548,1,0,0:0:0:0:
192,192,91645,1,0,0:0:0:0:
64,192,91741,1,0,0:0:0:0:
448,192,91741,1,0,0:0:0:0:
320,192,91741,1,0,0:0:0:0:
192,192,91838,1,0,0:0:0:0:
448,192,91935,1,0,0:0:0:0:
320,192,92032,1,0,0:0:0:0:
192,192,92129,1,0,0:0:0:0:
64,192,92225,1,0,0:0:0:0:
192,192,92322,1,0,0:0:0:0:
448,192,92322,1,0,0:0:0:0:
320,192,92322,1,0,0:0:0:0:
64,192,92419,1,0,0:0:0:0:
192,192,92516,1,0,0:0:0:0:
448,192,92516,1,0,0:0:0:0:
320,192,92516,1,0,0:0:0:0:
64,192,92612,1,0,0:0:0:0:
448,192,92709,1,0,0:0:0:0:
320,192,92709,1,0,0:0:0:0:
192,192,92806,1,0,0:0:0:0:
64,192,92903,1,0,0:0:0:0:
448,192,92903,1,0,0:0:0:0:
320,192,92903,1,0,0:0:0:0:
192,192,93000,1,0,0:0:0:0:
64,192,93096,1,0,0:0:0:0:
448,192,93193,1,0,0:0:0:0:
320,192,93193,1,0,0:0:0:0:
64,192,93290,1,0,0:0:0:0:
192,192,93290,1,0,0:0:0:0:
448,192,93387,1,0,0:0:0:0:
192,192,93483,1,0,0:0:0:0:
320,192,93483,1,0,0:0:0:0:
64,192,93580,1,0,0:0:0:0:
192,192,93677,1,0,0:0:0:0:
448,192,93677,1,0,0:0:0:0:
320,192,93677,1,0,0:0:0:0:
64,192,93774,1,0,0:0:0:0:
448,192,93870,1,0,0:0:0:0:
192,192,93967,1,0,0:0:0:0:
64,192,94064,1,0,0:0:0:0:
448,192,94064,1,0,0:0:0:0:
320,192,94064,1,0,0:0:0:0:
192,192,94161,1,0,0:0:0:0:
320,192,94258,1,0,0:0:0:0:
448,192,94354,1,0,0:0:0:0:
64,192,94451,1,0,0:0:0:0:
192,192,94451,1,0,0:0:0:0:
320,192,94451,1,0,0:0:0:0:
448,192,94548,1,0,0:0:0:0:
64,192,94645,1,0,0:0:0:0:
192,192,94741,1,0,0:0:0:0:
320,192,94741,1,0,0:0:0:0:
64,192,94838,1,0,0:0:0:0:
448,192,94838,1,0,0:0:0:0:
320,192,94935,1,0,0:0:0:0:
192,192,95032,1,0,0:0:0:0:
448,192,95032,1,0,0:0:0:0:
64,192,95129,1,0,0:0:0:0:
192,192,95225,1,0,0:0:0:0:
448,192,95225,1,0,0:0:0:0:
320,192,95225,1,0,0:0:0:0:
64,192,95322,1,0,0:0:0:0:
320,192,95419,1,0,0:0:0:0:
192,192,95516,1,0,0:0:0:0:
64,192,95612,1,0,0:0:0:0:
448,192,95612,1,0,0:0:0:0:
320,192,95612,1,0,0:0:0:0:
192,192,95709,1,0,0:0:0:0:
64,192,95806,1,0,0:0:0:0:
448,192,95903,1,0,0:0:0:0:
64,192,96000,1,0,0:0:0:0:
192,192,96000,1,0,0:0:0:0:
320,192,96000,1,0,0:0:0:0:
448,192,96096,1,0,0:0:0:0:
192,192,96193,1,0,0:0:0:0:
64,192,96290,1,0,0:0:0:0:
320,192,96290,1,0,0:0:0:0:
192,192,96387,1,0,0:0:0:0:
448,192,96387,1,0,0:0:0:0:
320,192,96483,1,0,0:0:0:0:
64,192,96580,1,0,0:0:0:0:
448,192,96580,1,0,0:0:0:0:
192,192,96677,1,0,0:0:0:0:
64,192,96774,1,0,0:0:0:0:
448,192,96774,1,0,0:0:0:0:
320,192,96774,1,0,0:0:0:0:
192,192,96870,1,0,0:0:0:0:
64,192,96967,1,0,0:0:0:0:
448,192,96967,1,0,0:0:0:0:
320,192,96967,1,0,0:0:0:0:
192,192,97064,1,0,0:0:0:0:
320,192,97161,1,0,0:0:0:0:
448,192,97258,1,0,0:0:0:0:
64,192,97354,1,0,0:0:0:0:
192,192,97354,1,0,0:0:0:0:
320,192,97354,1,0,0:0:0:0:
448,192,97451,1,0,0:0:0:0:
64,192,97548,1,0,0:0:0:0:
192,192,97645,1,0,0:0:0:0:
448,192,97741,1,0,0:0:0:0:
64,192,97838,1,0,0:0:0:0:
192,192,97935,1,0,0:0:0:0:
448,192,97935,1,0,0:0:0:0:
320,192,97935,1,0,0:0:0:0:
64,192,98032,1,0,0:0:0:0:
320,192,98129,1,0,0:0:0:0:
192,192,98225,1,0,0:0:0:0:
64,192,98322,1,0,0:0:0:0:
448,192,98322,1,0,0:0:0:0:
320,192,98322,1,0,0:0:0:0:
192,192,98419,1,0,0:0:0:0:
64,192,98516,1,0,0:0:0:0:
448,192,98516,1,0,0:0:0:0:
320,192,98612,1,0,0:0:0:0:
64,192,98709,1,0,0:0:0:0:
192,192,98709,1,0,0:0:0:0:
448,192,98709,1,0,0:0:0:0:
320,192,98806,1,0,0:0:0:0:
192,192,98903,1,0,0:0:0:0:
448,192,98903,1,0,0:0:0:0:
64,192,99000,1,0,0:0:0:0:
192,192,99096,1,0,0:0:0:0:
448,192,99096,1,0,0:0:0:0:
320,192,99096,1,0,0:0:0:0:
64,192,99193,1,0,0:0:0:0:
320,192,99290,1,0,0:0:0:0:
192,192,99290,1,0,0:0:0:0:
448,192,99387,1,0,0:0:0:0:
320,192,99483,1,0,0:0:0:0:
64,192,99483,1,0,0:0:0:0:
192,192,99483,1,0,0:0:0:0:
448,192,99580,1,0,0:0:0:0:
320,192,99677,1,0,0:0:0:0:
64,192,99677,1,0,0:0:0:0:
192,192,99774,1,0,0:0:0:0:
448,192,99870,1,0,0:0:0:0:
320,192,99870,1,0,0:0:0:0:
64,192,99870,1,0,0:0:0:0:
192,192,99967,1,0,0:0:0:0:
448,192,100064,1,0,0:0:0:0:
64,192,100064,1,0,0:0:0:0:
320,192,100161,1,0,0:0:0:0:
448,192,100258,1,0,0:0:0:0:
64,192,100258,1,0,0:0:0:0:
192,192,100258,1,0,0:0:0:0:
320,192,100354,1,0,0:0:0:0:
448,192,100451,1,0,0:0:0:0:
192,192,100451,1,0,0:0:0:0:
64,192,100548,1,0,0:0:0:0:
320,192,100645,1,0,0:0:0:0:
448,192,100645,1,0,0:0:0:0:
192,192,100645,1,0,0:0:0:0:
64,192,100741,1,0,0:0:0:0:
320,192,100838,1,0,0:0:0:0:
448,192,100838,1,0,0:0:0:0:
192,192,100935,1,0,0:0:0:0:
320,192,101032,1,0,0:0:0:0:
448,192,101032,1,0,0:0:0:0:
64,192,101032,1,0,0:0:0:0:
192,192,101129,1,0,0:0:0:0:
320,192,101225,1,0,0:0:0:0:
64,192,101225,1,0,0:0:0:0:
448,192,101322,1,0,0:0:0:0:
320,192,101419,1,0,0:0:0:0:
64,192,101419,1,0,0:0:0:0:
192,192,101419,1,0,0:0:0:0:
448,192,101516,1,0,0:0:0:0:
64,192,101612,1,0,0:0:0:0:
192,192,101612,1,0,0:0:0:0:
320,192,101709,1,0,0:0:0:0:
448,192,101806,1,0,0:0:0:0:
64,192,101806,1,0,0:0:0:0:
192,192,101806,1,0,0:0:0:0:
320,192,101903,1,0,0:0:0:0:
448,192,102000,1,0,0:0:0:0:
192,192,102000,1,0,0:0:0:0:
64,192,102096,1,0,0:0:0:0:
448,192,102193,1,0,0:0:0:0:
320,192,102193,1,0,0:0:0:0:
192,192,102193,1,0,0:0:0:0:
64,192,102290,1,0,0:0:0:0:
320,192,102387,1,0,0:0:0:0:
64,192,102483,1,0,0:0:0:0:
320,192,102580,1,0,0:0:0:0:
448,192,102580,128,0,102677:0:0:0:0:
64,192,102677,1,0,0:0:0:0:
320,192,102774,1,0,0:0:0:0:
192,192,102774,128,0,102870:0:0:0:0:
64,192,102870,1,0,0:0:0:0:
320,192,102967,1,0,0:0:0:0:
64,192,103064,1,0,0:0:0:0:
320,192,103161,1,0,0:0:0:0:
192,192,103161,128,0,103258:0:0:0:0:
64,192,103258,1,0,0:0:0:0:
320,192,103354,1,0,0:0:0:0:
64,192,103451,1,0,0:0:0:0:
320,192,103548,1,0,0:0:0:0:
448,192,103548,128,0,103645:0:0:0:0:
64,192,103645,1,0,0:0:0:0:
320,192,103741,1,0,0:0:0:0:
64,192,103838,1,0,0:0:0:0:
320,192,103935,1,0,0:0:0:0:
64,192,104032,1,0,0:0:0:0:
320,192,104129,1,0,0:0:0:0:
64,192,104225,1,0,0:0:0:0:
320,192,104322,1,0,0:0:0:0:
64,192,104419,1,0,0:0:0:0:
320,192,104516,1,0,0:0:0:0:
192,192,104516,1,0,0:0:0:0:
448,192,104709,1,0,0:0:0:0:
192,192,104709,1,0,0:0:0:0:
320,192,104903,1,0,0:0:0:0:
64,192,104903,1,0,0:0:0:0:
320,192,105096,1,0,0:0:0:0:
448,192,105096,1,0,0:0:0:0:
448,192,105290,1,0,0:0:0:0:
192,192,105290,1,0,0:0:0:0:
64,192,105290,1,0,0:0:0:0:
320,192,105387,1,0,0:0:0:0:
64,192,105483,1,0,0:0:0:0:
448,192,105580,1,0,0:0:0:0:
192,192,105677,1,0,0:0:0:0:
320,192,105677,1,0,0:0:0:0:
64,192,105774,1,0,0:0:0:0:
448,192,105870,1,0,0:0:0:0:
192,192,105967,1,0,0:0:0:0:
320,192,106064,1,0,0:0:0:0:
64,192,106064,1,0,0:0:0:0:
448,192,106161,1,0,0:0:0:0:
192,192,106258,1,0,0:0:0:0:
64,192,106354,1,0,0:0:0:0:
448,192,106451,1,0,0:0:0:0:
320,192,106451,1,0,0:0:0:0:
192,192,106548,1,0,0:0:0:0:
64,192,106645,1,0,0:0:0:0:
320,192,106741,1,0,0:0:0:0:
192,192,106838,1,0,0:0:0:0:
448,192,106838,1,0,0:0:0:0:
64,192,106935,1,0,0:0:0:0:
320,192,107032,1,0,0:0:0:0:
448,192,107129,1,0,0:0:0:0:
192,192,107225,1,0,0:0:0:0:
64,192,107225,1,0,0:0:0:0:
320,192,107322,1,0,0:0:0:0:
448,192,107419,1,0,0:0:0:0:
64,192,107516,1,0,0:0:0:0:
192,192,107612,1,0,0:0:0:0:
320,192,107612,1,0,0:0:0:0:
448,192,107709,1,0,0:0:0:0:
64,192,107806,1,0,0:0:0:0:
192,192,107903,1,0,0:0:0:0:
320,192,108000,1,0,0:0:0:0:
448,192,108000,1,0,0:0:0:0:
64,192,108096,1,0,0:0:0:0:
192,192,108193,1,0,0:0:0:0:
448,192,108290,1,0,0:0:0:0:
320,192,108387,1,0,0:0:0:0:
64,192,108387,1,0,0:0:0:0:
192,192,108483,1,0,0:0:0:0:
448,192,108580,1,0,0:0:0:0:
320,192,108677,1,0,0:0:0:0:
64,192,108774,1,0,0:0:0:0:
192,192,108774,1,0,0:0:0:0:
448,192,108870,1,0,0:0:0:0:
320,192,108967,1,0,0:0:0:0:
192,192,109064,1,0,0:0:0:0:
64,192,109161,1,0,0:0:0:0:
448,192,109161,1,0,0:0:0:0:
320,192,109258,1,0,0:0:0:0:
192,192,109354,1,0,0:0:0:0:
448,192,109451,1,0,0:0:0:0:
64,192,109548,1,0,0:0:0:0:
320,192,109548,1,0,0:0:0:0:
192,192,109645,1,0,0:0:0:0:
448,192,109741,1,0,0:0:0:0:
64,192,109838,1,0,0:0:0:0:
320,192,109935,1,0,0:0:0:0:
192,192,109935,1,0,0:0:0:0:
448,192,110032,1,0,0:0:0:0:
64,192,110129,1,0,0:0:0:0:
320,192,110225,1,0,0:0:0:0:
192,192,110322,1,0,0:0:0:0:
448,192,110322,1,0,0:0:0:0:
64,192,110419,1,0,0:0:0:0:
320,192,110516,1,0,0:0:0:0:
448,192,110612,1,0,0:0:0:0:
192,192,110709,1,0,0:0:0:0:
64,192,110709,1,0,0:0:0:0:
320,192,110806,1,0,0:0:0:0:
448,192,110903,1,0,0:0:0:0:
64,192,111000,1,0,0:0:0:0:
192,192,111096,1,0,0:0:0:0:
320,192,111096,1,0,0:0:0:0:
448,192,111193,1,0,0:0:0:0:
64,192,111290,1,0,0:0:0:0:
192,192,111387,1,0,0:0:0:0:
448,192,111483,1,0,0:0:0:0:
320,192,111483,128,0,111580:0:0:0:0:
192,192,111580,1,0,0:0:0:0:
448,192,111677,1,0,0:0:0:0:
64,192,111774,1,0,0:0:0:0:
320,192,111870,1,0,0:0:0:0:
192,192,111967,1,0,0:0:0:0:
448,192,112064,128,0,112161:0:0:0:0:
64,192,112064,1,0,0:0:0:0:
320,192,112161,1,0,0:0:0:0:
192,192,112258,1,0,0:0:0:0:
320,192,112354,1,0,0:0:0:0:
448,192,112451,1,0,0:0:0:0:
64,192,112548,1,0,0:0:0:0:
192,192,112645,128,0,112741:0:0:0:0:
320,192,112645,1,0,0:0:0:0:
64,192,112741,1,0,0:0:0:0:
448,192,112838,1,0,0:0:0:0:
320,192,112935,1,0,0:0:0:0:
64,192,113032,128,0,113129:0:0:0:0:
192,192,113032,1,0,0:0:0:0:
448,192,113129,1,0,0:0:0:0:
320,192,113225,1,0,0:0:0:0:
192,192,113322,1,0,0:0:0:0:
320,192,113419,1,0,0:0:0:0:
64,192,113516,1,0,0:0:0:0:
448,192,113612,128,0,113709:0:0:0:0:
192,192,113612,1,0,0:0:0:0:
64,192,113709,1,0,0:0:0:0:
320,192,113806,1,0,0:0:0:0:
192,192,113903,1,0,0:0:0:0:
64,192,114000,1,0,0:0:0:0:
448,192,114096,1,0,0:0:0:0:
192,192,114193,128,0,114290:0:0:0:0:
320,192,114193,1,0,0:0:0:0:
64,192,114290,1,0,0:0:0:0:
320,192,114387,1,0,0:0:0:0:
448,192,114483,1,0,0:0:0:0:
192,192,114580,128,0,114677:0:0:0:0:
64,192,114580,1,0,0:0:0:0:
320,192,114677,1,0,0:0:0:0:
448,192,114774,1,0,0:0:0:0:
320,192,114870,1,0,0:0:0:0:
192,192,114967,1,0,0:0:0:0:
64,192,114967,1,0,0:0:0:0:
448,192,115064,1,0,0:0:0:0:
320,192,115161,1,0,0:0:0:0:
64,192,115258,1,0,0:0:0:0:
192,192,115354,1,0,0:0:0:0:
448,192,115354,1,0,0:0:0:0:
320,192,115451,1,0,0:0:0:0:
64,192,115548,1,0,0:0:0:0:
448,192,115645,1,0,0:0:0:0:
192,192,115741,1,0,0:0:0:0:
320,192,115741,1,0,0:0:0:0:
64,192,115838,1,0,0:0:0:0:
448,192,115935,1,0,0:0:0:0:
192,192,116032,1,0,0:0:0:0:
192,192,116709,1,0,0:0:0:0:
64,192,116806,128,0,116903:0:0:0:0:
448,192,116903,128,0,117000:0:0:0:0:
320,192,117000,128,0,117096:0:0:0:0:
320,192,117290,128,0,117387:0:0:0:0:
192,192,117483,1,0,0:0:0:0:
448,192,117483,1,0,0:0:0:0:
320,192,117677,5,0,0:0:0:0:
192,192,117677,1,0,0:0:0:0:
64,192,117677,1,0,0:0:0:0:
448,192,117774,1,0,0:0:0:0:
320,192,117870,1,0,0:0:0:0:
64,192,117870,1,0,0:0:0:0:
192,192,117967,1,0,0:0:0:0:
320,192,118064,1,0,0:0:0:0:
448,192,118064,1,0,0:0:0:0:
64,192,118064,1,0,0:0:0:0:
192,192,118161,1,0,0:0:0:0:
448,192,118258,1,0,0:0:0:0:
64,192,118258,1,0,0:0:0:0:
320,192,118354,1,0,0:0:0:0:
448,192,118451,1,0,0:0:0:0:
192,192,118451,1,0,0:0:0:0:
64,192,118451,1,0,0:0:0:0:
320,192,118548,1,0,0:0:0:0:
448,192,118645,1,0,0:0:0:0:
192,192,118645,1,0,0:0:0:0:
64,192,118741,1,0,0:0:0:0:
448,192,118838,1,0,0:0:0:0:
320,192,118838,1,0,0:0:0:0:
192,192,118838,1,0,0:0:0:0:
64,192,118935,1,0,0:0:0:0:
320,192,119032,1,0,0:0:0:0:
192,192,119032,1,0,0:0:0:0:
448,192,119129,1,0,0:0:0:0:
320,192,119225,1,0,0:0:0:0:
192,192,119225,1,0,0:0:0:0:
64,192,119225,1,0,0:0:0:0:
448,192,119322,1,0,0:0:0:0:
192,192,119419,1,0,0:0:0:0:
64,192,119419,1,0,0:0:0:0:
320,192,119516,1,0,0:0:0:0:
448,192,119612,1,0,0:0:0:0:
192,192,119612,1,0,0:0:0:0:
64,192,119612,1,0,0:0:0:0:
320,192,119709,1,0,0:0:0:0:
448,192,119806,1,0,0:0:0:0:
64,192,119806,1,0,0:0:0:0:
192,192,119903,1,0,0:0:0:0:
448,192,120000,1,0,0:0:0:0:
320,192,120000,1,0,0:0:0:0:
64,192,120000,1,0,0:0:0:0:
192,192,120096,1,0,0:0:0:0:
320,192,120193,1,0,0:0:0:0:
448,192,120193,1,0,0:0:0:0:
64,192,120290,1,0,0:0:0:0:
320,192,120387,1,0,0:0:0:0:
448,192,120387,1,0,0:0:0:0:
192,192,120387,1,0,0:0:0:0:
64,192,120483,1,0,0:0:0:0:
320,192,120580,1,0,0:0:0:0:
192,192,120580,1,0,0:0:0:0:
448,192,120677,1,0,0:0:0:0:
320,192,120774,1,0,0:0:0:0:
192,192,120774,1,0,0:0:0:0:
64,192,120774,1,0,0:0:0:0:
448,192,120870,1,0,0:0:0:0:
320,192,120967,1,0,0:0:0:0:
64,192,120967,1,0,0:0:0:0:
192,192,121064,1,0,0:0:0:0:
448,192,121161,1,0,0:0:0:0:
320,192,121161,1,0,0:0:0:0:
64,192,121161,1,0,0:0:0:0:
192,192,121258,1,0,0:0:0:0:
448,192,121354,1,0,0:0:0:0:
64,192,121354,1,0,0:0:0:0:
320,192,121451,1,0,0:0:0:0:
448,192,121548,1,0,0:0:0:0:
192,192,121548,1,0,0:0:0:0:
64,192,121548,1,0,0:0:0:0:
320,192,121645,1,0,0:0:0:0:
448,192,121741,1,0,0:0:0:0:
192,192,121741,1,0,0:0:0:0:
64,192,121838,1,0,0:0:0:0:
320,192,121935,1,0,0:0:0:0:
448,192,121935,1,0,0:0:0:0:
192,192,121935,1,0,0:0:0:0:
64,192,122032,1,0,0:0:0:0:
320,192,122129,1,0,0:0:0:0:
192,192,122129,1,0,0:0:0:0:
448,192,122225,1,0,0:0:0:0:
320,192,122322,1,0,0:0:0:0:
192,192,122322,1,0,0:0:0:0:
64,192,122322,1,0,0:0:0:0:
448,192,122419,1,0,0:0:0:0:
320,192,122516,1,0,0:0:0:0:
64,192,122516,1,0,0:0:0:0:
192,192,122612,1,0,0:0:0:0:
448,192,122709,1,0,0:0:0:0:
320,192,122709,1,0,0:0:0:0:
64,192,122709,1,0,0:0:0:0:
192,192,122806,1,0,0:0:0:0:
448,192,122903,1,0,0:0:0:0:
64,192,122903,1,0,0:0:0:0:
320,192,123000,1,0,0:0:0:0:
448,192,123096,1,0,0:0:0:0:
192,192,123096,1,0,0:0:0:0:
64,192,123096,1,0,0:0:0:0:
320,192,123193,1,0,0:0:0:0:
192,192,123290,1,0,0:0:0:0:
64,192,123290,1,0,0:0:0:0:
448,192,123387,1,0,0:0:0:0:
320,192,123483,1,0,0:0:0:0:
192,192,123483,1,0,0:0:0:0:
64,192,123483,1,0,0:0:0:0:
448,192,123580,1,0,0:0:0:0:
320,192,123677,1,0,0:0:0:0:
192,192,123677,1,0,0:0:0:0:
64,192,123774,1,0,0:0:0:0:
448,192,123870,1,0,0:0:0:0:
320,192,123870,1,0,0:0:0:0:
192,192,123870,1,0,0:0:0:0:
64,192,123967,1,0,0:0:0:0:
448,192,124064,1,0,0:0:0:0:
320,192,124064,1,0,0:0:0:0:
192,192,124161,1,0,0:0:0:0:
448,192,124258,1,0,0:0:0:0:
320,192,124258,1,0,0:0:0:0:
64,192,124258,1,0,0:0:0:0:
192,192,124354,1,0,0:0:0:0:
448,192,124451,1,0,0:0:0:0:
64,192,124451,1,0,0:0:0:0:
320,192,124548,1,0,0:0:0:0:
448,192,124645,1,0,0:0:0:0:
192,192,124645,1,0,0:0:0:0:
64,192,124645,1,0,0:0:0:0:
320,192,124741,1,0,0:0:0:0:
448,192,124838,1,0,0:0:0:0:
192,192,124838,1,0,0:0:0:0:
64,192,124935,1,0,0:0:0:0:
448,192,125032,1,0,0:0:0:0:
320,192,125032,1,0,0:0:0:0:
192,192,125032,1,0,0:0:0:0:
64,192,125129,1,0,0:0:0:0:
320,192,125225,1,0,0:0:0:0:
192,192,125225,1,0,0:0:0:0:
448,192,125322,1,0,0:0:0:0:
320,192,125419,1,0,0:0:0:0:
192,192,125419,1,0,0:0:0:0:
64,192,125419,1,0,0:0:0:0:
448,192,125516,1,0,0:0:0:0:
320,192,125612,1,0,0:0:0:0:
64,192,125612,1,0,0:0:0:0:
192,192,125709,1,0,0:0:0:0:
448,192,125806,1,0,0:0:0:0:
320,192,125806,1,0,0:0:0:0:
64,192,125806,1,0,0:0:0:0:
192,192,125903,1,0,0:0:0:0:
448,192,126000,1,0,0:0:0:0:
64,192,126000,1,0,0:0:0:0:
320,192,126096,1,0,0:0:0:0:
448,192,126193,1,0,0:0:0:0:
192,192,126193,1,0,0:0:0:0:
64,192,126193,1,0,0:0:0:0:
320,192,126290,1,0,0:0:0:0:
448,192,126387,1,0,0:0:0:0:
192,192,126387,1,0,0:0:0:0:
64,192,126483,1,0,0:0:0:0:
448,192,126580,1,0,0:0:0:0:
320,192,126580,1,0,0:0:0:0:
192,192,126580,1,0,0:0:0:0:
64,192,126677,1,0,0:0:0:0:
320,192,126774,1,0,0:0:0:0:
192,192,126774,1,0,0:0:0:0:
448,192,126870,1,0,0:0:0:0:
320,192,126967,1,0,0:0:0:0:
192,192,126967,1,0,0:0:0:0:
64,192,126967,1,0,0:0:0:0:
448,192,127064,1,0,0:0:0:0:
320,192,127161,1,0,0:0:0:0:
64,192,127161,1,0,0:0:0:0:
192,192,127258,1,0,0:0:0:0:
448,192,127354,1,0,0:0:0:0:
320,192,127354,1,0,0:0:0:0:
64,192,127354,1,0,0:0:0:0:
192,192,127451,1,0,0:0:0:0:
448,192,127548,1,0,0:0:0:0:
64,192,127548,1,0,0:0:0:0:
320,192,127645,1,0,0:0:0:0:
448,192,127741,1,0,0:0:0:0:
192,192,127741,1,0,0:0:0:0:
64,192,127741,1,0,0:0:0:0:
320,192,127838,1,0,0:0:0:0:
448,192,127935,1,0,0:0:0:0:
192,192,127935,1,0,0:0:0:0:
64,192,128032,1,0,0:0:0:0:
448,192,128129,1,0,0:0:0:0:
320,192,128129,1,0,0:0:0:0:
192,192,128129,1,0,0:0:0:0:
64,192,128225,1,0,0:0:0:0:
320,192,128322,1,0,0:0:0:0:
192,192,128322,1,0,0:0:0:0:
448,192,128419,1,0,0:0:0:0:
320,192,128516,1,0,0:0:0:0:
192,192,128516,1,0,0:0:0:0:
64,192,128516,1,0,0:0:0:0:
448,192,128612,1,0,0:0:0:0:
192,192,128709,1,0,0:0:0:0:
64,192,128806,1,0,0:0:0:0:
320,192,128903,1,0,0:0:0:0:
448,192,128903,1,0,0:0:0:0:
192,192,128903,1,0,0:0:0:0:
64,192,129000,1,0,0:0:0:0:
192,192,129096,1,0,0:0:0:0:
448,192,129193,1,0,0:0:0:0:
320,192,129290,1,0,0:0:0:0:
448,192,129387,1,0,0:0:0:0:
192,192,129483,1,0,0:0:0:0:
64,192,129483,1,0,0:0:0:0:
320,192,129580,1,0,0:0:0:0:
448,192,129677,1,0,0:0:0:0:
192,192,129677,1,0,0:0:0:0:
64,192,129677,1,0,0:0:0:0:
320,192,129774,1,0,0:0:0:0:
64,192,129870,1,0,0:0:0:0:
192,192,129967,1,0,0:0:0:0:
448,192,130064,1,0,0:0:0:0:
320,192,130064,1,0,0:0:0:0:
64,192,130064,1,0,0:0:0:0:
192,192,130161,1,0,0:0:0:0:
448,192,130258,1,0,0:0:0:0:
320,192,130258,1,0,0:0:0:0:
64,192,130354,1,0,0:0:0:0:
448,192,130451,1,0,0:0:0:0:
320,192,130451,1,0,0:0:0:0:
192,192,130451,1,0,0:0:0:0:
64,192,130548,1,0,0:0:0:0:
448,192,130645,1,0,0:0:0:0:
192,192,130645,1,0,0:0:0:0:
320,192,130741,1,0,0:0:0:0:
448,192,130838,1,0,0:0:0:0:
192,192,130838,1,0,0:0:0:0:
64,192,130838,1,0,0:0:0:0:
320,192,130935,1,0,0:0:0:0:
192,192,131032,1,0,0:0:0:0:
64,192,131032,1,0,0:0:0:0:
448,192,131129,1,0,0:0:0:0:
320,192,131225,1,0,0:0:0:0:
192,192,131225,1,0,0:0:0:0:
64,192,131225,1,0,0:0:0:0:
448,192,131322,1,0,0:0:0:0:
320,192,131419,1,0,0:0:0:0:
64,192,131419,1,0,0:0:0:0:
192,192,131516,1,0,0:0:0:0:
448,192,131612,1,0,0:0:0:0:
320,192,131612,1,0,0:0:0:0:
64,192,131612,1,0,0:0:0:0:
192,192,131709,1,0,0:0:0:0:
448,192,131806,1,0,0:0:0:0:
64,192,131806,1,0,0:0:0:0:
192,192,131903,1,0,0:0:0:0:
448,192,132000,1,0,0:0:0:0:
320,192,132000,1,0,0:0:0:0:
64,192,132000,1,0,0:0:0:0:
192,192,132096,1,0,0:0:0:0:
320,192,132193,1,0,0:0:0:0:
448,192,132193,1,0,0:0:0:0:
64,192,132290,1,0,0:0:0:0:
320,192,132387,1,0,0:0:0:0:
448,192,132387,1,0,0:0:0:0:
192,192,132387,1,0,0:0:0:0:
64,192,132483,1,0,0:0:0:0:
320,192,132580,1,0,0:0:0:0:
192,192,132580,1,0,0:0:0:0:
448,192,132677,1,0,0:0:0:0:
320,192,132774,1,0,0:0:0:0:
192,192,132774,1,0,0:0:0:0:
64,192,132774,1,0,0:0:0:0:
448,192,132870,1,0,0:0:0:0:
192,192,132967,1,0,0:0:0:0:
64,192,132967,1,0,0:0:0:0:
320,192,133064,1,0,0:0:0:0:
448,192,133161,1,0,0:0:0:0:
192,192,133161,1,0,0:0:0:0:
64,192,133161,1,0,0:0:0:0:
320,192,133258,1,0,0:0:0:0:
448,192,133354,1,0,0:0:0:0:
64,192,133354,1,0,0:0:0:0:
320,192,133451,1,0,0:0:0:0:
448,192,133548,1,0,0:0:0:0:
192,192,133548,1,0,0:0:0:0:
64,192,133548,1,0,0:0:0:0:
320,192,133645,1,0,0:0:0:0:
448,192,133741,1,0,0:0:0:0:
192,192,133741,1,0,0:0:0:0:
64,192,133838,1,0,0:0:0:0:
320,192,133935,1,0,0:0:0:0:
448,192,133935,1,0,0:0:0:0:
192,192,133935,1,0,0:0:0:0:
64,192,134032,1,0,0:0:0:0:
320,192,134129,1,0,0:0:0:0:
192,192,134129,1,0,0:0:0:0:
448,192,134225,1,0,0:0:0:0:
320,192,134322,1,0,0:0:0:0:
192,192,134322,1,0,0:0:0:0:
64,192,134322,1,0,0:0:0:0:
448,192,134419,1,0,0:0:0:0:
320,192,134516,1,0,0:0:0:0:
64,192,134516,1,0,0:0:0:0:
192,192,134612,1,0,0:0:0:0:
448,192,134709,1,0,0:0:0:0:
320,192,134709,1,0,0:0:0:0:
64,192,134709,1,0,0:0:0:0:
192,192,134806,1,0,0:0:0:0:
448,192,134903,1,0,0:0:0:0:
64,192,134903,1,0,0:0:0:0:
320,192,135000,1,0,0:0:0:0:
448,192,135096,1,0,0:0:0:0:
192,192,135096,1,0,0:0:0:0:
64,192,135096,1,0,0:0:0:0:
320,192,135193,1,0,0:0:0:0:
448,192,135290,1,0,0:0:0:0:
192,192,135290,1,0,0:0:0:0:
64,192,135387,1,0,0:0:0:0:
448,192,135483,1,0,0:0:0:0:
320,192,135483,1,0,0:0:0:0:
192,192,135483,1,0,0:0:0:0:
64,192,135580,1,0,0:0:0:0:
320,192,135677,1,0,0:0:0:0:
192,192,135677,1,0,0:0:0:0:
448,192,135774,1,0,0:0:0:0:
320,192,135870,1,0,0:0:0:0:
192,192,135870,1,0,0:0:0:0:
64,192,135870,1,0,0:0:0:0:
448,192,135967,1,0,0:0:0:0:
320,192,136064,1,0,0:0:0:0:
64,192,136064,1,0,0:0:0:0:
192,192,136161,1,0,0:0:0:0:
448,192,136258,1,0,0:0:0:0:
320,192,136258,1,0,0:0:0:0:
64,192,136258,1,0,0:0:0:0:
192,192,136354,1,0,0:0:0:0:
448,192,136451,1,0,0:0:0:0:
64,192,136451,1,0,0:0:0:0:
320,192,136548,1,0,0:0:0:0:
448,192,136645,1,0,0:0:0:0:
192,192,136645,1,0,0:0:0:0:
64,192,136645,1,0,0:0:0:0:
320,192,136741,1,0,0:0:0:0:
448,192,136838,1,0,0:0:0:0:
192,192,136838,1,0,0:0:0:0:
64,192,136935,1,0,0:0:0:0:
320,192,137032,1,0,0:0:0:0:
448,192,137032,1,0,0:0:0:0:
192,192,137032,1,0,0:0:0:0:
64,192,137129,1,0,0:0:0:0:
320,192,137225,1,0,0:0:0:0:
192,192,137225,1,0,0:0:0:0:
64,192,137322,1,0,0:0:0:0:
320,192,137419,1,0,0:0:0:0:
448,192,137419,1,0,0:0:0:0:
192,192,137419,1,0,0:0:0:0:
64,192,137516,1,0,0:0:0:0:
448,192,137612,1,0,0:0:0:0:
320,192,137612,1,0,0:0:0:0:
192,192,137709,1,0,0:0:0:0:
448,192,137806,1,0,0:0:0:0:
320,192,137806,1,0,0:0:0:0:
64,192,137806,1,0,0:0:0:0:
192,192,137903,1,0,0:0:0:0:
448,192,138000,1,0,0:0:0:0:
64,192,138000,1,0,0:0:0:0:
320,192,138096,1,0,0:0:0:0:
448,192,138193,1,0,0:0:0:0:
192,192,138193,1,0,0:0:0:0:
64,192,138193,1,0,0:0:0:0:
320,192,138290,1,0,0:0:0:0:
192,192,138387,1,0,0:0:0:0:
64,192,138387,1,0,0:0:0:0:
448,192,138483,1,0,0:0:0:0:
320,192,138580,1,0,0:0:0:0:
192,192,138580,1,0,0:0:0:0:
64,192,138580,1,0,0:0:0:0:
448,192,138677,1,0,0:0:0:0:
320,192,138774,1,0,0:0:0:0:
192,192,138774,1,0,0:0:0:0:
448,192,138870,1,0,0:0:0:0:
320,192,138967,1,0,0:0:0:0:
192,192,138967,1,0,0:0:0:0:
64,192,138967,1,0,0:0:0:0:
448,192,139064,1,0,0:0:0:0:
320,192,139161,1,0,0:0:0:0:
64,192,139161,1,0,0:0:0:0:
192,192,139258,1,0,0:0:0:0:
448,192,139354,1,0,0:0:0:0:
320,192,139354,1,0,0:0:0:0:
64,192,139354,1,0,0:0:0:0:
192,192,139451,1,0,0:0:0:0:
448,192,139548,1,0,0:0:0:0:
192,192,139645,1,0,0:0:0:0:
448,192,139741,1,0,0:0:0:0:
320,192,139741,128,0,139838:0:0:0:0:
192,192,139838,1,0,0:0:0:0:
448,192,139935,1,0,0:0:0:0:
64,192,139935,128,0,140032:0:0:0:0:
192,192,140032,1,0,0:0:0:0:
448,192,140129,1,0,0:0:0:0:
192,192,140225,1,0,0:0:0:0:
448,192,140322,1,0,0:0:0:0:
64,192,140322,128,0,140419:0:0:0:0:
192,192,140419,1,0,0:0:0:0:
448,192,140516,1,0,0:0:0:0:
192,192,140612,1,0,0:0:0:0:
448,192,140709,1,0,0:0:0:0:
320,192,140709,128,0,140806:0:0:0:0:
192,192,140806,1,0,0:0:0:0:
448,192,140903,1,0,0:0:0:0:
192,192,141000,1,0,0:0:0:0:
448,192,141096,1,0,0:0:0:0:
192,192,141193,1,0,0:0:0:0:
448,192,141290,1,0,0:0:0:0:
192,192,141387,1,0,0:0:0:0:
448,192,141483,1,0,0:0:0:0:
192,192,141580,1,0,0:0:0:0:
448,192,141677,1,0,0:0:0:0:
64,192,141677,1,0,0:0:0:0:
64,192,141870,1,0,0:0:0:0:
192,192,141870,1,0,0:0:0:0:
448,192,142064,1,0,0:0:0:0:
320,192,142064,1,0,0:0:0:0:
320,192,142258,1,0,0:0:0:0:
192,192,142258,1,0,0:0:0:0:
192,192,142451,1,0,0:0:0:0:
448,192,142451,1,0,0:0:0:0:
64,192,142451,1,0,0:0:0:0:
320,192,142548,1,0,0:0:0:0:
64,192,142645,1,0,0:0:0:0:
448,192,142741,1,0,0:0:0:0:
192,192,142741,1,0,0:0:0:0:
320,192,142838,1,0,0:0:0:0:
64,192,142838,1,0,0:0:0:0:
448,192,142935,1,0,0:0:0:0:
320,192,143032,1,0,0:0:0:0:
192,192,143032,1,0,0:0:0:0:
64,192,143129,1,0,0:0:0:0:
320,192,143225,1,0,0:0:0:0:
448,192,143225,1,0,0:0:0:0:
192,192,143225,1,0,0:0:0:0:
64,192,143322,1,0,0:0:0:0:
448,192,143419,1,0,0:0:0:0:
320,192,143516,1,0,0:0:0:0:
192,192,143612,1,0,0:0:0:0:
448,192,143612,1,0,0:0:0:0:
64,192,143612,1,0,0:0:0:0:
320,192,143709,1,0,0:0:0:0:
192,192,143806,1,0,0:0:0:0:
448,192,143903,1,0,0:0:0:0:
320,192,144000,1,0,0:0:0:0:
192,192,144000,1,0,0:0:0:0:
64,192,144000,1,0,0:0:0:0:
448,192,144096,1,0,0:0:0:0:
64,192,144193,1,0,0:0:0:0:
320,192,144290,1,0,0:0:0:0:
192,192,144290,1,0,0:0:0:0:
448,192,144387,1,0,0:0:0:0:
64,192,144387,1,0,0:0:0:0:
320,192,144483,1,0,0:0:0:0:
192,192,144580,1,0,0:0:0:0:
448,192,144580,1,0,0:0:0:0:
64,192,144677,1,0,0:0:0:0:
320,192,144774,1,0,0:0:0:0:
192,192,144774,1,0,0:0:0:0:
448,192,144774,1,0,0:0:0:0:
64,192,144870,1,0,0:0:0:0:
320,192,144967,1,0,0:0:0:0:
448,192,145064,1,0,0:0:0:0:
320,192,145161,1,0,0:0:0:0:
192,192,145161,1,0,0:0:0:0:
64,192,145161,1,0,0:0:0:0:
448,192,145258,1,0,0:0:0:0:
64,192,145354,1,0,0:0:0:0:
192,192,145451,1,0,0:0:0:0:
320,192,145548,1,0,0:0:0:0:
448,192,145548,1,0,0:0:0:0:
64,192,145548,1,0,0:0:0:0:
192,192,145645,1,0,0:0:0:0:
448,192,145741,1,0,0:0:0:0:
320,192,145838,1,0,0:0:0:0:
64,192,145838,1,0,0:0:0:0:
192,192,145935,1,0,0:0:0:0:
448,192,145935,1,0,0:0:0:0:
320,192,146032,1,0,0:0:0:0:
192,192,146129,1,0,0:0:0:0:
64,192,146129,1,0,0:0:0:0:
448,192,146225,1,0,0:0:0:0:
320,192,146322,1,0,0:0:0:0:
192,192,146322,1,0,0:0:0:0:
64,192,146322,1,0,0:0:0:0:
448,192,146419,1,0,0:0:0:0:
320,192,146516,1,0,0:0:0:0:
192,192,146612,1,0,0:0:0:0:
320,192,146709,1,0,0:0:0:0:
448,192,146709,1,0,0:0:0:0:
64,192,146709,1,0,0:0:0:0:
192,192,146806,1,0,0:0:0:0:
64,192,146903,1,0,0:0:0:0:
448,192,147000,1,0,0:0:0:0:
320,192,147096,1,0,0:0:0:0:
192,192,147096,1,0,0:0:0:0:
64,192,147096,1,0,0:0:0:0:
448,192,147193,1,0,0:0:0:0:
320,192,147290,1,0,0:0:0:0:
64,192,147387,1,0,0:0:0:0:
448,192,147483,1,0,0:0:0:0:
320,192,147483,1,0,0:0:0:0:
192,192,147483,1,0,0:0:0:0:
64,192,147580,1,0,0:0:0:0:
192,192,147677,1,0,0:0:0:0:
448,192,147774,1,0,0:0:0:0:
320,192,147870,1,0,0:0:0:0:
192,192,147870,1,0,0:0:0:0:
64,192,147870,1,0,0:0:0:0:
448,192,147967,1,0,0:0:0:0:
320,192,148064,1,0,0:0:0:0:
64,192,148064,1,0,0:0:0:0:
192,192,148161,1,0,0:0:0:0:
320,192,148258,1,0,0:0:0:0:
448,192,148258,1,0,0:0:0:0:
64,192,148258,1,0,0:0:0:0:
192,192,148354,1,0,0:0:0:0:
448,192,148451,1,0,0:0:0:0:
320,192,148451,1,0,0:0:0:0:
64,192,148548,1,0,0:0:0:0:
192,192,148645,1,0,0:0:0:0:
320,192,148645,1,0,0:0:0:0:
448,192,148645,1,0,0:0:0:0:
64,192,148741,1,0,0:0:0:0:
448,192,148838,1,0,0:0:0:0:
192,192,148935,1,0,0:0:0:0:
320,192,148935,1,0,0:0:0:0:
448,192,149032,1,0,0:0:0:0:
64,192,149032,1,0,0:0:0:0:
192,192,149129,1,0,0:0:0:0:
320,192,149225,1,0,0:0:0:0:
64,192,149225,1,0,0:0:0:0:
448,192,149322,1,0,0:0:0:0:
320,192,149419,1,0,0:0:0:0:
192,192,149419,1,0,0:0:0:0:
64,192,149419,1,0,0:0:0:0:
448,192,149516,1,0,0:0:0:0:
192,192,149612,1,0,0:0:0:0:
320,192,149709,1,0,0:0:0:0:
192,192,149806,1,0,0:0:0:0:
448,192,149806,1,0,0:0:0:0:
64,192,149806,1,0,0:0:0:0:
320,192,149903,1,0,0:0:0:0:
448,192,150000,1,0,0:0:0:0:
192,192,150096,1,0,0:0:0:0:
448,192,150193,1,0,0:0:0:0:
320,192,150193,1,0,0:0:0:0:
64,192,150193,1,0,0:0:0:0:
192,192,150290,1,0,0:0:0:0:
64,192,150387,1,0,0:0:0:0:
320,192,150483,1,0,0:0:0:0:
448,192,150483,1,0,0:0:0:0:
192,192,150580,1,0,0:0:0:0:
64,192,150580,1,0,0:0:0:0:
320,192,150677,1,0,0:0:0:0:
448,192,150774,1,0,0:0:0:0:
192,192,150774,1,0,0:0:0:0:
64,192,150870,1,0,0:0:0:0:
320,192,150967,1,0,0:0:0:0:
448,192,150967,1,0,0:0:0:0:
192,192,150967,1,0,0:0:0:0:
64,192,151064,1,0,0:0:0:0:
320,192,151161,1,0,0:0:0:0:
192,192,151258,1,0,0:0:0:0:
448,192,151354,1,0,0:0:0:0:
320,192,151354,1,0,0:0:0:0:
64,192,151354,1,0,0:0:0:0:
192,192,151451,1,0,0:0:0:0:
448,192,151548,1,0,0:0:0:0:
320,192,151645,1,0,0:0:0:0:
192,192,151741,1,0,0:0:0:0:
448,192,151741,1,0,0:0:0:0:
64,192,151741,1,0,0:0:0:0:
320,192,151838,1,0,0:0:0:0:
64,192,151935,1,0,0:0:0:0:
448,192,152032,1,0,0:0:0:0:
192,192,152032,1,0,0:0:0:0:
320,192,152129,1,0,0:0:0:0:
64,192,152129,1,0,0:0:0:0:
448,192,152225,1,0,0:0:0:0:
320,192,152322,1,0,0:0:0:0:
192,192,152322,1,0,0:0:0:0:
64,192,152419,1,0,0:0:0:0:
320,192,152516,1,0,0:0:0:0:
448,192,152516,1,0,0:0:0:0:
192,192,152516,1,0,0:0:0:0:
64,192,152612,1,0,0:0:0:0:
448,192,152709,1,0,0:0:0:0:
192,192,152806,1,0,0:0:0:0:
320,192,152903,1,0,0:0:0:0:
448,192,152903,1,0,0:0:0:0:
64,192,152903,1,0,0:0:0:0:
192,192,153000,1,0,0:0:0:0:
320,192,153096,1,0,0:0:0:0:
64,192,153193,1,0,0:0:0:0:
320,192,153290,1,0,0:0:0:0:
192,192,153290,1,0,0:0:0:0:
448,192,153290,1,0,0:0:0:0:
64,192,153387,1,0,0:0:0:0:
320,192,153483,1,0,0:0:0:0:
448,192,153580,1,0,0:0:0:0:
320,192,153677,1,0,0:0:0:0:
192,192,153677,1,0,0:0:0:0:
64,192,153677,1,0,0:0:0:0:
448,192,153774,1,0,0:0:0:0:
64,192,153870,1,0,0:0:0:0:
192,192,153967,1,0,0:0:0:0:
448,192,154064,1,0,0:0:0:0:
320,192,154161,1,0,0:0:0:0:
192,192,154258,1,0,0:0:0:0:
448,192,154258,1,0,0:0:0:0:
64,192,154258,1,0,0:0:0:0:
320,192,154354,1,0,0:0:0:0:
192,192,154451,1,0,0:0:0:0:
448,192,154451,1,0,0:0:0:0:
64,192,154451,1,0,0:0:0:0:
320,192,154548,1,0,0:0:0:0:
192,192,154645,1,0,0:0:0:0:
64,192,154645,1,0,0:0:0:0:
448,192,154741,1,0,0:0:0:0:
320,192,154838,1,0,0:0:0:0:
192,192,154838,1,0,0:0:0:0:
64,192,154838,1,0,0:0:0:0:
448,192,154935,1,0,0:0:0:0:
320,192,155032,1,0,0:0:0:0:
192,192,155129,1,0,0:0:0:0:
64,192,155129,1,0,0:0:0:0:
320,192,155225,1,0,0:0:0:0:
448,192,155225,1,0,0:0:0:0:
64,192,155322,1,0,0:0:0:0:
192,192,155419,1,0,0:0:0:0:
448,192,155419,1,0,0:0:0:0:
320,192,155516,1,0,0:0:0:0:
192,192,155612,1,0,0:0:0:0:
448,192,155612,1,0,0:0:0:0:
64,192,155612,1,0,0:0:0:0:
320,192,155709,1,0,0:0:0:0:
64,192,155806,1,0,0:0:0:0:
448,192,155903,1,0,0:0:0:0:
320,192,156000,1,0,0:0:0:0:
192,192,156000,1,0,0:0:0:0:
64,192,156000,1,0,0:0:0:0:
448,192,156096,1,0,0:0:0:0:
192,192,156193,1,0,0:0:0:0:
64,192,156290,1,0,0:0:0:0:
320,192,156387,1,0,0:0:0:0:
448,192,156387,1,0,0:0:0:0:
192,192,156387,1,0,0:0:0:0:
64,192,156483,1,0,0:0:0:0:
320,192,156580,1,0,0:0:0:0:
192,192,156677,1,0,0:0:0:0:
448,192,156677,1,0,0:0:0:0:
320,192,156774,1,0,0:0:0:0:
64,192,156774,1,0,0:0:0:0:
192,192,156870,1,0,0:0:0:0:
448,192,156967,1,0,0:0:0:0:
64,192,156967,1,0,0:0:0:0:
320,192,157064,1,0,0:0:0:0:
192,192,157161,1,0,0:0:0:0:
448,192,157161,1,0,0:0:0:0:
64,192,157161,1,0,0:0:0:0:
320,192,157258,1,0,0:0:0:0:
192,192,157354,1,0,0:0:0:0:
448,192,157451,1,0,0:0:0:0:
320,192,157548,1,0,0:0:0:0:
192,192,157548,1,0,0:0:0:0:
64,192,157548,1,0,0:0:0:0:
448,192,157645,1,0,0:0:0:0:
320,192,157741,1,0,0:0:0:0:
64,192,157838,1,0,0:0:0:0:
320,192,157935,1,0,0:0:0:0:
448,192,157935,1,0,0:0:0:0:
192,192,157935,1,0,0:0:0:0:
64,192,158032,1,0,0:0:0:0:
448,192,158129,1,0,0:0:0:0:
192,192,158225,1,0,0:0:0:0:
320,192,158225,1,0,0:0:0:0:
448,192,158322,1,0,0:0:0:0:
64,192,158322,1,0,0:0:0:0:
192,192,158419,1,0,0:0:0:0:
320,192,158516,1,0,0:0:0:0:
64,192,158516,1,0,0:0:0:0:
448,192,158612,1,0,0:0:0:0:
320,192,158709,1,0,0:0:0:0:
192,192,158709,1,0,0:0:0:0:
64,192,158709,1,0,0:0:0:0:
448,192,158806,1,0,0:0:0:0:
320,192,158903,1,0,0:0:0:0:
192,192,158903,1,0,0:0:0:0:
64,192,158903,1,0,0:0:0:0:
448,192,159000,1,0,0:0:0:0:
192,192,159096,1,0,0:0:0:0:
64,192,159193,1,0,0:0:0:0:
320,192,159290,1,0,0:0:0:0:
448,192,159290,1,0,0:0:0:0:
192,192,159290,1,0,0:0:0:0:
64,192,159387,1,0,0:0:0:0:
320,192,159483,1,0,0:0:0:0:
448,192,159580,1,0,0:0:0:0:
64,192,159677,1,0,0:0:0:0:
320,192,159774,1,0,0:0:0:0:
192,192,159870,1,0,0:0:0:0:
448,192,159870,1,0,0:0:0:0:
64,192,159870,1,0,0:0:0:0:
320,192,159967,1,0,0:0:0:0:
192,192,160064,1,0,0:0:0:0:
448,192,160161,1,0,0:0:0:0:
320,192,160258,1,0,0:0:0:0:
192,192,160258,1,0,0:0:0:0:
64,192,160258,1,0,0:0:0:0:
448,192,160354,1,0,0:0:0:0:
320,192,160451,1,0,0:0:0:0:
64,192,160451,1,0,0:0:0:0:
192,192,160548,1,0,0:0:0:0:
320,192,160645,1,0,0:0:0:0:
448,192,160645,1,0,0:0:0:0:
64,192,160645,1,0,0:0:0:0:
192,192,160741,1,0,0:0:0:0:
448,192,160838,1,0,0:0:0:0:
64,192,160838,1,0,0:0:0:0:
320,192,160935,1,0,0:0:0:0:
448,192,161032,1,0,0:0:0:0:
192,192,161032,1,0,0:0:0:0:
64,192,161032,1,0,0:0:0:0:
320,192,161129,1,0,0:0:0:0:
448,192,161225,1,0,0:0:0:0:
192,192,161225,1,0,0:0:0:0:
64,192,161322,1,0,0:0:0:0:
320,192,161419,1,0,0:0:0:0:
448,192,161419,1,0,0:0:0:0:
192,192,161419,1,0,0:0:0:0:
64,192,161516,1,0,0:0:0:0:
320,192,161612,1,0,0:0:0:0:
192,192,161612,1,0,0:0:0:0:
448,192,161709,1,0,0:0:0:0:
320,192,161806,1,0,0:0:0:0:
192,192,161806,1,0,0:0:0:0:
64,192,161806,1,0,0:0:0:0:
448,192,161903,1,0,0:0:0:0:
320,192,162000,1,0,0:0:0:0:
64,192,162000,1,0,0:0:0:0:
192,192,162096,1,0,0:0:0:0:
320,192,162193,1,0,0:0:0:0:
448,192,162193,1,0,0:0:0:0:
64,192,162193,1,0,0:0:0:0:
192,192,162290,1,0,0:0:0:0:
448,192,162387,1,0,0:0:0:0:
64,192,162387,1,0,0:0:0:0:
320,192,162483,1,0,0:0:0:0:
192,192,162580,1,0,0:0:0:0:
448,192,162580,1,0,0:0:0:0:
64,192,162580,1,0,0:0:0:0:
320,192,162677,1,0,0:0:0:0:
192,192,162774,1,0,0:0:0:0:
64,192,162774,1,0,0:0:0:0:
448,192,162870,1,0,0:0:0:0:
192,192,162967,1,0,0:0:0:0:
320,192,162967,1,0,0:0:0:0:
64,192,162967,1,0,0:0:0:0:
448,192,163064,1,0,0:0:0:0:
192,192,163161,1,0,0:0:0:0:
320,192,163161,1,0,0:0:0:0:
64,192,163258,1,0,0:0:0:0:
320,192,163354,1,0,0:0:0:0:
192,192,163354,1,0,0:0:0:0:
448,192,163354,1,0,0:0:0:0:
64,192,163451,1,0,0:0:0:0:
320,192,163548,1,0,0:0:0:0:
448,192,163548,1,0,0:0:0:0:
192,192,163645,1,0,0:0:0:0:
320,192,163741,1,0,0:0:0:0:
448,192,163741,1,0,0:0:0:0:
64,192,163741,1,0,0:0:0:0:
192,192,163838,1,0,0:0:0:0:
448,192,163935,1,0,0:0:0:0:
64,192,163935,1,0,0:0:0:0:
320,192,164032,1,0,0:0:0:0:
192,192,164129,1,0,0:0:0:0:
448,192,164129,1,0,0:0:0:0:
64,192,164129,1,0,0:0:0:0:
320,192,164225,1,0,0:0:0:0:
192,192,164322,1,0,0:0:0:0:
320,192,164419,1,0,0:0:0:0:
192,192,164516,1,0,0:0:0:0:
448,192,164516,128,0,164612:0:0:0:0:
320,192,164612,1,0,0:0:0:0:
192,192,164709,1,0,0:0:0:0:
64,192,164709,128,0,164806:0:0:0:0:
320,192,164806,1,0,0:0:0:0:
192,192,164903,1,0,0:0:0:0:
320,192,165000,1,0,0:0:0:0:
64,192,165096,128,0,165193:0:0:0:0:
192,192,165096,1,0,0:0:0:0:
320,192,165193,1,0,0:0:0:0:
192,192,165290,1,0,0:0:0:0:
320,192,165387,1,0,0:0:0:0:
448,192,165483,128,0,165580:0:0:0:0:
192,192,165483,1,0,0:0:0:0:
320,192,165580,1,0,0:0:0:0:
192,192,165677,1,0,0:0:0:0:
320,192,165774,1,0,0:0:0:0:
192,192,165870,1,0,0:0:0:0:
320,192,165967,1,0,0:0:0:0:
192,192,166064,1,0,0:0:0:0:
320,192,166161,1,0,0:0:0:0:
192,192,166258,1,0,0:0:0:0:
320,192,166354,1,0,0:0:0:0:
192,192,166451,1,0,0:0:0:0:
64,192,166451,1,0,0:0:0:0:
64,192,166645,1,0,0:0:0:0:
320,192,166645,1,0,0:0:0:0:
192,192,166838,1,0,0:0:0:0:
448,192,166838,1,0,0:0:0:0:
64,192,167032,1,0,0:0:0:0:
448,192,167032,1,0,0:0:0:0:
320,192,167225,5,0,0:0:0:0:
192,192,167225,1,0,0:0:0:0:
64,192,167225,1,0,0:0:0:0:
448,192,167322,1,0,0:0:0:0:
192,192,167419,1,0,0:0:0:0:
320,192,167419,1,0,0:0:0:0:
64,192,167516,1,0,0:0:0:0:
192,192,167612,1,0,0:0:0:0:
448,192,167612,1,0,0:0:0:0:
320,192,167612,1,0,0:0:0:0:
64,192,167709,1,0,0:0:0:0:
448,192,167806,1,0,0:0:0:0:
192,192,167806,1,0,0:0:0:0:
320,192,167903,1,0,0:0:0:0:
448,192,168000,1,0,0:0:0:0:
192,192,168000,1,0,0:0:0:0:
64,192,168000,1,0,0:0:0:0:
320,192,168096,1,0,0:0:0:0:
448,192,168193,1,0,0:0:0:0:
64,192,168193,1,0,0:0:0:0:
192,192,168290,1,0,0:0:0:0:
448,192,168387,1,0,0:0:0:0:
64,192,168387,1,0,0:0:0:0:
320,192,168387,1,0,0:0:0:0:
192,192,168483,1,0,0:0:0:0:
64,192,168580,1,0,0:0:0:0:
320,192,168580,1,0,0:0:0:0:
448,192,168677,1,0,0:0:0:0:
192,192,168774,1,0,0:0:0:0:
64,192,168774,1,0,0:0:0:0:
320,192,168774,1,0,0:0:0:0:
448,192,168870,1,0,0:0:0:0:
192,192,168967,1,0,0:0:0:0:
64,192,168967,1,0,0:0:0:0:
320,192,169064,1,0,0:0:0:0:
448,192,169161,1,0,0:0:0:0:
192,192,169161,1,0,0:0:0:0:
64,192,169161,1,0,0:0:0:0:
320,192,169258,1,0,0:0:0:0:
448,192,169354,1,0,0:0:0:0:
192,192,169354,1,0,0:0:0:0:
64,192,169451,1,0,0:0:0:0:
448,192,169548,1,0,0:0:0:0:
192,192,169548,1,0,0:0:0:0:
320,192,169548,1,0,0:0:0:0:
64,192,169645,1,0,0:0:0:0:
448,192,169741,1,0,0:0:0:0:
320,192,169741,1,0,0:0:0:0:
192,192,169838,1,0,0:0:0:0:
448,192,169935,1,0,0:0:0:0:
64,192,169935,1,0,0:0:0:0:
320,192,169935,1,0,0:0:0:0:
192,192,170032,1,0,0:0:0:0:
64,192,170129,1,0,0:0:0:0:
320,192,170129,1,0,0:0:0:0:
448,192,170225,1,0,0:0:0:0:
192,192,170322,1,0,0:0:0:0:
64,192,170322,1,0,0:0:0:0:
320,192,170322,1,0,0:0:0:0:
448,192,170419,1,0,0:0:0:0:
192,192,170516,1,0,0:0:0:0:
320,192,170516,1,0,0:0:0:0:
64,192,170612,1,0,0:0:0:0:
192,192,170709,1,0,0:0:0:0:
448,192,170709,1,0,0:0:0:0:
320,192,170709,1,0,0:0:0:0:
64,192,170806,1,0,0:0:0:0:
448,192,170903,1,0,0:0:0:0:
192,192,170903,1,0,0:0:0:0:
320,192,171000,1,0,0:0:0:0:
448,192,171096,1,0,0:0:0:0:
192,192,171096,1,0,0:0:0:0:
64,192,171096,1,0,0:0:0:0:
320,192,171193,1,0,0:0:0:0:
448,192,171290,1,0,0:0:0:0:
64,192,171290,1,0,0:0:0:0:
192,192,171387,1,0,0:0:0:0:
448,192,171483,1,0,0:0:0:0:
64,192,171483,1,0,0:0:0:0:
320,192,171483,1,0,0:0:0:0:
192,192,171580,1,0,0:0:0:0:
64,192,171677,1,0,0:0:0:0:
320,192,171677,1,0,0:0:0:0:
448,192,171774,1,0,0:0:0:0:
192,192,171870,1,0,0:0:0:0:
64,192,171870,1,0,0:0:0:0:
320,192,171870,1,0,0:0:0:0:
448,192,171967,1,0,0:0:0:0:
192,192,172064,1,0,0:0:0:0:
320,192,172064,1,0,0:0:0:0:
64,192,172161,1,0,0:0:0:0:
448,192,172258,1,0,0:0:0:0:
192,192,172258,1,0,0:0:0:0:
320,192,172258,1,0,0:0:0:0:
64,192,172354,1,0,0:0:0:0:
448,192,172451,1,0,0:0:0:0:
192,192,172451,1,0,0:0:0:0:
320,192,172548,1,0,0:0:0:0:
448,192,172645,1,0,0:0:0:0:
192,192,172645,1,0,0:0:0:0:
64,192,172645,1,0,0:0:0:0:
320,192,172741,1,0,0:0:0:0:
192,192,172838,1,0,0:0:0:0:
64,192,172838,1,0,0:0:0:0:
448,192,172935,1,0,0:0:0:0:
192,192,173032,1,0,0:0:0:0:
64,192,173032,1,0,0:0:0:0:
320,192,173032,1,0,0:0:0:0:
448,192,173129,1,0,0:0:0:0:
64,192,173225,1,0,0:0:0:0:
320,192,173225,1,0,0:0:0:0:
192,192,173322,1,0,0:0:0:0:
448,192,173419,1,0,0:0:0:0:
64,192,173419,1,0,0:0:0:0:
320,192,173419,1,0,0:0:0:0:
192,192,173516,1,0,0:0:0:0:
448,192,173612,1,0,0:0:0:0:
320,192,173612,1,0,0:0:0:0:
64,192,173709,1,0,0:0:0:0:
192,192,173806,1,0,0:0:0:0:
448,192,173806,1,0,0:0:0:0:
320,192,173806,1,0,0:0:0:0:
64,192,173903,1,0,0:0:0:0:
192,192,174000,1,0,0:0:0:0:
448,192,174000,1,0,0:0:0:0:
320,192,174096,1,0,0:0:0:0:
448,192,174193,1,0,0:0:0:0:
192,192,174193,1,0,0:0:0:0:
64,192,174193,1,0,0:0:0:0:
320,192,174290,1,0,0:0:0:0:
448,192,174387,1,0,0:0:0:0:
64,192,174387,1,0,0:0:0:0:
192,192,174483,1,0,0:0:0:0:
448,192,174580,1,0,0:0:0:0:
64,192,174580,1,0,0:0:0:0:
320,192,174580,1,0,0:0:0:0:
192,192,174677,1,0,0:0:0:0:
64,192,174774,1,0,0:0:0:0:
320,192,174774,1,0,0:0:0:0:
448,192,174870,1,0,0:0:0:0:
192,192,174967,1,0,0:0:0:0:
64,192,174967,1,0,0:0:0:0:
320,192,174967,1,0,0:0:0:0:
448,192,175064,1,0,0:0:0:0:
192,192,175161,1,0,0:0:0:0:
320,192,175161,1,0,0:0:0:0:
64,192,175258,1,0,0:0:0:0:
448,192,175354,1,0,0:0:0:0:
192,192,175354,1,0,0:0:0:0:
320,192,175354,1,0,0:0:0:0:
64,192,175451,1,0,0:0:0:0:
448,192,175548,1,0,0:0:0:0:
192,192,175548,1,0,0:0:0:0:
320,192,175645,1,0,0:0:0:0:
448,192,175741,1,0,0:0:0:0:
192,192,175741,1,0,0:0:0:0:
64,192,175741,1,0,0:0:0:0:
320,192,175838,1,0,0:0:0:0:
448,192,175935,1,0,0:0:0:0:
64,192,175935,1,0,0:0:0:0:
192,192,176032,1,0,0:0:0:0:
448,192,176129,1,0,0:0:0:0:
64,192,176129,1,0,0:0:0:0:
320,192,176129,1,0,0:0:0:0:
192,192,176225,1,0,0:0:0:0:
64,192,176322,1,0,0:0:0:0:
320,192,176322,1,0,0:0:0:0:
448,192,176419,1,0,0:0:0:0:
192,192,176516,1,0,0:0:0:0:
64,192,176516,1,0,0:0:0:0:
320,192,176516,1,0,0:0:0:0:
448,192,176612,1,0,0:0:0:0:
192,192,176709,1,0,0:0:0:0:
320,192,176709,1,0,0:0:0:0:
64,192,176806,1,0,0:0:0:0:
448,192,176903,1,0,0:0:0:0:
192,192,176903,1,0,0:0:0:0:
320,192,176903,1,0,0:0:0:0:
64,192,177000,1,0,0:0:0:0:
448,192,177096,1,0,0:0:0:0:
192,192,177096,1,0,0:0:0:0:
320,192,177193,1,0,0:0:0:0:
448,192,177290,1,0,0:0:0:0:
192,192,177290,1,0,0:0:0:0:
64,192,177290,1,0,0:0:0:0:
320,192,177387,1,0,0:0:0:0:
448,192,177483,1,0,0:0:0:0:
64,192,177483,1,0,0:0:0:0:
192,192,177580,1,0,0:0:0:0:
448,192,177677,1,0,0:0:0:0:
64,192,177677,1,0,0:0:0:0:
320,192,177677,1,0,0:0:0:0:
192,192,177774,1,0,0:0:0:0:
64,192,177870,1,0,0:0:0:0:
320,192,177870,1,0,0:0:0:0:
448,192,177967,1,0,0:0:0:0:
192,192,178064,1,0,0:0:0:0:
64,192,178064,1,0,0:0:0:0:
320,192,178064,1,0,0:0:0:0:
448,192,178161,1,0,0:0:0:0:
64,192,178258,1,0,0:0:0:0:
192,192,178354,1,0,0:0:0:0:
448,192,178451,1,0,0:0:0:0:
64,192,178451,1,0,0:0:0:0:
320,192,178451,1,0,0:0:0:0:
192,192,178548,1,0,0:0:0:0:
64,192,178645,1,0,0:0:0:0:
448,192,178741,1,0,0:0:0:0:
320,192,178838,1,0,0:0:0:0:
448,192,178935,1,0,0:0:0:0:
192,192,179032,1,0,0:0:0:0:
64,192,179032,1,0,0:0:0:0:
320,192,179129,1,0,0:0:0:0:
448,192,179225,1,0,0:0:0:0:
192,192,179225,1,0,0:0:0:0:
64,192,179225,1,0,0:0:0:0:
320,192,179322,1,0,0:0:0:0:
192,192,179419,1,0,0:0:0:0:
64,192,179516,1,0,0:0:0:0:
448,192,179612,1,0,0:0:0:0:
192,192,179612,1,0,0:0:0:0:
320,192,179612,1,0,0:0:0:0:
64,192,179709,1,0,0:0:0:0:
448,192,179806,1,0,0:0:0:0:
320,192,179806,1,0,0:0:0:0:
192,192,179903,1,0,0:0:0:0:
448,192,180000,1,0,0:0:0:0:
64,192,180000,1,0,0:0:0:0:
320,192,180000,1,0,0:0:0:0:
192,192,180096,1,0,0:0:0:0:
448,192,180193,1,0,0:0:0:0:
64,192,180193,1,0,0:0:0:0:
320,192,180290,1,0,0:0:0:0:
448,192,180387,1,0,0:0:0:0:
192,192,180387,1,0,0:0:0:0:
64,192,180387,1,0,0:0:0:0:
320,192,180483,1,0,0:0:0:0:
192,192,180580,1,0,0:0:0:0:
64,192,180580,1,0,0:0:0:0:
448,192,180677,1,0,0:0:0:0:
192,192,180774,1,0,0:0:0:0:
64,192,180774,1,0,0:0:0:0:
320,192,180774,1,0,0:0:0:0:
448,192,180870,1,0,0:0:0:0:
192,192,180967,1,0,0:0:0:0:
320,192,180967,1,0,0:0:0:0:
64,192,181064,1,0,0:0:0:0:
448,192,181161,1,0,0:0:0:0:
192,192,181161,1,0,0:0:0:0:
320,192,181161,1,0,0:0:0:0:
64,192,181258,1,0,0:0:0:0:
448,192,181354,1,0,0:0:0:0:
192,192,181354,1,0,0:0:0:0:
64,192,181451,1,0,0:0:0:0:
448,192,181548,1,0,0:0:0:0:
192,192,181548,1,0,0:0:0:0:
320,192,181548,1,0,0:0:0:0:
64,192,181645,1,0,0:0:0:0:
448,192,181741,1,0,0:0:0:0:
320,192,181741,1,0,0:0:0:0:
192,192,181838,1,0,0:0:0:0:
448,192,181935,1,0,0:0:0:0:
64,192,181935,1,0,0:0:0:0:
320,192,181935,1,0,0:0:0:0:
192,192,182032,1,0,0:0:0:0:
64,192,182129,1,0,0:0:0:0:
320,192,182129,1,0,0:0:0:0:
448,192,182225,1,0,0:0:0:0:
192,192,182322,1,0,0:0:0:0:
64,192,182322,1,0,0:0:0:0:
320,192,182322,1,0,0:0:0:0:
448,192,182419,1,0,0:0:0:0:
192,192,182516,1,0,0:0:0:0:
64,192,182516,1,0,0:0:0:0:
320,192,182612,1,0,0:0:0:0:
448,192,182709,1,0,0:0:0:0:
192,192,182709,1,0,0:0:0:0:
64,192,182709,1,0,0:0:0:0:
320,192,182806,1,0,0:0:0:0:
448,192,182903,1,0,0:0:0:0:
192,192,182903,1,0,0:0:0:0:
320,192,183000,1,0,0:0:0:0:
448,192,183096,1,0,0:0:0:0:
192,192,183096,1,0,0:0:0:0:
64,192,183096,1,0,0:0:0:0:
320,192,183193,1,0,0:0:0:0:
448,192,183290,1,0,0:0:0:0:
64,192,183290,1,0,0:0:0:0:
192,192,183387,1,0,0:0:0:0:
448,192,183483,1,0,0:0:0:0:
64,192,183483,1,0,0:0:0:0:
320,192,183483,1,0,0:0:0:0:
192,192,183580,1,0,0:0:0:0:
64,192,183677,1,0,0:0:0:0:
320,192,183677,1,0,0:0:0:0:
448,192,183774,1,0,0:0:0:0:
192,192,183870,1,0,0:0:0:0:
64,192,183870,1,0,0:0:0:0:
320,192,183870,1,0,0:0:0:0:
448,192,183967,1,0,0:0:0:0:
192,192,184064,1,0,0:0:0:0:
320,192,184064,1,0,0:0:0:0:
64,192,184161,1,0,0:0:0:0:
448,192,184258,1,0,0:0:0:0:
192,192,184258,1,0,0:0:0:0:
320,192,184258,1,0,0:0:0:0:
64,192,184354,1,0,0:0:0:0:
448,192,184451,1,0,0:0:0:0:
192,192,184451,1,0,0:0:0:0:
320,192,184548,1,0,0:0:0:0:
448,192,184645,1,0,0:0:0:0:
192,192,184645,1,0,0:0:0:0:
64,192,184645,1,0,0:0:0:0:
320,192,184741,1,0,0:0:0:0:
448,192,184838,1,0,0:0:0:0:
64,192,184838,1,0,0:0:0:0:
192,192,184935,1,0,0:0:0:0:
448,192,185032,1,0,0:0:0:0:
64,192,185032,1,0,0:0:0:0:
320,192,185032,1,0,0:0:0:0:
192,192,185129,1,0,0:0:0:0:
64,192,185225,1,0,0:0:0:0:
320,192,185225,1,0,0:0:0:0:
448,192,185322,1,0,0:0:0:0:
192,192,185419,1,0,0:0:0:0:
64,192,185419,1,0,0:0:0:0:
320,192,185419,1,0,0:0:0:0:
448,192,185516,1,0,0:0:0:0:
192,192,185612,1,0,0:0:0:0:
320,192,185612,1,0,0:0:0:0:
64,192,185709,1,0,0:0:0:0:
448,192,185806,1,0,0:0:0:0:
192,192,185806,1,0,0:0:0:0:
320,192,185806,1,0,0:0:0:0:
64,192,185903,1,0,0:0:0:0:
448,192,186000,1,0,0:0:0:0:
192,192,186000,1,0,0:0:0:0:
320,192,186096,1,0,0:0:0:0:
448,192,186193,1,0,0:0:0:0:
192,192,186193,1,0,0:0:0:0:
64,192,186193,1,0,0:0:0:0:
320,192,186290,1,0,0:0:0:0:
448,192,186387,1,0,0:0:0:0:
64,192,186387,1,0,0:0:0:0:
192,192,186483,1,0,0:0:0:0:
448,192,186580,1,0,0:0:0:0:
64,192,186580,1,0,0:0:0:0:
320,192,186580,1,0,0:0:0:0:
192,192,186677,1,0,0:0:0:0:
64,192,186774,1,0,0:0:0:0:
320,192,186774,1,0,0:0:0:0:
192,192,186870,1,0,0:0:0:0:
448,192,186967,1,0,0:0:0:0:
64,192,186967,1,0,0:0:0:0:
320,192,186967,1,0,0:0:0:0:
192,192,187064,1,0,0:0:0:0:
448,192,187161,1,0,0:0:0:0:
320,192,187161,1,0,0:0:0:0:
64,192,187258,1,0,0:0:0:0:
448,192,187354,1,0,0:0:0:0:
192,192,187354,1,0,0:0:0:0:
320,192,187354,1,0,0:0:0:0:
64,192,187451,1,0,0:0:0:0:
448,192,187548,1,0,0:0:0:0:
192,192,187548,1,0,0:0:0:0:
320,192,187645,1,0,0:0:0:0:
192,192,187741,1,0,0:0:0:0:
448,192,187741,1,0,0:0:0:0:
64,192,187741,1,0,0:0:0:0:
320,192,187838,1,0,0:0:0:0:
192,192,187935,1,0,0:0:0:0:
64,192,187935,1,0,0:0:0:0:
448,192,188032,1,0,0:0:0:0:
192,192,188129,1,0,0:0:0:0:
64,192,188129,1,0,0:0:0:0:
320,192,188129,1,0,0:0:0:0:
448,192,188225,1,0,0:0:0:0:
64,192,188322,1,0,0:0:0:0:
320,192,188322,1,0,0:0:0:0:
448,192,188419,1,0,0:0:0:0:
192,192,188516,1,0,0:0:0:0:
64,192,188516,1,0,0:0:0:0:
320,192,188516,1,0,0:0:0:0:
448,192,188612,1,0,0:0:0:0:
192,192,188709,1,0,0:0:0:0:
320,192,188709,1,0,0:0:0:0:
64,192,188806,1,0,0:0:0:0:
448,192,188903,1,0,0:0:0:0:
192,192,188903,1,0,0:0:0:0:
320,192,188903,1,0,0:0:0:0:
64,192,189000,1,0,0:0:0:0:
448,192,189096,1,0,0:0:0:0:
64,192,189193,1,0,0:0:0:0:
448,192,189290,1,0,0:0:0:0:
320,192,189290,128,0,189387:0:0:0:0:
64,192,189387,1,0,0:0:0:0:
192,192,189483,128,0,189580:0:0:0:0:
448,192,189483,1,0,0:0:0:0:
64,192,189580,1,0,0:0:0:0:
448,192,189677,1,0,0:0:0:0:
64,192,189774,1,0,0:0:0:0:
192,192,189870,128,0,189967:0:0:0:0:
448,192,189870,1,0,0:0:0:0:
64,192,189967,1,0,0:0:0:0:
448,192,190064,1,0,0:0:0:0:
64,192,190161,1,0,0:0:0:0:
320,192,190258,128,0,190354:0:0:0:0:
448,192,190258,1,0,0:0:0:0:
64,192,190354,1,0,0:0:0:0:
448,192,190451,1,0,0:0:0:0:
64,192,190548,1,0,0:0:0:0:
448,192,190645,1,0,0:0:0:0:
64,192,190741,1,0,0:0:0:0:
448,192,190838,1,0,0:0:0:0:
64,192,190935,1,0,0:0:0:0:
448,192,191032,1,0,0:0:0:0:
64,192,191129,1,0,0:0:0:0:
448,192,191225,1,0,0:0:0:0:
192,192,191225,1,0,0:0:0:0:
192,192,191419,1,0,0:0:0:0:
64,192,191419,1,0,0:0:0:0:
448,192,191612,1,0,0:0:0:0:
320,192,191612,1,0,0:0:0:0:
320,192,191806,1,0,0:0:0:0:
192,192,191806,1,0,0:0:0:0:
448,192,192000,1,0,0:0:0:0:
64,192,192000,1,0,0:0:0:0:
192,192,192000,1,0,0:0:0:0:
320,192,192096,1,0,0:0:0:0:
448,192,192193,1,0,0:0:0:0:
64,192,192290,1,0,0:0:0:0:
192,192,192290,1,0,0:0:0:0:
448,192,192387,1,0,0:0:0:0:
320,192,192387,1,0,0:0:0:0:
64,192,192483,1,0,0:0:0:0:
320,192,192580,1,0,0:0:0:0:
192,192,192580,1,0,0:0:0:0:
448,192,192677,1,0,0:0:0:0:
320,192,192774,1,0,0:0:0:0:
64,192,192774,1,0,0:0:0:0:
192,192,192774,1,0,0:0:0:0:
448,192,192870,1,0,0:0:0:0:
64,192,192967,1,0,0:0:0:0:
320,192,193064,1,0,0:0:0:0:
448,192,193161,1,0,0:0:0:0:
64,192,193161,1,0,0:0:0:0:
192,192,193161,1,0,0:0:0:0:
320,192,193258,1,0,0:0:0:0:
192,192,193354,1,0,0:0:0:0:
64,192,193451,1,0,0:0:0:0:
320,192,193548,1,0,0:0:0:0:
448,192,193548,1,0,0:0:0:0:
192,192,193548,1,0,0:0:0:0:
64,192,193645,1,0,0:0:0:0:
448,192,193741,1,0,0:0:0:0:
320,192,193838,1,0,0:0:0:0:
192,192,193838,1,0,0:0:0:0:
448,192,193935,1,0,0:0:0:0:
64,192,193935,1,0,0:0:0:0:
320,192,194032,1,0,0:0:0:0:
64,192,194129,1,0,0:0:0:0:
192,192,194129,1,0,0:0:0:0:
448,192,194225,1,0,0:0:0:0:
320,192,194322,1,0,0:0:0:0:
64,192,194322,1,0,0:0:0:0:
192,192,194322,1,0,0:0:0:0:
448,192,194419,1,0,0:0:0:0:
320,192,194516,1,0,0:0:0:0:
64,192,194612,1,0,0:0:0:0:
320,192,194709,1,0,0:0:0:0:
448,192,194709,1,0,0:0:0:0:
192,192,194709,1,0,0:0:0:0:
64,192,194806,1,0,0:0:0:0:
448,192,194903,1,0,0:0:0:0:
192,192,195000,1,0,0:0:0:0:
448,192,195096,1,0,0:0:0:0:
320,192,195096,1,0,0:0:0:0:
64,192,195096,1,0,0:0:0:0:
192,192,195193,1,0,0:0:0:0:
64,192,195290,1,0,0:0:0:0:
320,192,195387,1,0,0:0:0:0:
448,192,195387,1,0,0:0:0:0:
64,192,195483,1,0,0:0:0:0:
192,192,195483,1,0,0:0:0:0:
320,192,195580,1,0,0:0:0:0:
448,192,195677,1,0,0:0:0:0:
192,192,195677,1,0,0:0:0:0:
64,192,195774,1,0,0:0:0:0:
320,192,195870,1,0,0:0:0:0:
448,192,195870,1,0,0:0:0:0:
192,192,195870,1,0,0:0:0:0:
64,192,195967,1,0,0:0:0:0:
320,192,196064,1,0,0:0:0:0:
192,192,196161,1,0,0:0:0:0:
448,192,196258,1,0,0:0:0:0:
320,192,196258,1,0,0:0:0:0:
64,192,196258,1,0,0:0:0:0:
192,192,196354,1,0,0:0:0:0:
448,192,196451,1,0,0:0:0:0:
64,192,196548,1,0,0:0:0:0:
320,192,196645,1,0,0:0:0:0:
448,192,196645,1,0,0:0:0:0:
192,192,196645,1,0,0:0:0:0:
64,192,196741,1,0,0:0:0:0:
320,192,196838,1,0,0:0:0:0:
448,192,196935,1,0,0:0:0:0:
320,192,197032,1,0,0:0:0:0:
64,192,197032,1,0,0:0:0:0:
192,192,197032,1,0,0:0:0:0:
448,192,197129,1,0,0:0:0:0:
192,192,197225,1,0,0:0:0:0:
64,192,197322,1,0,0:0:0:0:
320,192,197419,1,0,0:0:0:0:
448,192,197419,1,0,0:0:0:0:
192,192,197419,1,0,0:0:0:0:
64,192,197516,1,0,0:0:0:0:
320,192,197612,1,0,0:0:0:0:
448,192,197612,1,0,0:0:0:0:
192,192,197709,1,0,0:0:0:0:
448,192,197806,1,0,0:0:0:0:
320,192,197806,1,0,0:0:0:0:
64,192,197806,1,0,0:0:0:0:
192,192,197903,1,0,0:0:0:0:
320,192,198000,1,0,0:0:0:0:
64,192,198000,1,0,0:0:0:0:
448,192,198096,1,0,0:0:0:0:
320,192,198193,1,0,0:0:0:0:
64,192,198193,1,0,0:0:0:0:
192,192,198193,1,0,0:0:0:0:
448,192,198290,1,0,0:0:0:0:
64,192,198387,1,0,0:0:0:0:
320,192,198483,1,0,0:0:0:0:
192,192,198483,1,0,0:0:0:0:
448,192,198580,1,0,0:0:0:0:
64,192,198580,1,0,0:0:0:0:
192,192,198677,1,0,0:0:0:0:
320,192,198774,1,0,0:0:0:0:
448,192,198774,1,0,0:0:0:0:
64,192,198870,1,0,0:0:0:0:
320,192,198967,1,0,0:0:0:0:
448,192,198967,1,0,0:0:0:0:
192,192,198967,1,0,0:0:0:0:
64,192,199064,1,0,0:0:0:0:
192,192,199161,1,0,0:0:0:0:
320,192,199258,1,0,0:0:0:0:
448,192,199354,1,0,0:0:0:0:
64,192,199354,1,0,0:0:0:0:
192,192,199354,1,0,0:0:0:0:
320,192,199451,1,0,0:0:0:0:
64,192,199548,1,0,0:0:0:0:
192,192,199645,1,0,0:0:0:0:
448,192,199741,1,0,0:0:0:0:
320,192,199741,1,0,0:0:0:0:
64,192,199741,1,0,0:0:0:0:
192,192,199838,1,0,0:0:0:0:
448,192,199935,1,0,0:0:0:0:
320,192,200032,1,0,0:0:0:0:
64,192,200032,1,0,0:0:0:0:
448,192,200129,1,0,0:0:0:0:
192,192,200129,1,0,0:0:0:0:
320,192,200225,1,0,0:0:0:0:
64,192,200322,1,0,0:0:0:0:
192,192,200322,1,0,0:0:0:0:
448,192,200419,1,0,0:0:0:0:
320,192,200516,1,0,0:0:0:0:
64,192,200516,1,0,0:0:0:0:
192,192,200516,1,0,0:0:0:0:
448,192,200612,1,0,0:0:0:0:
320,192,200709,1,0,0:0:0:0:
192,192,200806,1,0,0:0:0:0:
320,192,200903,1,0,0:0:0:0:
448,192,200903,1,0,0:0:0:0:
64,192,200903,1,0,0:0:0:0:
192,192,201000,1,0,0:0:0:0:
64,192,201096,1,0,0:0:0:0:
320,192,201193,1,0,0:0:0:0:
448,192,201290,1,0,0:0:0:0:
64,192,201290,1,0,0:0:0:0:
192,192,201290,1,0,0:0:0:0:
320,192,201387,1,0,0:0:0:0:
448,192,201483,1,0,0:0:0:0:
64,192,201580,1,0,0:0:0:0:
192,192,201580,1,0,0:0:0:0:
448,192,201677,1,0,0:0:0:0:
320,192,201677,1,0,0:0:0:0:
64,192,201774,1,0,0:0:0:0:
320,192,201870,1,0,0:0:0:0:
192,192,201870,1,0,0:0:0:0:
448,192,201967,1,0,0:0:0:0:
320,192,202064,1,0,0:0:0:0:
64,192,202064,1,0,0:0:0:0:
192,192,202064,1,0,0:0:0:0:
448,192,202161,1,0,0:0:0:0:
64,192,202258,1,0,0:0:0:0:
192,192,202354,1,0,0:0:0:0:
448,192,202451,1,0,0:0:0:0:
320,192,202451,1,0,0:0:0:0:
64,192,202451,1,0,0:0:0:0:
192,192,202548,1,0,0:0:0:0:
320,192,202645,1,0,0:0:0:0:
448,192,202741,1,0,0:0:0:0:
320,192,202838,1,0,0:0:0:0:
64,192,202838,1,0,0:0:0:0:
192,192,202838,1,0,0:0:0:0:
448,192,202935,1,0,0:0:0:0:
320,192,203032,1,0,0:0:0:0:
64,192,203129,1,0,0:0:0:0:
320,192,203225,1,0,0:0:0:0:
448,192,203225,1,0,0:0:0:0:
192,192,203225,1,0,0:0:0:0:
64,192,203322,1,0,0:0:0:0:
448,192,203419,1,0,0:0:0:0:
192,192,203516,1,0,0:0:0:0:
64,192,203612,1,0,0:0:0:0:
320,192,203709,1,0,0:0:0:0:
448,192,203806,1,0,0:0:0:0:
64,192,203806,1,0,0:0:0:0:
192,192,203806,1,0,0:0:0:0:
320,192,203903,1,0,0:0:0:0:
448,192,204000,1,0,0:0:0:0:
64,192,204000,1,0,0:0:0:0:
192,192,204000,1,0,0:0:0:0:
320,192,204096,1,0,0:0:0:0:
448,192,204193,1,0,0:0:0:0:
192,192,204193,1,0,0:0:0:0:
64,192,204290,1,0,0:0:0:0:
320,192,204387,1,0,0:0:0:0:
448,192,204387,1,0,0:0:0:0:
192,192,204387,1,0,0:0:0:0:
64,192,204483,1,0,0:0:0:0:
320,192,204580,1,0,0:0:0:0:
448,192,204677,1,0,0:0:0:0:
192,192,204677,1,0,0:0:0:0:
320,192,204774,1,0,0:0:0:0:
64,192,204774,1,0,0:0:0:0:
448,192,204870,1,0,0:0:0:0:
64,192,204967,1,0,0:0:0:0:
192,192,204967,1,0,0:0:0:0:
320,192,205064,1,0,0:0:0:0:
448,192,205161,1,0,0:0:0:0:
64,192,205161,1,0,0:0:0:0:
192,192,205161,1,0,0:0:0:0:
320,192,205258,1,0,0:0:0:0:
448,192,205354,1,0,0:0:0:0:
64,192,205451,1,0,0:0:0:0:
320,192,205548,1,0,0:0:0:0:
448,192,205548,1,0,0:0:0:0:
192,192,205548,1,0,0:0:0:0:
64,192,205645,1,0,0:0:0:0:
192,192,205741,1,0,0:0:0:0:
448,192,205838,1,0,0:0:0:0:
320,192,205935,1,0,0:0:0:0:
64,192,205935,1,0,0:0:0:0:
192,192,205935,1,0,0:0:0:0:
448,192,206032,1,0,0:0:0:0:
320,192,206129,1,0,0:0:0:0:
64,192,206225,1,0,0:0:0:0:
192,192,206225,1,0,0:0:0:0:
320,192,206322,1,0,0:0:0:0:
448,192,206322,1,0,0:0:0:0:
192,192,206419,1,0,0:0:0:0:
448,192,206516,1,0,0:0:0:0:
64,192,206516,1,0,0:0:0:0:
320,192,206612,1,0,0:0:0:0:
448,192,206709,1,0,0:0:0:0:
64,192,206709,1,0,0:0:0:0:
192,192,206709,1,0,0:0:0:0:
320,192,206806,1,0,0:0:0:0:
192,192,206903,1,0,0:0:0:0:
64,192,207000,1,0,0:0:0:0:
320,192,207096,1,0,0:0:0:0:
448,192,207096,1,0,0:0:0:0:
192,192,207096,1,0,0:0:0:0:
64,192,207193,1,0,0:0:0:0:
320,192,207290,1,0,0:0:0:0:
448,192,207387,1,0,0:0:0:0:
320,192,207483,1,0,0:0:0:0:
64,192,207483,1,0,0:0:0:0:
192,192,207483,1,0,0:0:0:0:
448,192,207580,1,0,0:0:0:0:
64,192,207677,1,0,0:0:0:0:
320,192,207774,1,0,0:0:0:0:
192,192,207774,1,0,0:0:0:0:
448,192,207870,1,0,0:0:0:0:
64,192,207870,1,0,0:0:0:0:
192,192,207967,1,0,0:0:0:0:
320,192,208064,1,0,0:0:0:0:
448,192,208064,1,0,0:0:0:0:
64,192,208161,1,0,0:0:0:0:
320,192,208258,1,0,0:0:0:0:
448,192,208258,1,0,0:0:0:0:
192,192,208258,1,0,0:0:0:0:
64,192,208354,1,0,0:0:0:0:
320,192,208451,1,0,0:0:0:0:
448,192,208451,1,0,0:0:0:0:
192,192,208451,1,0,0:0:0:0:
64,192,208548,1,0,0:0:0:0:
192,192,208645,1,0,0:0:0:0:
448,192,208741,1,0,0:0:0:0:
320,192,208838,1,0,0:0:0:0:
64,192,208838,1,0,0:0:0:0:
192,192,208838,1,0,0:0:0:0:
448,192,208935,1,0,0:0:0:0:
320,192,209032,1,0,0:0:0:0:
64,192,209129,1,0,0:0:0:0:
448,192,209225,1,0,0:0:0:0:
320,192,209322,1,0,0:0:0:0:
448,192,209419,1,0,0:0:0:0:
64,192,209419,1,0,0:0:0:0:
192,192,209419,1,0,0:0:0:0:
320,192,209516,1,0,0:0:0:0:
192,192,209612,1,0,0:0:0:0:
64,192,209709,1,0,0:0:0:0:
320,192,209806,1,0,0:0:0:0:
448,192,209806,1,0,0:0:0:0:
192,192,209806,1,0,0:0:0:0:
64,192,209903,1,0,0:0:0:0:
320,192,210000,1,0,0:0:0:0:
448,192,210000,1,0,0:0:0:0:
192,192,210096,1,0,0:0:0:0:
448,192,210193,1,0,0:0:0:0:
320,192,210193,1,0,0:0:0:0:
64,192,210193,1,0,0:0:0:0:
192,192,210290,1,0,0:0:0:0:
448,192,210387,1,0,0:0:0:0:
64,192,210387,1,0,0:0:0:0:
320,192,210483,1,0,0:0:0:0:
448,192,210580,128,0,211161:0:0:0:0:
192,192,210580,128,0,211064:0:0:0:0:
64,192,210580,128,0,211064:0:0:0:0:
320,192,211161,128,0,211548:0:0:0:0:
64,192,211161,128,0,211451:0:0:0:0:
192,192,211161,128,0,211451:0:0:0:0:
192,192,211548,128,0,211935:0:0:0:0:
448,192,211548,128,0,211838:0:0:0:0:
64,192,211548,128,0,211838:0:0:0:0:
64,192,211935,128,0,215225:0:0:0:0:
448,192,211935,128,0,213580:0:0:0:0:
320,192,211935,128,0,214741:0:0:0:0:
192,192,213290,128,0,214548:0:0:0:0:
448,192,213677,128,0,214935:0:0:0:0:
192,192,214645,128,0,215225:0:0:0:0:
320,192,214838,128,0,215225:0:0:0:0:
448,192,215032,128,0,215225:0:0:0:0:
