osu file format v14

[General]
AudioFilename: audio.mp3
AudioLeadIn: 0
PreviewTime: 33699
Countdown: 0
SampleSet: Normal
StackLeniency: 0.7
Mode: 1
LetterboxInBreaks: 0
EpilepsyWarning: 1
WidescreenStoryboard: 1

[Editor]
Bookmarks: 103229,124406,169582
DistanceSpacing: 1
BeatDivisor: 4
GridSize: 32
TimelineZoom: 2.6

[Metadata]
Title:Rainbow Road
TitleUnicode:Rainbow Road
Artist:nanobii
ArtistUnicode:nanobii
Creator:HEAVENLY MOON
Version:oni
Source:
Tags:monstercat release electronic happy hardcore happycore english techno instrumental featured artist fa mappers' guild mpg mg monstercat 016 - expedition monstercat - best of 2014 monstercat 3 year anniversary ginjani dako gigachad cynplytholowazy
BeatmapID:3952442
BeatmapSetID:1812415

[Difficulty]
HPDrainRate:6
CircleSize:5
OverallDifficulty:5.5
ApproachRate:5
SliderMultiplier:1.4
SliderTickRate:1

[Events]
//Background and Video events
0,0,"raainbowroad.jpg",0,0
//Break Periods
2,1252,4970
//Storyboard Layer 0 (Background)
//Storyboard Layer 1 (Fail)
//Storyboard Layer 2 (Pass)
//Storyboard Layer 3 (Foreground)
//Storyboard Layer 4 (Overlay)
//Storyboard Sound Samples

[TimingPoints]
523,352.941176470588,4,1,0,60,1,0
523,-133.333333333333,4,1,0,60,0,0
11810,-117.647058823529,4,1,0,70,0,0
22398,-116.279069767442,4,1,0,70,0,0
22574,-114.942528735632,4,1,0,70,0,0
22751,-113.636363636364,4,1,0,70,0,0
22927,-112.359550561798,4,1,0,70,0,0
23104,-111.111111111111,4,1,0,70,0,0
27692,-113.636363636364,4,1,0,70,0,0
28045,-116.279069767442,4,1,0,70,0,0
28398,-119.047619047619,4,1,0,70,0,0
28574,-121.951219512195,4,1,0,70,0,0
28751,-125,4,1,0,90,0,0
28839,-123.7364957082,4,1,0,90,0,0
28927,-122.498128841082,4,1,0,90,0,0
29015,-121.284450848263,4,1,0,90,0,0
29104,-120.094442269401,4,1,0,90,0,0
29192,-118.927700283167,4,1,0,90,0,0
29280,-117.783271713052,4,1,0,90,0,0
29368,-116.660794739998,4,1,0,90,0,0
29457,-115.559376718946,4,1,0,90,0,0
29545,-114.47869265333,4,1,0,90,0,0
29633,-113.418033921066,4,1,0,90,0,0
29721,-112.37672273516,4,1,0,90,0,0
29810,-111.354482519017,4,1,0,90,0,0
29898,-110.350550594072,4,1,0,90,0,0
29986,-109.364678708447,4,1,0,90,0,0
30074,-108.396148901622,4,1,0,90,0,0
30163,-107.444738484879,4,1,0,90,0,0
30251,-106.509884117246,4,1,0,90,0,0
30339,-105.591045879309,4,1,0,90,0,0
30427,-104.688034890428,4,1,0,90,0,0
30515,-103.800230228911,4,1,0,90,0,0
30604,-102.927462899796,4,1,0,90,0,0
30692,-102.069145722078,4,1,0,90,0,0
30780,-101.225127720805,4,1,0,90,0,0
30868,-100.394852956679,4,1,0,90,0,0
30957,-99.5781868007122,4,1,0,90,0,0
31045,-98.7746998483808,4,1,0,90,0,0
31133,-97.9839796193322,4,1,0,90,0,0
31221,-97.2059132301136,4,1,0,90,0,0
31310,-96.4400133472979,4,1,0,90,0,0
31398,-95.6861799493437,4,1,0,90,0,0
31486,-94.9439498392124,4,1,0,90,0,0
31574,-94.2132346983575,4,1,0,100,0,0
31663,-93.4935938189515,4,1,0,100,0,0
31751,-92.7849495389052,4,1,0,100,0,0
31839,-92.0869669315702,4,1,0,100,0,0
31927,-91.399323645005,4,1,0,100,0,0
32015,-90.7219562556871,4,1,0,100,0,0
32104,-90.0544739512931,4,1,0,100,0,0
32192,-89.3968217641926,4,1,0,100,0,0
32280,-88.7486266150031,4,1,0,100,0,0
32368,-88.109841252499,4,1,0,100,0,0
32457,-87.4801857379304,4,1,0,100,0,0
32545,-86.859390281824,4,1,0,100,0,0
32633,-86.2474179679246,4,1,0,100,0,0
32721,-85.6439353388288,4,1,0,100,0,0
32810,-85.0489116290779,4,1,0,100,0,0
32898,-84.4620275616488,4,1,0,100,0,0
32986,-83.8832579921871,4,1,0,100,0,0
33074,-83.3122969783463,4,1,0,100,0,0
33163,-82.7491245142626,4,1,0,100,0,0
33251,-82.1935147672978,4,1,0,100,0,0
33339,-81.6452497569013,4,1,0,100,0,0
33427,-81.1043163717173,4,1,0,100,0,0
33515,-80.5704387060388,4,1,0,100,0,0
33604,-80.0436077575063,4,1,0,100,0,0
34221,-84.7457627118644,4,1,0,100,0,0
34310,-84.0336134453781,4,1,0,100,0,0
34398,-83.3333333333333,4,1,0,100,0,0
34405,-83.3333333333333,4,1,0,100,0,1
54163,-83.3333333333333,4,1,0,100,0,1
54170,-83.3333333333333,4,1,0,100,0,0
54515,-111.111111111111,4,1,0,100,0,0
54604,-109.89010989011,4,1,0,100,0,0
54692,-108.695652173913,4,1,0,100,0,0
54780,-107.52688172043,4,1,0,100,0,0
54868,-106.382978723404,4,1,0,100,0,0
54957,-105.263157894737,4,1,0,100,0,0
55045,-104.166666666667,4,1,0,100,0,0
55133,-103.092783505155,4,1,0,100,0,0
55221,-102.040816326531,4,1,0,100,0,0
55310,-101.010101010101,4,1,0,100,0,0
55398,-100,4,1,0,100,0,0
55486,-99.009900990099,4,1,0,100,0,0
55574,-98.0392156862745,4,1,0,100,0,0
55663,-97.0873786407767,4,1,0,100,0,0
55751,-96.1538461538461,4,1,0,100,0,0
55839,-95.2380952380952,4,1,0,100,0,0
55927,-94.3396226415094,4,1,0,100,0,0
56015,-93.4579439252336,4,1,0,100,0,0
56104,-92.5925925925926,4,1,0,100,0,0
56192,-91.743119266055,4,1,0,100,0,0
56280,-90.9090909090909,4,1,0,100,0,0
56457,-93.0232558139535,4,1,0,100,0,0
56633,-95.2380952380952,4,1,0,100,0,0
56810,-97.5609756097561,4,1,0,100,0,0
56986,-95.2380952380952,4,1,0,100,0,0
73927,-95.2380952380952,4,1,0,100,0,0
75515,-96.1538461538461,4,1,0,100,0,0
75692,-97.0873786407767,4,1,0,100,0,0
75780,-98.0392156862745,4,1,0,100,0,0
75868,-99.009900990099,4,1,0,90,0,0
76045,-100,4,1,0,90,0,0
76221,-101.010101010101,4,1,0,90,0,0
76398,-102.040816326531,4,1,0,90,0,0
76486,-103.092783505155,4,1,0,90,0,0
76574,-104.166666666667,4,1,0,90,0,0
76663,-105.263157894737,4,1,0,90,0,0
76751,-106.382978723404,4,1,0,90,0,0
77015,-108.695652173913,4,1,0,90,0,0
77280,-111.111111111111,4,1,0,90,0,0
77810,-100,4,1,0,70,0,0
78163,-133.333333333333,4,1,0,60,0,0
93692,-133.333333333333,4,1,0,70,0,0
102868,-112.359550561798,4,1,0,80,0,0
102957,-114.942528735632,4,1,0,80,0,0
103045,-117.647058823529,4,1,0,80,0,0
103133,-120.481927710843,4,1,0,80,0,0
103221,-123.456790123457,4,1,0,80,0,0
103310,-126.582278481013,4,1,0,80,0,0
103398,-129.87012987013,4,1,0,80,0,0
103574,-133.333333333333,4,1,0,80,0,0
110810,-131.578947368421,4,1,0,80,0,0
110986,-129.87012987013,4,1,0,80,0,0
111163,-128.205128205128,4,1,0,80,0,0
111515,-126.582278481013,4,1,0,80,0,0
111868,-125,4,1,0,80,0,0
112045,-123.456790123457,4,1,0,80,0,0
112398,-121.951219512195,4,1,0,80,0,0
112574,-119.047619047619,4,1,0,80,0,0
112927,-116.279069767442,4,1,0,80,0,0
113104,-114.942528735632,4,1,0,80,0,0
113280,-113.636363636364,4,1,0,80,0,0
113457,-111.111111111111,4,1,0,80,0,0
113633,-108.695652173913,4,1,0,80,0,0
113810,-106.382978723404,4,1,0,80,0,0
114163,-104.166666666667,4,1,0,80,0,0
114339,-102.040816326531,4,1,0,80,0,0
114515,-100,4,1,0,80,0,0
114692,-97.5609756097561,4,1,0,80,0,0
114868,-86.9565217391304,4,1,0,80,0,0
115221,-117.647058823529,4,1,0,80,0,0
115398,-116.876635542419,4,1,0,80,0,0
115574,-116.116236997884,4,1,0,80,0,0
115751,-115.365668792087,4,1,0,80,0,0
115839,-114.993945568766,4,1,0,80,0,0
115927,-114.624741521208,4,1,0,80,0,0
116104,-113.893140899482,4,1,0,80,0,0
116280,-113.170948112252,4,1,0,80,0,0
116633,-111.753694856536,4,1,0,80,0,0
116810,-111.058296721115,4,1,0,80,0,0
116986,-110.371499429931,4,1,0,80,0,0
117074,-110.031215855938,4,1,0,80,0,0
117163,-109.693144397861,4,1,0,80,0,0
117339,-109.023076914691,4,1,0,80,0,0
117515,-108.36114602748,4,1,0,80,0,0
117692,-107.707088418903,4,1,0,80,0,0
117780,-107.383126889272,4,1,0,80,0,0
117868,-107.060993718732,4,1,0,80,0,0
118045,-106.422604161124,4,1,0,80,0,0
118221,-105.791782729068,4,1,0,80,0,0
118398,-105.168395635091,4,1,0,80,0,0
118486,-104.859394038534,4,1,0,80,0,0
118574,-104.552312226661,4,1,0,80,0,0
118751,-103.943404894903,4,1,0,80,0,0
119104,-102.746622718511,4,1,0,80,0,0
119192,-102.45166842542,4,1,0,80,0,0
119280,-102.158402732942,4,1,0,80,0,0
119368,-101.866914950294,4,1,0,80,0,0
119457,-101.57698265573,4,1,0,80,0,0
119633,-101.00214326548,4,1,0,80,0,0
119810,-100.433773467607,4,1,0,80,0,0
119898,-100.152030782728,4,1,0,80,0,0
119986,-99.871764654184,4,1,0,80,0,0
120163,-99.3160106347584,4,1,0,80,0,0
120339,-98.7664075694575,4,1,0,80,0,0
120515,-98.2228539043093,4,1,0,80,0,0
120604,-97.9532664965545,4,1,0,80,0,0
120692,-97.6852503086854,4,1,0,80,0,0
120868,-97.1534052268532,4,1,0,80,0,0
121045,-96.6274133904337,4,1,0,80,0,0
121133,-96.3665939420104,4,1,0,80,0,0
121221,-96.1070863599057,4,1,0,80,0,0
121398,-95.5923331125151,4,1,0,80,0,0
121574,-95.0830645652042,4,1,0,80,0,0
121663,-94.8304147692681,4,1,0,80,0,0
121751,-94.5791935232168,4,1,0,80,0,0
121927,-94.080634630329,4,1,0,80,0,0
122015,-93.8332770333671,4,1,0,80,0,0
122104,-93.5873043206451,4,1,0,80,0,0
122280,-93.0990340975212,4,1,0,80,0,0
122457,-92.6159180830728,4,1,0,80,0,0
122545,-92.3762781412784,4,1,0,80,0,0
122633,-92.137790222522,4,1,0,80,0,0
122810,-91.6645736589014,4,1,0,80,0,0
122986,-91.196193106115,4,1,0,80,0,0
123074,-90.9637518545235,4,1,0,80,0,0
123163,-90.7325748090079,4,1,0,80,0,0
123339,-90.2736465046495,4,1,0,80,0,0
123427,-90.0458783750321,4,1,0,80,0,0
123515,-89.8193373847842,4,1,0,80,0,0
123692,-89.3695780594111,4,1,0,80,0,0
123868,-88.9242214462102,4,1,0,80,0,0
123957,-88.7032821988479,4,1,0,80,0,0
124045,-88.4833598193524,4,1,0,80,0,0
124133,-88.264603157931,4,1,0,80,0,0
124221,-88.0468479668662,4,1,0,80,0,0
124398,-87.6146218290078,4,1,0,80,0,0
124486,-87.4001344214067,4,1,0,80,0,0
124574,-87.1866185977776,4,1,0,80,0,0
124663,-86.9741434568917,4,1,0,80,0,0
125457,-100,4,1,0,80,0,0
126163,-83.3333333333333,4,1,0,100,0,0
126170,-83.3333333333333,4,1,0,100,0,1
145927,-83.3333333333333,4,1,0,90,0,1
145934,-83.3333333333333,4,1,0,90,0,0
146280,-84.0336134453781,4,1,0,90,0,0
146457,-84.7457627118644,4,1,0,90,0,0
146810,-85.4700854700855,4,1,0,90,0,0
146986,-86.2068965517241,4,1,0,90,0,0
147339,-86.9565217391304,4,1,0,90,0,0
147515,-87.719298245614,4,1,0,90,0,0
147868,-89.2857142857143,4,1,0,90,0,0
148045,-90.9090909090909,4,1,0,90,0,0
148221,-93.0232558139535,4,1,0,90,0,0
148398,-95.2380952380952,4,1,0,90,0,0
148574,-97.5609756097561,4,1,0,90,0,0
148751,-95.2380952380952,4,1,0,90,0,0
165692,-80,4,1,0,90,0,0
166221,-83.3333333333333,4,1,0,90,0,0
166574,-86.9565217391304,4,1,0,90,0,0
166927,-90.9090909090909,4,1,0,90,0,0
167810,-90.9090909090909,4,1,0,70,0,0
168515,-100,4,1,0,50,0,0

[HitObjects]
256,192,523,5,2,0:0:0:0:
256,192,699,1,0,0:0:0:0:
256,192,875,1,2,0:0:0:0:
256,192,1052,1,2,0:0:0:0:
256,192,6170,5,2,0:0:0:0:
256,192,6346,1,0,0:0:0:0:
256,192,6522,1,2,0:0:0:0:
256,192,6699,1,2,0:0:0:0:
256,192,8640,1,0,0:0:0:0:
256,192,8817,1,2,0:0:0:0:
256,192,10052,1,2,0:0:0:0:
256,192,10228,1,0,0:0:0:0:
256,192,10405,12,0,11640,0:0:0:0:
256,192,11817,5,2,0:0:0:0:
256,192,12170,1,2,0:0:0:0:
256,192,12522,1,0,0:0:0:0:
256,192,12875,1,2,0:0:0:0:
256,192,13581,1,0,0:0:0:0:
256,192,13934,1,2,0:0:0:0:
256,192,14287,1,2,0:0:0:0:
256,192,14993,1,0,0:0:0:0:
256,192,15346,1,0,0:0:0:0:
256,192,15699,1,2,0:0:0:0:
256,192,17464,1,2,0:0:0:0:
256,192,17817,1,2,0:0:0:0:
256,192,18170,1,0,0:0:0:0:
256,192,18522,1,2,0:0:0:0:
256,192,19228,1,0,0:0:0:0:
256,192,19581,1,0,0:0:0:0:
256,192,19934,1,2,0:0:0:0:
256,192,21522,1,2,0:0:0:0:
256,192,21611,1,2,0:0:0:0:
256,192,21699,1,2,0:0:0:0:
256,192,21875,1,2,0:0:0:0:
256,192,22052,1,0,0:0:0:0:
256,192,22405,1,0,0:0:0:0:
256,192,22581,1,0,0:0:0:0:
256,192,22758,1,2,0:0:0:0:
256,192,22934,1,2,0:0:0:0:
256,192,23111,1,2,0:0:0:0:
256,192,23464,1,2,0:0:0:0:
256,192,23640,1,0,0:0:0:0:
256,192,23817,1,2,0:0:0:0:
256,192,24170,1,2,0:0:0:0:
256,192,24522,1,0,0:0:0:0:
256,192,24875,1,0,0:0:0:0:
256,192,25228,1,0,0:0:0:0:
256,192,25581,1,2,0:0:0:0:
256,192,25758,1,0,0:0:0:0:
256,192,25934,1,2,0:0:0:0:
256,192,26287,1,0,0:0:0:0:
256,192,26640,1,0,0:0:0:0:
256,192,26817,1,0,0:0:0:0:
256,192,26993,1,2,0:0:0:0:
256,192,27346,1,0,0:0:0:0:
256,192,27699,1,2,0:0:0:0:
256,192,28052,1,2,0:0:0:0:
256,192,28405,1,2,0:0:0:0:
256,192,28581,1,0,0:0:0:0:
256,192,28758,1,2,0:0:0:0:
256,192,28934,1,0,0:0:0:0:
256,192,29022,1,0,0:0:0:0:
256,192,29111,1,2,0:0:0:0:
256,192,29287,1,0,0:0:0:0:
256,192,29464,1,2,0:0:0:0:
256,192,29552,1,0,0:0:0:0:
256,192,29640,1,0,0:0:0:0:
256,192,29728,1,0,0:0:0:0:
256,192,29817,1,2,0:0:0:0:
256,192,29993,1,0,0:0:0:0:
256,192,30170,1,2,0:0:0:0:
256,192,30346,1,2,0:0:0:0:
256,192,30434,1,0,0:0:0:0:
256,192,30522,1,2,0:0:0:0:
256,192,30699,1,0,0:0:0:0:
256,192,30875,1,2,0:0:0:0:
256,192,30964,1,2,0:0:0:0:
256,192,31052,1,0,0:0:0:0:
256,192,31140,1,0,0:0:0:0:
256,192,31228,1,2,0:0:0:0:
256,192,31405,1,0,0:0:0:0:
256,192,31581,1,2,0:0:0:0:
256,192,31670,1,2,0:0:0:0:
256,192,31758,1,2,0:0:0:0:
256,192,31846,1,2,0:0:0:0:
256,192,31934,1,0,0:0:0:0:
256,192,32111,1,0,0:0:0:0:
256,192,32287,1,2,0:0:0:0:
256,192,32375,1,0,0:0:0:0:
256,192,32464,1,0,0:0:0:0:
256,192,32640,1,2,0:0:0:0:
256,192,32817,1,0,0:0:0:0:
256,192,32905,1,0,0:0:0:0:
256,192,32993,1,2,0:0:0:0:
256,192,33081,1,2,0:0:0:0:
256,192,33170,1,0,0:0:0:0:
256,192,33346,1,2,0:0:0:0:
256,192,33434,1,2,0:0:0:0:
256,192,33522,1,2,0:0:0:0:
256,192,33611,1,2,0:0:0:0:
256,192,34228,1,0,0:0:0:0:
256,192,34317,1,0,0:0:0:0:
256,192,34405,1,6,0:0:0:0:
256,192,34581,1,0,0:0:0:0:
256,192,34758,1,2,0:0:0:0:
256,192,34934,1,0,0:0:0:0:
256,192,35111,1,0,0:0:0:0:
256,192,35199,1,0,0:0:0:0:
256,192,35287,1,0,0:0:0:0:
256,192,35464,1,2,0:0:0:0:
256,192,35552,1,2,0:0:0:0:
256,192,35640,1,0,0:0:0:0:
256,192,35817,1,0,0:0:0:0:
256,192,35993,1,0,0:0:0:0:
256,192,36170,1,2,0:0:0:0:
256,192,36258,1,2,0:0:0:0:
256,192,36346,1,0,0:0:0:0:
256,192,36434,1,0,0:0:0:0:
256,192,36522,1,2,0:0:0:0:
256,192,36699,1,0,0:0:0:0:
256,192,36875,1,2,0:0:0:0:
256,192,36964,1,0,0:0:0:0:
256,192,37052,1,2,0:0:0:0:
256,192,37228,1,0,0:0:0:0:
256,192,37405,1,0,0:0:0:0:
256,192,37581,1,2,0:0:0:0:
256,192,37670,1,0,0:0:0:0:
256,192,37758,1,2,0:0:0:0:
256,192,37846,1,2,0:0:0:0:
256,192,37934,1,0,0:0:0:0:
256,192,38111,1,0,0:0:0:0:
256,192,38287,1,2,0:0:0:0:
256,192,38375,1,2,0:0:0:0:
256,192,38464,1,2,0:0:0:0:
256,192,38640,1,0,0:0:0:0:
256,192,38817,1,0,0:0:0:0:
256,192,38993,1,2,0:0:0:0:
256,192,39170,1,0,0:0:0:0:
256,192,39258,1,2,0:0:0:0:
256,192,39346,1,0,0:0:0:0:
256,192,39522,1,0,0:0:0:0:
256,192,39699,1,2,0:0:0:0:
256,192,40052,1,0,0:0:0:0:
256,192,40140,1,0,0:0:0:0:
256,192,40228,1,2,0:0:0:0:
256,192,40405,1,2,0:0:0:0:
256,192,40581,1,0,0:0:0:0:
256,192,40758,1,2,0:0:0:0:
256,192,40846,1,0,0:0:0:0:
256,192,40934,1,0,0:0:0:0:
256,192,41111,1,2,0:0:0:0:
256,192,41199,1,2,0:0:0:0:
256,192,41287,1,0,0:0:0:0:
256,192,41375,1,0,0:0:0:0:
256,192,41464,1,2,0:0:0:0:
256,192,41640,1,0,0:0:0:0:
256,192,41817,1,2,0:0:0:0:
256,192,41905,1,0,0:0:0:0:
256,192,41993,1,2,0:0:0:0:
256,192,42170,1,0,0:0:0:0:
256,192,42346,1,0,0:0:0:0:
256,192,42522,1,2,0:0:0:0:
256,192,42611,1,2,0:0:0:0:
256,192,42699,1,2,0:0:0:0:
256,192,42875,1,0,0:0:0:0:
256,192,43052,1,0,0:0:0:0:
256,192,43228,1,2,0:0:0:0:
256,192,43405,1,0,0:0:0:0:
256,192,43493,1,0,0:0:0:0:
256,192,43581,1,2,0:0:0:0:
256,192,43758,1,0,0:0:0:0:
256,192,43934,1,2,0:0:0:0:
256,192,44111,1,0,0:0:0:0:
256,192,44287,1,2,0:0:0:0:
256,192,44375,1,2,0:0:0:0:
256,192,44464,1,0,0:0:0:0:
256,192,44552,1,0,0:0:0:0:
256,192,44640,1,2,0:0:0:0:
256,192,44817,1,2,0:0:0:0:
256,192,44905,1,2,0:0:0:0:
256,192,44993,1,0,0:0:0:0:
256,192,45170,1,0,0:0:0:0:
256,192,45346,1,2,0:0:0:0:
256,192,45699,1,6,0:0:0:0:
256,192,45875,1,0,0:0:0:0:
256,192,46052,1,2,0:0:0:0:
256,192,46140,1,0,0:0:0:0:
256,192,46228,1,0,0:0:0:0:
256,192,46405,1,2,0:0:0:0:
256,192,46581,1,0,0:0:0:0:
256,192,46670,1,0,0:0:0:0:
256,192,46758,1,2,0:0:0:0:
256,192,46846,1,2,0:0:0:0:
256,192,46934,1,0,0:0:0:0:
256,192,47111,1,0,0:0:0:0:
256,192,47287,1,0,0:0:0:0:
256,192,47464,1,2,0:0:0:0:
256,192,47552,1,2,0:0:0:0:
256,192,47640,1,0,0:0:0:0:
256,192,47817,1,2,0:0:0:0:
256,192,47905,1,2,0:0:0:0:
256,192,47993,1,2,0:0:0:0:
256,192,48081,1,2,0:0:0:0:
256,192,48170,1,0,0:0:0:0:
256,192,48346,1,0,0:0:0:0:
256,192,48522,1,2,0:0:0:0:
256,192,48699,1,0,0:0:0:0:
256,192,48875,1,2,0:0:0:0:
256,192,48964,1,0,0:0:0:0:
256,192,49052,1,0,0:0:0:0:
256,192,49228,1,2,0:0:0:0:
256,192,49405,1,0,0:0:0:0:
256,192,49581,1,2,0:0:0:0:
256,192,49670,1,2,0:0:0:0:
256,192,49758,1,2,0:0:0:0:
256,192,49934,1,0,0:0:0:0:
256,192,50111,1,0,0:0:0:0:
256,192,50287,1,2,0:0:0:0:
256,192,50464,1,0,0:0:0:0:
256,192,50552,1,2,0:0:0:0:
256,192,50640,1,2,0:0:0:0:
256,192,50817,1,0,0:0:0:0:
256,192,50993,1,2,0:0:0:0:
256,192,51346,1,4,0:0:0:0:
256,192,51522,1,2,0:0:0:0:
256,192,51611,1,2,0:0:0:0:
256,192,51699,1,0,0:0:0:0:
256,192,51875,1,0,0:0:0:0:
256,192,52052,1,2,0:0:0:0:
256,192,52140,1,0,0:0:0:0:
256,192,52228,1,0,0:0:0:0:
256,192,52405,1,2,0:0:0:0:
256,192,52581,1,2,0:0:0:0:
256,192,52758,1,4,0:0:0:0:
256,192,52934,1,0,0:0:0:0:
256,192,53111,1,2,0:0:0:0:
256,192,53199,1,2,0:0:0:0:
256,192,53287,1,0,0:0:0:0:
256,192,53464,1,2,0:0:0:0:
256,192,53640,1,0,0:0:0:0:
256,192,53817,1,2,0:0:0:0:
256,192,53905,1,2,0:0:0:0:
256,192,53993,1,2,0:0:0:0:
256,192,54170,1,4,0:0:0:0:
256,192,54522,1,2,0:0:0:0:
256,192,54611,1,2,0:0:0:0:
256,192,54699,1,0,0:0:0:0:
256,192,54875,1,2,0:0:0:0:
256,192,55052,1,0,0:0:0:0:
256,192,55228,1,0,0:0:0:0:
256,192,55317,1,0,0:0:0:0:
256,192,55405,1,2,0:0:0:0:
256,192,55581,1,0,0:0:0:0:
256,192,55758,1,0,0:0:0:0:
256,192,55934,1,2,0:0:0:0:
256,192,56022,1,2,0:0:0:0:
256,192,56111,1,0,0:0:0:0:
256,192,56199,1,0,0:0:0:0:
256,192,56287,1,2,0:0:0:0:
256,192,56464,1,2,0:0:0:0:
256,192,56640,1,0,0:0:0:0:
256,192,56817,1,0,0:0:0:0:
256,192,56993,1,6,0:0:0:0:
256,192,57170,1,0,0:0:0:0:
256,192,57258,1,2,0:0:0:0:
256,192,57346,1,0,0:0:0:0:
256,192,57522,1,2,0:0:0:0:
256,192,57699,1,0,0:0:0:0:
256,192,57875,1,0,0:0:0:0:
256,192,58052,1,2,0:0:0:0:
256,192,58405,1,2,0:0:0:0:
256,192,58581,1,0,0:0:0:0:
256,192,58670,1,2,0:0:0:0:
256,192,58758,1,2,0:0:0:0:
256,192,58934,1,2,0:0:0:0:
256,192,59111,1,0,0:0:0:0:
256,192,59287,1,0,0:0:0:0:
256,192,59464,1,2,0:0:0:0:
256,192,59817,1,2,0:0:0:0:
256,192,59993,1,2,0:0:0:0:
256,192,60081,1,0,0:0:0:0:
256,192,60170,1,2,0:0:0:0:
256,192,60346,1,0,0:0:0:0:
256,192,60522,1,2,0:0:0:0:
256,192,60699,1,0,0:0:0:0:
256,192,60875,1,2,0:0:0:0:
256,192,61052,1,0,0:0:0:0:
256,192,61140,1,0,0:0:0:0:
256,192,61228,1,2,0:0:0:0:
256,192,61405,1,0,0:0:0:0:
256,192,61581,1,2,0:0:0:0:
256,192,61934,1,0,0:0:0:0:
256,192,62111,1,2,0:0:0:0:
256,192,62199,1,0,0:0:0:0:
256,192,62287,1,2,0:0:0:0:
256,192,62464,1,0,0:0:0:0:
256,192,62640,1,2,0:0:0:0:
256,192,62817,1,0,0:0:0:0:
256,192,62905,1,0,0:0:0:0:
256,192,62993,1,0,0:0:0:0:
256,192,63170,1,2,0:0:0:0:
256,192,63346,1,0,0:0:0:0:
256,192,63522,1,0,0:0:0:0:
256,192,63699,1,2,0:0:0:0:
256,192,64052,1,2,0:0:0:0:
256,192,64228,1,0,0:0:0:0:
256,192,64317,1,2,0:0:0:0:
256,192,64405,1,0,0:0:0:0:
256,192,64581,1,2,0:0:0:0:
256,192,64758,1,0,0:0:0:0:
256,192,64934,1,0,0:0:0:0:
256,192,65111,1,2,0:0:0:0:
256,192,65464,1,2,0:0:0:0:
256,192,65640,1,2,0:0:0:0:
256,192,65728,1,0,0:0:0:0:
256,192,65817,1,0,0:0:0:0:
256,192,65993,1,2,0:0:0:0:
256,192,66170,1,0,0:0:0:0:
256,192,66346,1,0,0:0:0:0:
256,192,66522,1,2,0:0:0:0:
256,192,66611,1,2,0:0:0:0:
256,192,66699,1,0,0:0:0:0:
256,192,66875,1,6,0:0:0:0:
256,192,67228,1,2,0:0:0:0:
256,192,67405,1,0,0:0:0:0:
256,192,67758,1,0,0:0:0:0:
256,192,67846,1,2,0:0:0:0:
256,192,67934,1,0,0:0:0:0:
256,192,68111,1,2,0:0:0:0:
256,192,68287,1,6,0:0:0:0:
256,192,68464,1,0,0:0:0:0:
256,192,68552,1,0,0:0:0:0:
256,192,68640,1,2,0:0:0:0:
256,192,68817,1,0,0:0:0:0:
256,192,68993,1,2,0:0:0:0:
256,192,69170,1,0,0:0:0:0:
256,192,69346,1,2,0:0:0:0:
256,192,69699,1,2,0:0:0:0:
256,192,69875,1,0,0:0:0:0:
256,192,69964,1,2,0:0:0:0:
256,192,70052,1,2,0:0:0:0:
256,192,70228,1,2,0:0:0:0:
256,192,70405,1,0,0:0:0:0:
256,192,70581,1,0,0:0:0:0:
256,192,70758,1,2,0:0:0:0:
256,192,71111,1,6,0:0:0:0:
256,192,71287,1,0,0:0:0:0:
256,192,71375,1,0,0:0:0:0:
256,192,71464,1,2,0:0:0:0:
256,192,71640,1,0,0:0:0:0:
256,192,71817,1,2,0:0:0:0:
256,192,71993,1,4,0:0:0:0:
256,192,72346,1,6,0:0:0:0:
256,192,72699,1,0,0:0:0:0:
256,192,72875,1,2,0:0:0:0:
256,192,73228,1,0,0:0:0:0:
256,192,73405,1,2,0:0:0:0:
256,192,73493,1,0,0:0:0:0:
256,192,73581,1,2,0:0:0:0:
256,192,73758,1,0,0:0:0:0:
256,192,73934,1,0,0:0:0:0:
256,192,74287,1,6,0:0:0:0:
256,192,74464,1,0,0:0:0:0:
256,192,74552,1,0,0:0:0:0:
256,192,74640,1,2,0:0:0:0:
256,192,74817,1,0,0:0:0:0:
256,192,74993,1,2,0:0:0:0:
256,192,75081,1,2,0:0:0:0:
256,192,75170,1,2,0:0:0:0:
256,192,75346,1,0,0:0:0:0:
256,192,75522,1,0,0:0:0:0:
256,192,75699,1,2,0:0:0:0:
256,192,75787,1,0,0:0:0:0:
256,192,75875,1,0,0:0:0:0:
256,192,76052,1,2,0:0:0:0:
256,192,76228,1,0,0:0:0:0:
256,192,76405,1,2,0:0:0:0:
256,192,76493,1,2,0:0:0:0:
256,192,76581,1,2,0:0:0:0:
256,192,76758,1,0,0:0:0:0:
256,192,77022,1,0,0:0:0:0:
256,192,77287,1,2,0:0:0:0:
256,192,80993,1,2,0:0:0:0:
256,192,81170,1,2,0:0:0:0:
256,192,81346,1,0,0:0:0:0:
256,192,81522,1,2,0:0:0:0:
256,192,83817,1,2,0:0:0:0:
256,192,83993,1,0,0:0:0:0:
256,192,84170,1,0,0:0:0:0:
256,192,84346,1,2,0:0:0:0:
256,192,86640,1,2,0:0:0:0:
256,192,86817,1,2,0:0:0:0:
256,192,86993,1,0,0:0:0:0:
256,192,87170,1,2,0:0:0:0:
256,192,88052,1,2,0:0:0:0:
256,192,88758,1,0,0:0:0:0:
256,192,89464,1,2,0:0:0:0:
256,192,89640,1,0,0:0:0:0:
256,192,89817,1,0,0:0:0:0:
256,192,89993,1,2,0:0:0:0:
256,192,92287,1,2,0:0:0:0:
256,192,92464,1,2,0:0:0:0:
256,192,92640,1,0,0:0:0:0:
256,192,92817,1,2,0:0:0:0:
256,192,95111,1,2,0:0:0:0:
256,192,95287,1,0,0:0:0:0:
256,192,95464,1,0,0:0:0:0:
256,192,95640,1,2,0:0:0:0:
256,192,97934,1,2,0:0:0:0:
256,192,98111,1,2,0:0:0:0:
256,192,98287,1,0,0:0:0:0:
256,192,98464,1,2,0:0:0:0:
256,192,98640,1,0,0:0:0:0:
256,192,98993,1,2,0:0:0:0:
256,192,99699,1,0,0:0:0:0:
256,192,100052,1,0,0:0:0:0:
256,192,100405,1,2,0:0:0:0:
256,192,102875,1,2,0:0:0:0:
256,192,103052,1,0,0:0:0:0:
256,192,103140,1,0,0:0:0:0:
256,192,103228,1,2,0:0:0:0:
256,192,103405,1,0,0:0:0:0:
256,192,103581,1,2,0:0:0:0:
256,192,103934,1,0,0:0:0:0:
256,192,104287,1,2,0:0:0:0:
256,192,104640,1,2,0:0:0:0:
256,192,104993,1,0,0:0:0:0:
256,192,105346,1,2,0:0:0:0:
256,192,105699,1,2,0:0:0:0:
256,192,106052,1,2,0:0:0:0:
256,192,106228,1,2,0:0:0:0:
256,192,106405,1,0,0:0:0:0:
256,192,106758,1,2,0:0:0:0:
256,192,107111,1,2,0:0:0:0:
256,192,107464,1,2,0:0:0:0:
256,192,107817,1,0,0:0:0:0:
256,192,108170,1,0,0:0:0:0:
256,192,108522,1,2,0:0:0:0:
256,192,108875,1,2,0:0:0:0:
256,192,109052,1,0,0:0:0:0:
256,192,109228,1,2,0:0:0:0:
256,192,109581,1,2,0:0:0:0:
256,192,109758,1,2,0:0:0:0:
256,192,110111,1,0,0:0:0:0:
256,192,110464,1,2,0:0:0:0:
256,192,110817,1,2,0:0:0:0:
256,192,110993,1,0,0:0:0:0:
256,192,111170,1,2,0:0:0:0:
256,192,111522,1,0,0:0:0:0:
256,192,111875,1,2,0:0:0:0:
256,192,112052,1,2,0:0:0:0:
256,192,112405,1,2,0:0:0:0:
256,192,112581,1,0,0:0:0:0:
256,192,112934,1,2,0:0:0:0:
256,192,113111,1,0,0:0:0:0:
256,192,113287,1,2,0:0:0:0:
256,192,113464,1,0,0:0:0:0:
256,192,113640,1,0,0:0:0:0:
256,192,113817,1,2,0:0:0:0:
256,192,114170,1,0,0:0:0:0:
256,192,114346,1,0,0:0:0:0:
256,192,114522,1,2,0:0:0:0:
256,192,114699,1,2,0:0:0:0:
256,192,114875,1,4,0:0:0:0:
256,192,115228,1,2,0:0:0:0:
256,192,115405,1,0,0:0:0:0:
256,192,115581,1,2,0:0:0:0:
256,192,115758,1,0,0:0:0:0:
256,192,115846,1,0,0:0:0:0:
256,192,115934,1,2,0:0:0:0:
256,192,116111,1,0,0:0:0:0:
256,192,116287,1,2,0:0:0:0:
256,192,116640,1,2,0:0:0:0:
256,192,116817,1,0,0:0:0:0:
256,192,116993,1,2,0:0:0:0:
256,192,117081,1,2,0:0:0:0:
256,192,117170,1,0,0:0:0:0:
256,192,117346,1,2,0:0:0:0:
256,192,117522,1,2,0:0:0:0:
256,192,117699,1,0,0:0:0:0:
256,192,117787,1,0,0:0:0:0:
256,192,117875,1,0,0:0:0:0:
256,192,118052,1,2,0:0:0:0:
256,192,118228,1,0,0:0:0:0:
256,192,118405,1,2,0:0:0:0:
256,192,118493,1,0,0:0:0:0:
256,192,118581,1,2,0:0:0:0:
256,192,118758,1,0,0:0:0:0:
256,192,119111,1,0,0:0:0:0:
256,192,119199,1,0,0:0:0:0:
256,192,119287,1,0,0:0:0:0:
256,192,119375,1,0,0:0:0:0:
256,192,119464,1,2,0:0:0:0:
256,192,119640,1,0,0:0:0:0:
256,192,119817,1,2,0:0:0:0:
256,192,119905,1,0,0:0:0:0:
256,192,119993,1,0,0:0:0:0:
256,192,120170,1,2,0:0:0:0:
256,192,120346,1,0,0:0:0:0:
256,192,120522,1,2,0:0:0:0:
256,192,120611,1,2,0:0:0:0:
256,192,120699,1,0,0:0:0:0:
256,192,120875,1,0,0:0:0:0:
256,192,121052,1,2,0:0:0:0:
256,192,121140,1,2,0:0:0:0:
256,192,121228,1,2,0:0:0:0:
256,192,121405,1,0,0:0:0:0:
256,192,121581,1,2,0:0:0:0:
256,192,121670,1,2,0:0:0:0:
256,192,121758,1,0,0:0:0:0:
256,192,121934,1,2,0:0:0:0:
256,192,122022,1,2,0:0:0:0:
256,192,122111,1,2,0:0:0:0:
256,192,122287,1,0,0:0:0:0:
256,192,122464,1,2,0:0:0:0:
256,192,122552,1,2,0:0:0:0:
256,192,122640,1,0,0:0:0:0:
256,192,122817,1,2,0:0:0:0:
256,192,122993,1,2,0:0:0:0:
256,192,123081,1,2,0:0:0:0:
256,192,123170,1,0,0:0:0:0:
256,192,123346,1,2,0:0:0:0:
256,192,123434,1,2,0:0:0:0:
256,192,123522,1,2,0:0:0:0:
256,192,123699,1,2,0:0:0:0:
256,192,123875,1,0,0:0:0:0:
256,192,123964,1,0,0:0:0:0:
256,192,124052,1,2,0:0:0:0:
256,192,124140,1,0,0:0:0:0:
256,192,124228,1,0,0:0:0:0:
256,192,124405,1,2,0:0:0:0:
256,192,124493,1,2,0:0:0:0:
256,192,124581,1,2,0:0:0:0:
256,192,124670,1,2,0:0:0:0:
256,192,125464,1,0,0:0:0:0:
256,192,125817,1,0,0:0:0:0:
256,192,125993,1,2,0:0:0:0:
256,192,126170,1,6,0:0:0:0:
256,192,126346,1,0,0:0:0:0:
256,192,126522,1,2,0:0:0:0:
256,192,126699,1,0,0:0:0:0:
256,192,126875,1,2,0:0:0:0:
256,192,126964,1,0,0:0:0:0:
256,192,127052,1,0,0:0:0:0:
256,192,127228,1,2,0:0:0:0:
256,192,127317,1,2,0:0:0:0:
256,192,127405,1,0,0:0:0:0:
256,192,127581,1,0,0:0:0:0:
256,192,127758,1,0,0:0:0:0:
256,192,127934,1,2,0:0:0:0:
256,192,128022,1,0,0:0:0:0:
256,192,128111,1,0,0:0:0:0:
256,192,128199,1,0,0:0:0:0:
256,192,128287,1,2,0:0:0:0:
256,192,128464,1,0,0:0:0:0:
256,192,128640,1,2,0:0:0:0:
256,192,128728,1,2,0:0:0:0:
256,192,128817,1,2,0:0:0:0:
256,192,128993,1,0,0:0:0:0:
256,192,129170,1,0,0:0:0:0:
256,192,129346,1,2,0:0:0:0:
256,192,129434,1,0,0:0:0:0:
256,192,129522,1,2,0:0:0:0:
256,192,129611,1,2,0:0:0:0:
256,192,129699,1,0,0:0:0:0:
256,192,129875,1,0,0:0:0:0:
256,192,130052,1,0,0:0:0:0:
256,192,130140,1,0,0:0:0:0:
256,192,130228,1,2,0:0:0:0:
256,192,130405,1,0,0:0:0:0:
256,192,130581,1,0,0:0:0:0:
256,192,130758,1,2,0:0:0:0:
256,192,130934,1,2,0:0:0:0:
256,192,131022,1,0,0:0:0:0:
256,192,131111,1,0,0:0:0:0:
256,192,131287,1,0,0:0:0:0:
256,192,131464,1,2,0:0:0:0:
256,192,131817,1,0,0:0:0:0:
256,192,131905,1,2,0:0:0:0:
256,192,131993,1,2,0:0:0:0:
256,192,132170,1,2,0:0:0:0:
256,192,132346,1,0,0:0:0:0:
256,192,132522,1,2,0:0:0:0:
256,192,132611,1,0,0:0:0:0:
256,192,132699,1,0,0:0:0:0:
256,192,132875,1,2,0:0:0:0:
256,192,132964,1,0,0:0:0:0:
256,192,133052,1,2,0:0:0:0:
256,192,133140,1,2,0:0:0:0:
256,192,133228,1,0,0:0:0:0:
256,192,133405,1,0,0:0:0:0:
256,192,133581,1,2,0:0:0:0:
256,192,133670,1,0,0:0:0:0:
256,192,133758,1,0,0:0:0:0:
256,192,133934,1,2,0:0:0:0:
256,192,134111,1,0,0:0:0:0:
256,192,134287,1,2,0:0:0:0:
256,192,134375,1,2,0:0:0:0:
256,192,134464,1,2,0:0:0:0:
256,192,134640,1,0,0:0:0:0:
256,192,134817,1,0,0:0:0:0:
256,192,134993,1,2,0:0:0:0:
256,192,135170,1,0,0:0:0:0:
256,192,135258,1,0,0:0:0:0:
256,192,135346,1,2,0:0:0:0:
256,192,135522,1,0,0:0:0:0:
256,192,135699,1,2,0:0:0:0:
256,192,135875,1,0,0:0:0:0:
256,192,136052,1,2,0:0:0:0:
256,192,136140,1,0,0:0:0:0:
256,192,136228,1,2,0:0:0:0:
256,192,136317,1,0,0:0:0:0:
256,192,136405,1,2,0:0:0:0:
256,192,136581,1,0,0:0:0:0:
256,192,136670,1,0,0:0:0:0:
256,192,136758,1,2,0:0:0:0:
256,192,136934,1,0,0:0:0:0:
256,192,137111,1,2,0:0:0:0:
256,192,137464,1,6,0:0:0:0:
256,192,137640,1,0,0:0:0:0:
256,192,137817,1,2,0:0:0:0:
256,192,137905,1,2,0:0:0:0:
256,192,137993,1,0,0:0:0:0:
256,192,138170,1,2,0:0:0:0:
256,192,138346,1,0,0:0:0:0:
256,192,138434,1,0,0:0:0:0:
256,192,138522,1,2,0:0:0:0:
256,192,138611,1,2,0:0:0:0:
256,192,138699,1,2,0:0:0:0:
256,192,138875,1,0,0:0:0:0:
256,192,139052,1,0,0:0:0:0:
256,192,139228,1,2,0:0:0:0:
256,192,139317,1,0,0:0:0:0:
256,192,139405,1,0,0:0:0:0:
256,192,139581,1,2,0:0:0:0:
256,192,139670,1,2,0:0:0:0:
256,192,139758,1,0,0:0:0:0:
256,192,139846,1,0,0:0:0:0:
256,192,139934,1,2,0:0:0:0:
256,192,140111,1,0,0:0:0:0:
256,192,140287,1,2,0:0:0:0:
256,192,140464,1,0,0:0:0:0:
256,192,140640,1,2,0:0:0:0:
256,192,140728,1,2,0:0:0:0:
256,192,140817,1,0,0:0:0:0:
256,192,140993,1,2,0:0:0:0:
256,192,141170,1,0,0:0:0:0:
256,192,141346,1,2,0:0:0:0:
256,192,141434,1,2,0:0:0:0:
256,192,141522,1,2,0:0:0:0:
256,192,141699,1,0,0:0:0:0:
256,192,141875,1,0,0:0:0:0:
256,192,142052,1,2,0:0:0:0:
256,192,142228,1,0,0:0:0:0:
256,192,142317,1,2,0:0:0:0:
256,192,142405,1,0,0:0:0:0:
256,192,142581,1,0,0:0:0:0:
256,192,142758,1,2,0:0:0:0:
256,192,143111,1,4,0:0:0:0:
256,192,143287,1,2,0:0:0:0:
256,192,143375,1,2,0:0:0:0:
256,192,143464,1,2,0:0:0:0:
256,192,143640,1,0,0:0:0:0:
256,192,143817,1,2,0:0:0:0:
256,192,143905,1,0,0:0:0:0:
256,192,143993,1,0,0:0:0:0:
256,192,144170,1,2,0:0:0:0:
256,192,144346,1,2,0:0:0:0:
256,192,144522,1,4,0:0:0:0:
256,192,144699,1,0,0:0:0:0:
256,192,144875,1,2,0:0:0:0:
256,192,144964,1,2,0:0:0:0:
256,192,145052,1,0,0:0:0:0:
256,192,145228,5,2,0:0:0:0:
256,192,145405,1,0,0:0:0:0:
256,192,145581,1,2,0:0:0:0:
256,192,145670,1,2,0:0:0:0:
256,192,145758,1,2,0:0:0:0:
256,192,145934,1,4,0:0:0:0:
256,192,146287,5,2,0:0:0:0:
256,192,146464,1,4,0:0:0:0:
256,192,146817,1,2,0:0:0:0:
256,192,146993,1,4,0:0:0:0:
256,192,147346,1,2,0:0:0:0:
256,192,147522,1,4,0:0:0:0:
256,192,147875,1,0,0:0:0:0:
256,192,148052,1,2,0:0:0:0:
256,192,148228,1,2,0:0:0:0:
256,192,148405,1,0,0:0:0:0:
256,192,148581,1,0,0:0:0:0:
256,192,148758,1,6,0:0:0:0:
256,192,148934,1,0,0:0:0:0:
256,192,149022,1,2,0:0:0:0:
256,192,149111,1,0,0:0:0:0:
256,192,149287,1,2,0:0:0:0:
256,192,149464,1,0,0:0:0:0:
256,192,149640,1,0,0:0:0:0:
256,192,149817,1,2,0:0:0:0:
256,192,150170,1,2,0:0:0:0:
256,192,150346,1,0,0:0:0:0:
256,192,150434,1,2,0:0:0:0:
256,192,150522,1,2,0:0:0:0:
256,192,150699,1,2,0:0:0:0:
256,192,150875,1,0,0:0:0:0:
256,192,151052,1,0,0:0:0:0:
256,192,151228,1,2,0:0:0:0:
256,192,151581,1,2,0:0:0:0:
256,192,151758,1,2,0:0:0:0:
256,192,151846,1,0,0:0:0:0:
256,192,151934,1,0,0:0:0:0:
256,192,152111,1,2,0:0:0:0:
256,192,152287,1,2,0:0:0:0:
256,192,152464,1,0,0:0:0:0:
256,192,152640,1,2,0:0:0:0:
256,192,152817,1,0,0:0:0:0:
256,192,152905,1,0,0:0:0:0:
256,192,152993,1,2,0:0:0:0:
256,192,153170,1,0,0:0:0:0:
256,192,153346,1,2,0:0:0:0:
256,192,153699,1,0,0:0:0:0:
256,192,153875,1,2,0:0:0:0:
256,192,153964,1,2,0:0:0:0:
256,192,154052,1,0,0:0:0:0:
256,192,154228,1,0,0:0:0:0:
256,192,154405,1,2,0:0:0:0:
256,192,154581,1,0,0:0:0:0:
256,192,154670,1,2,0:0:0:0:
256,192,154758,1,0,0:0:0:0:
256,192,154934,1,2,0:0:0:0:
256,192,155111,1,0,0:0:0:0:
256,192,155287,1,0,0:0:0:0:
256,192,155464,1,2,0:0:0:0:
256,192,155817,1,2,0:0:0:0:
256,192,155993,1,0,0:0:0:0:
256,192,156081,1,0,0:0:0:0:
256,192,156170,1,2,0:0:0:0:
256,192,156346,1,2,0:0:0:0:
256,192,156522,1,0,0:0:0:0:
256,192,156699,1,0,0:0:0:0:
256,192,156875,1,2,0:0:0:0:
256,192,157228,1,2,0:0:0:0:
256,192,157405,1,2,0:0:0:0:
256,192,157493,1,0,0:0:0:0:
256,192,157581,1,2,0:0:0:0:
256,192,157758,1,2,0:0:0:0:
256,192,157934,1,0,0:0:0:0:
256,192,158111,1,0,0:0:0:0:
256,192,158287,1,2,0:0:0:0:
256,192,158375,1,2,0:0:0:0:
256,192,158464,1,0,0:0:0:0:
256,192,158640,1,6,0:0:0:0:
256,192,158993,1,2,0:0:0:0:
256,192,159170,1,0,0:0:0:0:
256,192,159522,1,0,0:0:0:0:
256,192,159611,1,0,0:0:0:0:
256,192,159699,1,2,0:0:0:0:
256,192,159875,1,0,0:0:0:0:
256,192,160052,1,6,0:0:0:0:
256,192,160228,1,0,0:0:0:0:
256,192,160317,1,2,0:0:0:0:
256,192,160405,1,0,0:0:0:0:
256,192,160581,1,2,0:0:0:0:
256,192,160758,1,2,0:0:0:0:
256,192,160934,1,0,0:0:0:0:
256,192,161111,1,2,0:0:0:0:
256,192,161464,1,2,0:0:0:0:
256,192,161640,1,0,0:0:0:0:
256,192,161728,1,0,0:0:0:0:
256,192,161817,1,0,0:0:0:0:
256,192,161993,1,2,0:0:0:0:
256,192,162170,1,0,0:0:0:0:
256,192,162346,1,0,0:0:0:0:
256,192,162522,1,2,0:0:0:0:
256,192,162875,1,2,0:0:0:0:
256,192,163052,1,0,0:0:0:0:
256,192,163140,1,0,0:0:0:0:
256,192,163228,1,2,0:0:0:0:
256,192,163405,1,2,0:0:0:0:
256,192,163581,1,0,0:0:0:0:
256,192,163758,1,0,0:0:0:0:
256,192,163934,1,2,0:0:0:0:
256,192,164022,1,0,0:0:0:0:
256,192,164111,1,0,0:0:0:0:
256,192,164287,1,6,0:0:0:0:
256,192,164640,1,2,0:0:0:0:
256,192,164817,1,0,0:0:0:0:
256,192,165170,1,0,0:0:0:0:
256,192,165346,1,2,0:0:0:0:
256,192,165699,1,6,0:0:0:0:
256,192,166228,5,6,0:0:0:0:
256,192,166581,1,4,0:0:0:0:
256,192,166934,1,6,0:0:0:0:
256,192,167111,12,0,169758,0:0:0:0:
