osu file format v14

[General]
AudioFilename: audio.mp3
AudioLeadIn: 0
PreviewTime: 33699
Countdown: 0
SampleSet: Normal
StackLeniency: 0.7
Mode: 1
LetterboxInBreaks: 0
EpilepsyWarning: 1
WidescreenStoryboard: 0

[Editor]
Bookmarks: 103229,124406,169582
DistanceSpacing: 1
BeatDivisor: 16
GridSize: 32
TimelineZoom: 2.6

[Metadata]
Title:Rainbow Road
TitleUnicode:Rainbow Road
Artist:nanobii
ArtistUnicode:nanobii
Creator:HEAVENLY MOON
Version:inner oni
Source:
Tags:monstercat release electronic happy hardcore happycore english techno instrumental featured artist fa mappers' guild mpg mg monstercat 016 - expedition monstercat - best of 2014 monstercat 3 year anniversary ginjani dako gigachad cynplytholowazy
BeatmapID:3717880
BeatmapSetID:1812415

[Difficulty]
HPDrainRate:5
CircleSize:5
OverallDifficulty:6.5
ApproachRate:5
SliderMultiplier:1.4
SliderTickRate:1

[Events]
//Background and Video events
0,0,"raainbowroad.jpg",0,0
//Break Periods
2,1252,4970
//Storyboard Layer 0 (Background)
//Storyboard Layer 1 (Fail)
//Storyboard Layer 2 (Pass)
//Storyboard Layer 3 (Foreground)
//Storyboard Layer 4 (Overlay)
//Storyboard Sound Samples

[TimingPoints]
523,352.941176470588,4,1,0,60,1,0
523,-133.333333333333,4,1,0,60,0,0
11809,-117.647058823529,4,1,0,70,0,0
22397,-116.279069767442,4,1,0,70,0,0
22573,-114.942528735632,4,1,0,70,0,0
22750,-113.636363636364,4,1,0,70,0,0
22926,-112.359550561798,4,1,0,70,0,0
23103,-111.111111111111,4,1,0,70,0,0
27691,-113.636363636364,4,1,0,70,0,0
28044,-116.279069767442,4,1,0,70,0,0
28397,-119.047619047619,4,1,0,70,0,0
28573,-121.951219512195,4,1,0,70,0,0
28750,-125,4,1,0,90,0,0
28838,-123.7364957082,4,1,0,90,0,0
28926,-122.498128841082,4,1,0,90,0,0
29014,-121.284450848263,4,1,0,90,0,0
29103,-120.094442269401,4,1,0,90,0,0
29191,-118.927700283167,4,1,0,90,0,0
29279,-117.783271713052,4,1,0,90,0,0
29367,-116.660794739998,4,1,0,90,0,0
29456,-115.559376718946,4,1,0,90,0,0
29544,-114.47869265333,4,1,0,90,0,0
29632,-113.418033921066,4,1,0,90,0,0
29720,-112.37672273516,4,1,0,90,0,0
29809,-111.354482519017,4,1,0,90,0,0
29897,-110.350550594072,4,1,0,90,0,0
29985,-109.364678708447,4,1,0,90,0,0
30073,-108.396148901622,4,1,0,90,0,0
30162,-107.444738484879,4,1,0,90,0,0
30250,-106.509884117246,4,1,0,90,0,0
30338,-105.591045879309,4,1,0,90,0,0
30426,-104.688034890428,4,1,0,90,0,0
30514,-103.800230228911,4,1,0,90,0,0
30603,-102.927462899796,4,1,0,90,0,0
30691,-102.069145722078,4,1,0,90,0,0
30779,-101.225127720805,4,1,0,90,0,0
30867,-100.394852956679,4,1,0,90,0,0
30956,-99.5781868007122,4,1,0,90,0,0
31044,-98.7746998483808,4,1,0,90,0,0
31132,-97.9839796193322,4,1,0,90,0,0
31220,-97.2059132301136,4,1,0,90,0,0
31309,-96.4400133472979,4,1,0,90,0,0
31397,-95.6861799493437,4,1,0,90,0,0
31485,-94.9439498392124,4,1,0,90,0,0
31573,-94.2132346983575,4,1,0,100,0,0
31662,-93.4935938189515,4,1,0,100,0,0
31750,-92.7849495389052,4,1,0,100,0,0
31838,-92.0869669315702,4,1,0,100,0,0
31926,-91.399323645005,4,1,0,100,0,0
32014,-90.7219562556871,4,1,0,100,0,0
32103,-90.0544739512931,4,1,0,100,0,0
32191,-89.3968217641926,4,1,0,100,0,0
32279,-88.7486266150031,4,1,0,100,0,0
32367,-88.109841252499,4,1,0,100,0,0
32456,-87.4801857379304,4,1,0,100,0,0
32544,-86.859390281824,4,1,0,100,0,0
32632,-86.2474179679246,4,1,0,100,0,0
32720,-85.6439353388288,4,1,0,100,0,0
32809,-85.0489116290779,4,1,0,100,0,0
32897,-84.4620275616488,4,1,0,100,0,0
32985,-83.8832579921871,4,1,0,100,0,0
33073,-83.3122969783463,4,1,0,100,0,0
33162,-82.7491245142626,4,1,0,100,0,0
33250,-82.1935147672978,4,1,0,100,0,0
33338,-81.6452497569013,4,1,0,100,0,0
33426,-81.1043163717173,4,1,0,100,0,0
33514,-80.5704387060388,4,1,0,100,0,0
33603,-80.0436077575063,4,1,0,100,0,0
34220,-78.125,4,1,0,80,0,0
34309,-77.5193798449612,4,1,0,80,0,0
34383,-77.5193798449612,4,1,0,100,0,0
34405,-76.9230769230769,4,1,0,100,0,1
54170,-76.9230769230769,4,1,0,100,0,0
54514,-100,4,1,0,100,0,0
54603,-99.009900990099,4,1,0,100,0,0
54691,-98.0392156862745,4,1,0,100,0,0
54779,-97.0873786407767,4,1,0,100,0,0
54867,-96.1538461538461,4,1,0,100,0,0
54956,-95.2380952380952,4,1,0,100,0,0
55044,-94.3396226415094,4,1,0,100,0,0
55132,-93.4579439252336,4,1,0,100,0,0
55220,-92.5925925925926,4,1,0,100,0,0
55309,-91.743119266055,4,1,0,100,0,0
55397,-90.9090909090909,4,1,0,100,0,0
55485,-90.0900900900901,4,1,0,100,0,0
55573,-89.2857142857143,4,1,0,100,0,0
55662,-88.4955752212389,4,1,0,100,0,0
55750,-87.719298245614,4,1,0,100,0,0
55838,-86.9565217391304,4,1,0,100,0,0
55926,-86.2068965517241,4,1,0,100,0,0
56014,-85.4700854700855,4,1,0,100,0,0
56103,-84.7457627118644,4,1,0,100,0,0
56191,-84.0336134453781,4,1,0,100,0,0
56279,-83.3333333333333,4,1,0,100,0,0
56456,-85.1063829787234,4,1,0,100,0,0
56632,-86.9565217391304,4,1,0,100,0,0
56809,-88.8888888888889,4,1,0,100,0,0
56985,-86.9565217391304,4,1,0,100,0,0
73926,-86.9565217391304,4,1,0,100,0,0
75514,-87.719298245614,4,1,0,100,0,0
75691,-88.4955752212389,4,1,0,100,0,0
75779,-89.2857142857143,4,1,0,100,0,0
75867,-90.0900900900901,4,1,0,90,0,0
76044,-90.9090909090909,4,1,0,90,0,0
76220,-91.743119266055,4,1,0,90,0,0
76397,-92.5925925925926,4,1,0,90,0,0
76485,-93.4579439252336,4,1,0,90,0,0
76573,-94.3396226415094,4,1,0,90,0,0
76662,-95.2380952380952,4,1,0,90,0,0
76750,-96.1538461538461,4,1,0,90,0,0
77014,-98.0392156862745,4,1,0,90,0,0
77279,-100,4,1,0,90,0,0
77809,-100,4,1,0,70,0,0
78162,-133.333333333333,4,1,0,60,0,0
93691,-133.333333333333,4,1,0,70,0,0
102867,-112.359550561798,4,1,0,80,0,0
102956,-114.942528735632,4,1,0,80,0,0
103044,-117.647058823529,4,1,0,80,0,0
103132,-120.481927710843,4,1,0,80,0,0
103220,-123.456790123457,4,1,0,80,0,0
103309,-126.582278481013,4,1,0,80,0,0
103397,-129.87012987013,4,1,0,80,0,0
103573,-133.333333333333,4,1,0,80,0,0
110809,-131.578947368421,4,1,0,80,0,0
110985,-129.87012987013,4,1,0,80,0,0
111162,-128.205128205128,4,1,0,80,0,0
111514,-126.582278481013,4,1,0,80,0,0
111867,-125,4,1,0,80,0,0
112044,-123.456790123457,4,1,0,80,0,0
112397,-121.951219512195,4,1,0,80,0,0
112573,-119.047619047619,4,1,0,80,0,0
112926,-116.279069767442,4,1,0,80,0,0
113103,-114.942528735632,4,1,0,80,0,0
113279,-113.636363636364,4,1,0,80,0,0
113456,-111.111111111111,4,1,0,80,0,0
113632,-108.695652173913,4,1,0,80,0,0
113809,-106.382978723404,4,1,0,80,0,0
114162,-104.166666666667,4,1,0,80,0,0
114338,-102.040816326531,4,1,0,80,0,0
114514,-100,4,1,0,80,0,0
114691,-97.5609756097561,4,1,0,80,0,0
114867,-86.9565217391304,4,1,0,80,0,0
115220,-142.857142857143,4,1,0,80,0,0
115309,-141.816614099975,4,1,0,80,0,0
115397,-140.791133537574,4,1,0,80,0,0
115485,-139.78018168628,4,1,0,80,0,0
115573,-138.783837234316,4,1,0,80,0,0
115662,-137.801596018085,4,1,0,80,0,0
115750,-136.833160695496,4,1,0,80,0,0
115838,-135.878242224707,4,1,0,80,0,0
115926,-134.936559576515,4,1,0,80,0,0
116014,-134.007659877839,4,1,0,80,0,0
116103,-133.09163891706,4,1,0,80,0,0
116191,-132.188056016011,4,1,0,80,0,0
116279,-131.296659550388,4,1,0,80,0,0
116367,-130.417204637636,4,1,0,80,0,0
116456,-129.54928508227,4,1,0,80,0,0
116544,-128.693006693323,4,1,0,80,0,0
116632,-127.847973417849,4,1,0,80,0,0
116720,-127.013965185472,4,1,0,80,0,0
116809,-126.190767631059,4,1,0,80,0,0
116897,-125.378014714364,4,1,0,80,0,0
116985,-124.575819335164,4,1,0,80,0,0
117073,-123.783823929889,4,1,0,80,0,0
117162,-123.001835187381,4,1,0,80,0,0
117250,-122.229664650692,4,1,0,80,0,0
117338,-121.467128565668,4,1,0,80,0,0
117426,-120.713902016526,4,1,0,80,0,0
117514,-119.97010345022,4,1,0,80,0,0
117603,-119.23541482597,4,1,0,80,0,0
117691,-118.509669796507,4,1,0,80,0,0
117779,-117.792706040057,4,1,0,80,0,0
117867,-117.084228051976,4,1,0,80,0,0
117956,-116.384357011343,4,1,0,80,0,0
118044,-115.692803213483,4,1,0,80,0,0
118132,-115.009419271438,4,1,0,80,0,0
118220,-114.33406126019,4,1,0,80,0,0
118309,-113.666459414822,4,1,0,80,0,0
118397,-113.006736331553,4,1,0,80,0,0
118485,-112.354627156788,4,1,0,80,0,0
118573,-111.710000837825,4,1,0,80,0,0
118662,-111.072729312426,4,1,0,80,0,0
118750,-110.442687424002,4,1,0,80,0,0
118838,-109.819632236016,4,1,0,80,0,0
118926,-109.203686716464,4,1,0,80,0,0
119014,-108.594611969733,4,1,0,80,0,0
119103,-107.992293669924,4,1,0,80,0,0
119191,-107.396620013575,4,1,0,80,0,0
119279,-106.807367572215,4,1,0,80,0,0
119367,-106.22465877984,4,1,0,80,0,0
119456,-105.648273654384,4,1,0,80,0,0
119544,-105.078109812929,4,1,0,80,0,0
119632,-104.514067070857,4,1,0,80,0,0
119720,-103.955939314681,4,1,0,80,0,0
119809,-103.403847863987,4,1,0,80,0,0
119897,-102.85758955296,4,1,0,80,0,0
119985,-102.31707242207,4,1,0,80,0,0
120073,-101.782206434671,4,1,0,80,0,0
120162,-101.252903427006,4,1,0,80,0,0
120250,-100.728975596391,4,1,0,80,0,0
120338,-100.210542349476,4,1,0,80,0,0
120426,-99.6974183353522,4,1,0,80,0,0
120514,-99.1895224123685,4,1,0,80,0,0
120573,-98.8537903014546,4,1,0,80,0,0
120632,-98.5203232648847,4,1,0,80,0,0
120691,-98.1890020462588,4,1,0,80,0,0
120779,-97.6963207565603,4,1,0,80,0,0
120867,-97.2085590192045,4,1,0,80,0,0
120956,-96.7256435157063,4,1,0,80,0,0
121044,-96.2475023773133,4,1,0,80,0,0
121103,-95.9313591938696,4,1,0,80,0,0
121162,-95.6171946488793,4,1,0,80,0,0
121220,-95.3051719257649,4,1,0,80,0,0
121309,-94.8409375216356,4,1,0,80,0,0
121397,-94.3812037945019,4,1,0,80,0,0
121485,-93.9259056101004,4,1,0,80,0,0
121573,-93.4749790849734,4,1,0,80,0,0
121632,-93.1766722883259,4,1,0,80,0,0
121691,-92.8803496759405,4,1,0,80,0,0
121750,-92.5859058327269,4,1,0,80,0,0
121838,-92.147723859073,4,1,0,80,0,0
121926,-91.713669922502,4,1,0,80,0,0
121985,-91.4265652685107,4,1,0,80,0,0
122044,-91.1412525360054,4,1,0,80,0,0
122103,-90.8576324499851,4,1,0,80,0,0
122191,-90.4356193347737,4,1,0,80,0,0
122279,-90.0175084053848,4,1,0,80,0,0
122367,-89.6032457879754,4,1,0,80,0,0
122456,-89.1927785958738,4,1,0,80,0,0
122514,-88.9212166912237,4,1,0,80,0,0
122573,-88.6512248053219,4,1,0,80,0,0
122632,-88.3829456268118,4,1,0,80,0,0
122720,-87.9835576327496,4,1,0,80,0,0
122809,-87.5877629384643,4,1,0,80,0,0
122897,-87.1955132676693,4,1,0,80,0,0
122985,-86.8067612050167,4,1,0,80,0,0
123044,-86.5494383374199,4,1,0,80,0,0
123103,-86.293711000636,4,1,0,80,0,0
123162,-86.0394904053062,4,1,0,80,0,0
123250,-85.6609556507534,4,1,0,80,0,0
123338,-85.2857370691898,4,1,0,80,0,0
123397,-85.0374122095016,4,1,0,80,0,0
123456,-84.7905292370463,4,1,0,80,0,0
123514,-84.5450041511597,4,1,0,80,0,0
123603,-84.1794773801326,4,1,0,80,0,0
123691,-83.817097682122,4,1,0,80,0,0
123779,-83.4578245883443,4,1,0,80,0,0
123867,-83.1016183209152,4,1,0,80,0,0
123956,-82.748439778168,4,1,0,80,0,0
124044,-82.398182625684,4,1,0,80,0,0
124132,-82.0509454320187,4,1,0,80,0,0
124220,-81.7066225668789,4,1,0,80,0,0
124309,-81.3651774940664,4,1,0,80,0,0
124397,-81.0265742855684,4,1,0,80,0,0
124485,-80.6907124989914,4,1,0,80,0,0
124573,-80.3576881414552,4,1,0,80,0,0
124662,-80.0274013822333,4,1,0,80,0,0
125456,-100,4,1,0,80,0,0
126147,-100,4,1,0,100,0,0
126170,-76.9230769230769,4,1,0,100,0,1
145912,-76.9230769230769,4,1,0,90,0,1
145934,-76.9230769230769,4,1,0,90,0,0
146279,-77.5193798449612,4,1,0,90,0,0
146456,-78.125,4,1,0,90,0,0
146809,-78.7401574803149,4,1,0,90,0,0
146985,-79.3650793650794,4,1,0,90,0,0
147338,-80,4,1,0,90,0,0
147514,-80.6451612903226,4,1,0,90,0,0
147867,-81.9672131147541,4,1,0,90,0,0
148044,-83.3333333333333,4,1,0,90,0,0
148220,-85.1063829787234,4,1,0,90,0,0
148397,-86.9565217391304,4,1,0,90,0,0
148573,-88.8888888888889,4,1,0,90,0,0
148750,-86.9565217391304,4,1,0,90,0,0
165691,-80,4,1,0,90,0,0
166220,-83.3333333333333,4,1,0,90,0,0
166573,-86.9565217391304,4,1,0,90,0,0
166926,-90.9090909090909,4,1,0,90,0,0
167809,-90.9090909090909,4,1,0,70,0,0
168514,-100,4,1,0,50,0,0

[HitObjects]
256,192,523,5,2,0:0:0:0:
256,192,699,1,0,0:0:0:0:
256,192,875,1,2,0:0:0:0:
256,192,1052,1,2,0:0:0:0:
256,192,6170,5,2,0:0:0:0:
256,192,6346,1,0,0:0:0:0:
256,192,6522,1,2,0:0:0:0:
256,192,6699,1,2,0:0:0:0:
256,192,8640,1,0,0:0:0:0:
256,192,8817,1,2,0:0:0:0:
256,192,10052,1,2,0:0:0:0:
256,192,10228,1,0,0:0:0:0:
256,192,10405,12,0,11640,0:0:0:0:
256,192,11817,5,2,0:0:0:0:
256,192,12170,1,2,0:0:0:0:
256,192,12522,1,0,0:0:0:0:
256,192,12875,1,2,0:0:0:0:
256,192,13581,1,0,0:0:0:0:
256,192,13934,1,2,0:0:0:0:
256,192,14287,1,2,0:0:0:0:
256,192,14993,1,0,0:0:0:0:
256,192,15346,1,0,0:0:0:0:
256,192,15699,1,2,0:0:0:0:
256,192,17464,1,2,0:0:0:0:
256,192,17817,1,2,0:0:0:0:
256,192,18170,1,0,0:0:0:0:
256,192,18522,1,2,0:0:0:0:
256,192,19228,1,0,0:0:0:0:
256,192,19581,1,0,0:0:0:0:
256,192,19934,1,2,0:0:0:0:
256,192,21522,1,2,0:0:0:0:
256,192,21611,1,0,0:0:0:0:
256,192,21699,1,2,0:0:0:0:
256,192,21875,1,2,0:0:0:0:
256,192,22052,1,0,0:0:0:0:
256,192,22405,1,0,0:0:0:0:
256,192,22581,1,0,0:0:0:0:
256,192,22758,1,2,0:0:0:0:
256,192,22934,1,2,0:0:0:0:
256,192,23111,1,2,0:0:0:0:
256,192,23464,1,2,0:0:0:0:
256,192,23640,1,0,0:0:0:0:
256,192,23817,1,2,0:0:0:0:
256,192,24170,1,2,0:0:0:0:
256,192,24522,1,0,0:0:0:0:
256,192,24875,1,0,0:0:0:0:
256,192,25228,1,0,0:0:0:0:
256,192,25581,1,2,0:0:0:0:
256,192,25758,1,0,0:0:0:0:
256,192,25890,1,2,0:0:0:0:
256,192,25934,1,2,0:0:0:0:
256,192,26287,1,0,0:0:0:0:
256,192,26640,1,0,0:0:0:0:
256,192,26817,1,0,0:0:0:0:
256,192,26993,1,2,0:0:0:0:
256,192,27346,1,0,0:0:0:0:
256,192,27699,1,2,0:0:0:0:
256,192,28052,1,2,0:0:0:0:
256,192,28405,1,2,0:0:0:0:
256,192,28581,1,0,0:0:0:0:
256,192,28758,1,2,0:0:0:0:
256,192,28846,1,0,0:0:0:0:
256,192,28934,1,0,0:0:0:0:
256,192,29022,1,0,0:0:0:0:
256,192,29111,1,2,0:0:0:0:
256,192,29199,1,2,0:0:0:0:
256,192,29287,1,0,0:0:0:0:
256,192,29375,1,0,0:0:0:0:
256,192,29464,1,2,0:0:0:0:
256,192,29552,1,0,0:0:0:0:
256,192,29640,1,2,0:0:0:0:
256,192,29728,1,0,0:0:0:0:
256,192,29817,1,2,0:0:0:0:
256,192,29905,1,2,0:0:0:0:
256,192,29993,1,2,0:0:0:0:
256,192,30081,1,0,0:0:0:0:
256,192,30170,1,2,0:0:0:0:
256,192,30258,1,2,0:0:0:0:
256,192,30346,1,0,0:0:0:0:
256,192,30434,1,0,0:0:0:0:
256,192,30522,1,2,0:0:0:0:
256,192,30611,1,2,0:0:0:0:
256,192,30699,1,0,0:0:0:0:
256,192,30787,1,2,0:0:0:0:
256,192,30875,1,0,0:0:0:0:
256,192,30964,1,0,0:0:0:0:
256,192,31052,1,0,0:0:0:0:
256,192,31140,1,0,0:0:0:0:
256,192,31228,1,2,0:0:0:0:
256,192,31317,1,2,0:0:0:0:
256,192,31405,1,2,0:0:0:0:
256,192,31493,1,2,0:0:0:0:
256,192,31581,1,0,0:0:0:0:
256,192,31670,1,2,0:0:0:0:
256,192,31758,1,0,0:0:0:0:
256,192,31846,1,0,0:0:0:0:
256,192,31934,1,2,0:0:0:0:
256,192,32022,1,2,0:0:0:0:
256,192,32111,1,0,0:0:0:0:
256,192,32199,1,0,0:0:0:0:
256,192,32287,1,2,0:0:0:0:
256,192,32375,1,0,0:0:0:0:
256,192,32464,1,2,0:0:0:0:
256,192,32552,1,0,0:0:0:0:
256,192,32640,1,2,0:0:0:0:
256,192,32728,1,2,0:0:0:0:
256,192,32817,1,0,0:0:0:0:
256,192,32905,1,0,0:0:0:0:
256,192,32993,1,2,0:0:0:0:
256,192,33081,1,2,0:0:0:0:
256,192,33170,1,2,0:0:0:0:
256,192,33258,1,0,0:0:0:0:
256,192,33346,1,2,0:0:0:0:
256,192,33434,1,2,0:0:0:0:
256,192,33522,1,2,0:0:0:0:
256,192,33611,1,2,0:0:0:0:
256,192,34228,1,0,0:0:0:0:
256,192,34317,1,0,0:0:0:0:
256,192,34405,1,6,0:0:0:0:
256,192,34581,1,0,0:0:0:0:
256,192,34758,1,2,0:0:0:0:
256,192,34846,1,2,0:0:0:0:
256,192,34934,1,0,0:0:0:0:
256,192,35022,1,2,0:0:0:0:
256,192,35111,1,0,0:0:0:0:
256,192,35199,1,0,0:0:0:0:
256,192,35287,1,0,0:0:0:0:
256,192,35464,1,2,0:0:0:0:
256,192,35552,1,2,0:0:0:0:
256,192,35640,1,0,0:0:0:0:
256,192,35817,1,0,0:0:0:0:
256,192,35993,1,0,0:0:0:0:
256,192,36170,1,2,0:0:0:0:
256,192,36258,1,2,0:0:0:0:
256,192,36346,1,0,0:0:0:0:
256,192,36434,1,0,0:0:0:0:
256,192,36522,1,2,0:0:0:0:
256,192,36699,1,0,0:0:0:0:
256,192,36787,1,0,0:0:0:0:
256,192,36875,1,2,0:0:0:0:
256,192,36964,1,0,0:0:0:0:
256,192,37052,1,2,0:0:0:0:
256,192,37228,1,0,0:0:0:0:
256,192,37405,1,0,0:0:0:0:
256,192,37581,1,2,0:0:0:0:
256,192,37670,1,0,0:0:0:0:
256,192,37758,1,2,0:0:0:0:
256,192,37846,1,2,0:0:0:0:
256,192,37934,1,0,0:0:0:0:
256,192,38022,1,0,0:0:0:0:
256,192,38111,1,0,0:0:0:0:
256,192,38287,1,2,0:0:0:0:
256,192,38375,1,2,0:0:0:0:
256,192,38464,1,2,0:0:0:0:
256,192,38552,1,2,0:0:0:0:
256,192,38640,1,0,0:0:0:0:
256,192,38817,1,0,0:0:0:0:
256,192,38993,1,2,0:0:0:0:
256,192,39170,1,0,0:0:0:0:
256,192,39258,1,2,0:0:0:0:
256,192,39346,1,0,0:0:0:0:
256,192,39522,1,0,0:0:0:0:
256,192,39699,1,2,0:0:0:0:
256,192,39875,1,0,0:0:0:0:
256,192,40052,1,0,0:0:0:0:
256,192,40140,1,2,0:0:0:0:
256,192,40228,1,2,0:0:0:0:
256,192,40317,1,0,0:0:0:0:
256,192,40405,1,2,0:0:0:0:
256,192,40581,1,0,0:0:0:0:
256,192,40758,1,2,0:0:0:0:
256,192,40846,1,0,0:0:0:0:
256,192,40934,1,0,0:0:0:0:
256,192,41111,1,2,0:0:0:0:
256,192,41199,1,2,0:0:0:0:
256,192,41287,1,2,0:0:0:0:
256,192,41375,1,0,0:0:0:0:
256,192,41464,1,2,0:0:0:0:
256,192,41552,1,2,0:0:0:0:
256,192,41640,1,0,0:0:0:0:
256,192,41817,1,2,0:0:0:0:
256,192,41905,1,0,0:0:0:0:
256,192,41993,1,2,0:0:0:0:
256,192,42170,1,0,0:0:0:0:
256,192,42346,1,0,0:0:0:0:
256,192,42522,1,2,0:0:0:0:
256,192,42611,1,2,0:0:0:0:
256,192,42699,1,2,0:0:0:0:
256,192,42787,1,2,0:0:0:0:
256,192,42875,1,0,0:0:0:0:
256,192,43052,1,0,0:0:0:0:
256,192,43228,1,2,0:0:0:0:
256,192,43405,1,0,0:0:0:0:
256,192,43493,1,0,0:0:0:0:
256,192,43581,1,2,0:0:0:0:
256,192,43758,1,0,0:0:0:0:
256,192,43934,1,2,0:0:0:0:
256,192,44111,1,0,0:0:0:0:
256,192,44287,1,2,0:0:0:0:
256,192,44375,1,2,0:0:0:0:
256,192,44464,1,0,0:0:0:0:
256,192,44552,1,0,0:0:0:0:
256,192,44640,1,2,0:0:0:0:
256,192,44728,1,0,0:0:0:0:
256,192,44817,1,2,0:0:0:0:
256,192,44905,1,2,0:0:0:0:
256,192,44993,1,0,0:0:0:0:
256,192,45081,1,2,0:0:0:0:
256,192,45170,1,2,0:0:0:0:
256,192,45258,1,0,0:0:0:0:
256,192,45346,1,2,0:0:0:0:
256,192,45522,1,0,0:0:0:0:
256,192,45699,1,6,0:0:0:0:
256,192,45875,1,0,0:0:0:0:
256,192,46052,1,2,0:0:0:0:
256,192,46140,1,0,0:0:0:0:
256,192,46228,1,0,0:0:0:0:
256,192,46405,1,2,0:0:0:0:
256,192,46581,1,0,0:0:0:0:
256,192,46670,1,0,0:0:0:0:
256,192,46758,1,2,0:0:0:0:
256,192,46846,1,2,0:0:0:0:
256,192,46934,1,0,0:0:0:0:
256,192,47022,1,2,0:0:0:0:
256,192,47111,1,0,0:0:0:0:
256,192,47287,1,0,0:0:0:0:
256,192,47464,1,2,0:0:0:0:
256,192,47552,1,2,0:0:0:0:
256,192,47640,1,0,0:0:0:0:
256,192,47817,1,2,0:0:0:0:
256,192,47905,1,2,0:0:0:0:
256,192,47993,1,2,0:0:0:0:
256,192,48081,1,0,0:0:0:0:
256,192,48170,1,2,0:0:0:0:
256,192,48258,1,2,0:0:0:0:
256,192,48346,1,0,0:0:0:0:
256,192,48434,1,0,0:0:0:0:
256,192,48522,1,2,0:0:0:0:
256,192,48699,1,0,0:0:0:0:
256,192,48875,1,2,0:0:0:0:
256,192,48964,1,0,0:0:0:0:
256,192,49052,1,0,0:0:0:0:
256,192,49228,1,2,0:0:0:0:
256,192,49405,1,0,0:0:0:0:
256,192,49581,1,2,0:0:0:0:
256,192,49670,1,2,0:0:0:0:
256,192,49758,1,0,0:0:0:0:
256,192,49846,1,0,0:0:0:0:
256,192,49934,1,2,0:0:0:0:
256,192,50111,1,0,0:0:0:0:
256,192,50287,1,2,0:0:0:0:
256,192,50464,1,0,0:0:0:0:
256,192,50552,1,2,0:0:0:0:
256,192,50640,1,2,0:0:0:0:
256,192,50817,1,0,0:0:0:0:
256,192,50993,1,2,0:0:0:0:
256,192,51170,1,2,0:0:0:0:
256,192,51346,1,4,0:0:0:0:
256,192,51522,1,2,0:0:0:0:
256,192,51611,1,2,0:0:0:0:
256,192,51699,1,0,0:0:0:0:
256,192,51875,1,0,0:0:0:0:
256,192,52052,1,2,0:0:0:0:
256,192,52140,1,0,0:0:0:0:
256,192,52228,1,0,0:0:0:0:
256,192,52317,1,0,0:0:0:0:
256,192,52405,1,2,0:0:0:0:
256,192,52581,1,2,0:0:0:0:
256,192,52758,1,4,0:0:0:0:
256,192,52934,1,0,0:0:0:0:
256,192,53111,1,2,0:0:0:0:
256,192,53199,1,2,0:0:0:0:
256,192,53287,1,0,0:0:0:0:
256,192,53464,1,2,0:0:0:0:
256,192,53640,1,0,0:0:0:0:
256,192,53728,1,0,0:0:0:0:
256,192,53817,1,2,0:0:0:0:
256,192,53905,1,2,0:0:0:0:
256,192,53993,1,2,0:0:0:0:
256,192,54081,1,2,0:0:0:0:
256,192,54170,1,4,0:0:0:0:
256,192,54522,1,2,0:0:0:0:
256,192,54611,1,2,0:0:0:0:
256,192,54699,1,0,0:0:0:0:
256,192,54787,1,0,0:0:0:0:
256,192,54875,1,2,0:0:0:0:
256,192,54964,1,0,0:0:0:0:
256,192,55052,1,2,0:0:0:0:
256,192,55140,1,0,0:0:0:0:
256,192,55228,1,0,0:0:0:0:
256,192,55317,1,0,0:0:0:0:
256,192,55405,1,2,0:0:0:0:
256,192,55493,1,0,0:0:0:0:
256,192,55581,1,2,0:0:0:0:
256,192,55670,1,2,0:0:0:0:
256,192,55758,1,2,0:0:0:0:
256,192,55846,1,0,0:0:0:0:
256,192,55934,1,2,0:0:0:0:
256,192,56022,1,2,0:0:0:0:
256,192,56111,1,0,0:0:0:0:
256,192,56199,1,0,0:0:0:0:
256,192,56287,1,2,0:0:0:0:
256,192,56464,1,2,0:0:0:0:
256,192,56640,1,0,0:0:0:0:
256,192,56817,1,0,0:0:0:0:
256,192,56993,1,6,0:0:0:0:
256,192,57170,1,0,0:0:0:0:
256,192,57258,1,2,0:0:0:0:
256,192,57346,1,0,0:0:0:0:
256,192,57522,1,2,0:0:0:0:
256,192,57611,1,0,0:0:0:0:
256,192,57699,1,2,0:0:0:0:
256,192,57787,1,0,0:0:0:0:
256,192,57875,1,0,0:0:0:0:
256,192,58052,1,2,0:0:0:0:
256,192,58228,1,0,0:0:0:0:
256,192,58405,1,2,0:0:0:0:
256,192,58581,1,0,0:0:0:0:
256,192,58670,1,2,0:0:0:0:
256,192,58758,1,2,0:0:0:0:
256,192,58934,1,2,0:0:0:0:
256,192,59022,1,0,0:0:0:0:
256,192,59111,1,0,0:0:0:0:
256,192,59199,1,0,0:0:0:0:
256,192,59287,1,0,0:0:0:0:
256,192,59464,1,2,0:0:0:0:
256,192,59640,1,0,0:0:0:0:
256,192,59817,1,2,0:0:0:0:
256,192,59993,1,2,0:0:0:0:
256,192,60081,1,0,0:0:0:0:
256,192,60170,1,2,0:0:0:0:
256,192,60346,1,0,0:0:0:0:
256,192,60434,1,0,0:0:0:0:
256,192,60522,1,2,0:0:0:0:
256,192,60611,1,0,0:0:0:0:
256,192,60699,1,0,0:0:0:0:
256,192,60875,1,2,0:0:0:0:
256,192,61052,1,0,0:0:0:0:
256,192,61140,1,0,0:0:0:0:
256,192,61228,1,2,0:0:0:0:
256,192,61405,1,0,0:0:0:0:
256,192,61581,1,2,0:0:0:0:
256,192,61758,1,2,0:0:0:0:
256,192,61934,1,0,0:0:0:0:
256,192,62111,1,2,0:0:0:0:
256,192,62199,1,0,0:0:0:0:
256,192,62287,1,2,0:0:0:0:
256,192,62375,1,2,0:0:0:0:
256,192,62464,1,0,0:0:0:0:
256,192,62640,1,2,0:0:0:0:
256,192,62817,1,0,0:0:0:0:
256,192,62905,1,2,0:0:0:0:
256,192,62993,1,0,0:0:0:0:
256,192,63170,1,2,0:0:0:0:
256,192,63258,1,2,0:0:0:0:
256,192,63346,1,0,0:0:0:0:
256,192,63434,1,0,0:0:0:0:
256,192,63522,1,0,0:0:0:0:
256,192,63699,1,2,0:0:0:0:
256,192,63875,1,0,0:0:0:0:
256,192,64052,1,2,0:0:0:0:
256,192,64228,1,2,0:0:0:0:
256,192,64317,1,2,0:0:0:0:
256,192,64405,1,0,0:0:0:0:
256,192,64581,1,2,0:0:0:0:
256,192,64670,1,0,0:0:0:0:
256,192,64758,1,0,0:0:0:0:
256,192,64846,1,2,0:0:0:0:
256,192,64934,1,0,0:0:0:0:
256,192,65111,1,2,0:0:0:0:
256,192,65287,1,0,0:0:0:0:
256,192,65464,1,2,0:0:0:0:
256,192,65640,1,2,0:0:0:0:
256,192,65728,1,0,0:0:0:0:
256,192,65817,1,2,0:0:0:0:
256,192,65993,1,2,0:0:0:0:
256,192,66081,1,2,0:0:0:0:
256,192,66170,1,0,0:0:0:0:
256,192,66258,1,2,0:0:0:0:
256,192,66346,1,0,0:0:0:0:
256,192,66522,1,0,0:0:0:0:
256,192,66699,1,0,0:0:0:0:
256,192,66875,1,6,0:0:0:0:
256,192,67228,1,2,0:0:0:0:
256,192,67405,1,0,0:0:0:0:
256,192,67758,1,0,0:0:0:0:
256,192,67846,1,2,0:0:0:0:
256,192,67934,1,0,0:0:0:0:
256,192,68022,1,0,0:0:0:0:
256,192,68111,1,2,0:0:0:0:
256,192,68287,1,6,0:0:0:0:
256,192,68464,1,0,0:0:0:0:
256,192,68552,1,0,0:0:0:0:
256,192,68640,1,2,0:0:0:0:
256,192,68817,1,2,0:0:0:0:
256,192,68905,1,0,0:0:0:0:
256,192,68993,1,2,0:0:0:0:
256,192,69081,1,0,0:0:0:0:
256,192,69170,1,0,0:0:0:0:
256,192,69346,1,2,0:0:0:0:
256,192,69522,1,0,0:0:0:0:
256,192,69699,1,2,0:0:0:0:
256,192,69875,1,0,0:0:0:0:
256,192,69964,1,2,0:0:0:0:
256,192,70052,1,0,0:0:0:0:
256,192,70228,1,2,0:0:0:0:
256,192,70317,1,0,0:0:0:0:
256,192,70405,1,2,0:0:0:0:
256,192,70493,1,2,0:0:0:0:
256,192,70581,1,0,0:0:0:0:
256,192,70758,1,2,0:0:0:0:
256,192,70934,1,0,0:0:0:0:
256,192,71111,1,6,0:0:0:0:
256,192,71287,1,2,0:0:0:0:
256,192,71375,1,0,0:0:0:0:
256,192,71464,1,2,0:0:0:0:
256,192,71640,1,0,0:0:0:0:
256,192,71817,1,2,0:0:0:0:
256,192,71993,1,4,0:0:0:0:
256,192,72346,1,6,0:0:0:0:
256,192,72699,1,0,0:0:0:0:
256,192,72875,1,2,0:0:0:0:
256,192,73228,1,0,0:0:0:0:
256,192,73405,1,2,0:0:0:0:
256,192,73493,1,0,0:0:0:0:
256,192,73581,1,2,0:0:0:0:
256,192,73670,1,2,0:0:0:0:
256,192,73758,1,0,0:0:0:0:
256,192,73934,1,0,0:0:0:0:
256,192,74287,1,6,0:0:0:0:
256,192,74464,1,0,0:0:0:0:
256,192,74552,1,0,0:0:0:0:
256,192,74640,1,2,0:0:0:0:
256,192,74817,1,0,0:0:0:0:
256,192,74993,1,2,0:0:0:0:
256,192,75081,1,2,0:0:0:0:
256,192,75170,1,0,0:0:0:0:
256,192,75258,1,2,0:0:0:0:
256,192,75346,1,0,0:0:0:0:
256,192,75522,1,0,0:0:0:0:
256,192,75699,1,2,0:0:0:0:
256,192,75787,1,0,0:0:0:0:
256,192,75875,1,0,0:0:0:0:
256,192,76052,1,2,0:0:0:0:
256,192,76228,1,0,0:0:0:0:
256,192,76405,1,2,0:0:0:0:
256,192,76493,1,0,0:0:0:0:
256,192,76581,1,0,0:0:0:0:
256,192,76670,1,0,0:0:0:0:
256,192,76758,1,2,0:0:0:0:
256,192,77022,1,0,0:0:0:0:
256,192,77287,1,2,0:0:0:0:
256,192,80993,1,2,0:0:0:0:
256,192,81170,1,2,0:0:0:0:
256,192,81346,1,0,0:0:0:0:
256,192,81522,1,2,0:0:0:0:
256,192,83817,1,2,0:0:0:0:
256,192,83993,1,0,0:0:0:0:
256,192,84170,1,0,0:0:0:0:
256,192,84346,1,2,0:0:0:0:
256,192,86640,1,2,0:0:0:0:
256,192,86817,1,2,0:0:0:0:
256,192,86993,1,0,0:0:0:0:
256,192,87170,1,2,0:0:0:0:
256,192,88052,1,2,0:0:0:0:
256,192,88758,1,0,0:0:0:0:
256,192,89464,1,2,0:0:0:0:
256,192,89640,1,0,0:0:0:0:
256,192,89817,1,0,0:0:0:0:
256,192,89993,1,2,0:0:0:0:
256,192,92287,1,2,0:0:0:0:
256,192,92464,1,2,0:0:0:0:
256,192,92640,1,0,0:0:0:0:
256,192,92817,1,2,0:0:0:0:
256,192,95111,1,2,0:0:0:0:
256,192,95287,1,0,0:0:0:0:
256,192,95464,1,0,0:0:0:0:
256,192,95640,1,2,0:0:0:0:
256,192,97934,1,2,0:0:0:0:
256,192,98111,1,2,0:0:0:0:
256,192,98287,1,0,0:0:0:0:
256,192,98464,1,2,0:0:0:0:
256,192,98640,1,0,0:0:0:0:
256,192,98993,1,2,0:0:0:0:
256,192,99699,1,0,0:0:0:0:
256,192,100052,1,0,0:0:0:0:
256,192,100405,1,2,0:0:0:0:
256,192,102170,1,0,0:0:0:0:
256,192,102875,1,2,0:0:0:0:
256,192,102964,1,0,0:0:0:0:
256,192,103052,1,0,0:0:0:0:
256,192,103140,1,2,0:0:0:0:
256,192,103228,1,2,0:0:0:0:
256,192,103317,1,0,0:0:0:0:
256,192,103405,1,0,0:0:0:0:
256,192,103581,1,2,0:0:0:0:
256,192,103934,1,0,0:0:0:0:
256,192,104287,1,2,0:0:0:0:
256,192,104640,1,2,0:0:0:0:
256,192,104993,1,0,0:0:0:0:
256,192,105346,1,2,0:0:0:0:
256,192,105699,1,2,0:0:0:0:
256,192,106052,1,2,0:0:0:0:
256,192,106228,1,2,0:0:0:0:
256,192,106405,1,0,0:0:0:0:
256,192,106758,1,2,0:0:0:0:
256,192,107111,1,2,0:0:0:0:
256,192,107464,1,2,0:0:0:0:
256,192,107817,1,0,0:0:0:0:
256,192,108170,1,0,0:0:0:0:
256,192,108522,1,2,0:0:0:0:
256,192,108875,1,2,0:0:0:0:
256,192,109052,1,0,0:0:0:0:
256,192,109228,1,2,0:0:0:0:
256,192,109581,1,2,0:0:0:0:
256,192,109758,1,2,0:0:0:0:
256,192,110111,1,0,0:0:0:0:
256,192,110464,1,2,0:0:0:0:
256,192,110817,1,2,0:0:0:0:
256,192,110993,1,0,0:0:0:0:
256,192,111170,1,2,0:0:0:0:
256,192,111522,1,0,0:0:0:0:
256,192,111875,1,2,0:0:0:0:
256,192,112052,1,2,0:0:0:0:
256,192,112405,1,2,0:0:0:0:
256,192,112581,1,0,0:0:0:0:
256,192,112934,1,2,0:0:0:0:
256,192,113111,1,0,0:0:0:0:
256,192,113287,1,2,0:0:0:0:
256,192,113464,1,0,0:0:0:0:
256,192,113640,1,0,0:0:0:0:
256,192,113817,1,2,0:0:0:0:
256,192,114170,1,0,0:0:0:0:
256,192,114346,1,0,0:0:0:0:
256,192,114522,1,2,0:0:0:0:
256,192,114699,1,2,0:0:0:0:
256,192,114875,1,4,0:0:0:0:
256,192,115228,1,2,0:0:0:0:
256,192,115317,1,0,0:0:0:0:
256,192,115405,1,0,0:0:0:0:
256,192,115493,1,0,0:0:0:0:
256,192,115581,1,2,0:0:0:0:
256,192,115670,1,2,0:0:0:0:
256,192,115758,1,0,0:0:0:0:
256,192,115846,1,0,0:0:0:0:
256,192,115934,1,2,0:0:0:0:
256,192,116022,1,0,0:0:0:0:
256,192,116111,1,0,0:0:0:0:
256,192,116199,1,0,0:0:0:0:
256,192,116287,1,2,0:0:0:0:
256,192,116375,1,0,0:0:0:0:
256,192,116464,1,0,0:0:0:0:
256,192,116552,1,0,0:0:0:0:
256,192,116640,1,2,0:0:0:0:
256,192,116728,1,0,0:0:0:0:
256,192,116817,1,2,0:0:0:0:
256,192,116905,1,0,0:0:0:0:
256,192,116993,1,2,0:0:0:0:
256,192,117081,1,2,0:0:0:0:
256,192,117170,1,0,0:0:0:0:
256,192,117258,1,0,0:0:0:0:
256,192,117346,1,2,0:0:0:0:
256,192,117434,1,2,0:0:0:0:
256,192,117522,1,2,0:0:0:0:
256,192,117611,1,0,0:0:0:0:
256,192,117699,1,2,0:0:0:0:
256,192,117787,1,2,0:0:0:0:
256,192,117875,1,0,0:0:0:0:
256,192,117964,1,0,0:0:0:0:
256,192,118052,1,2,0:0:0:0:
256,192,118140,1,0,0:0:0:0:
256,192,118228,1,2,0:0:0:0:
256,192,118317,1,0,0:0:0:0:
256,192,118405,1,2,0:0:0:0:
256,192,118493,1,2,0:0:0:0:
256,192,118581,1,2,0:0:0:0:
256,192,118670,1,0,0:0:0:0:
256,192,118758,1,2,0:0:0:0:
256,192,118846,1,0,0:0:0:0:
256,192,118934,1,2,0:0:0:0:
256,192,119022,1,0,0:0:0:0:
256,192,119111,1,2,0:0:0:0:
256,192,119199,1,2,0:0:0:0:
256,192,119287,1,0,0:0:0:0:
256,192,119375,1,0,0:0:0:0:
256,192,119464,1,2,0:0:0:0:
256,192,119552,1,2,0:0:0:0:
256,192,119640,1,0,0:0:0:0:
256,192,119728,1,2,0:0:0:0:
256,192,119817,1,0,0:0:0:0:
256,192,119905,1,0,0:0:0:0:
256,192,119993,1,2,0:0:0:0:
256,192,120081,1,0,0:0:0:0:
256,192,120170,1,2,0:0:0:0:
256,192,120258,1,2,0:0:0:0:
256,192,120346,1,0,0:0:0:0:
256,192,120434,1,0,0:0:0:0:
256,192,120522,1,2,0:0:0:0:
256,192,120581,1,2,0:0:0:0:
256,192,120640,1,2,0:0:0:0:
256,192,120699,1,0,0:0:0:0:
256,192,120787,1,0,0:0:0:0:
256,192,120875,1,2,0:0:0:0:
256,192,120964,1,0,0:0:0:0:
256,192,121052,1,2,0:0:0:0:
256,192,121111,1,0,0:0:0:0:
256,192,121170,1,0,0:0:0:0:
256,192,121228,1,2,0:0:0:0:
256,192,121317,1,0,0:0:0:0:
256,192,121405,1,2,0:0:0:0:
256,192,121493,1,2,0:0:0:0:
256,192,121581,1,0,0:0:0:0:
256,192,121640,1,0,0:0:0:0:
256,192,121699,1,0,0:0:0:0:
256,192,121758,1,2,0:0:0:0:
256,192,121846,1,0,0:0:0:0:
256,192,121934,1,2,0:0:0:0:
256,192,121993,1,2,0:0:0:0:
256,192,122052,1,2,0:0:0:0:
256,192,122111,1,0,0:0:0:0:
256,192,122199,1,0,0:0:0:0:
256,192,122287,1,2,0:0:0:0:
256,192,122375,1,0,0:0:0:0:
256,192,122464,1,2,0:0:0:0:
256,192,122522,1,0,0:0:0:0:
256,192,122581,1,0,0:0:0:0:
256,192,122640,1,2,0:0:0:0:
256,192,122728,1,0,0:0:0:0:
256,192,122817,1,2,0:0:0:0:
256,192,122905,1,2,0:0:0:0:
256,192,122993,1,0,0:0:0:0:
256,192,123052,1,0,0:0:0:0:
256,192,123111,1,0,0:0:0:0:
256,192,123170,1,2,0:0:0:0:
256,192,123258,1,0,0:0:0:0:
256,192,123346,1,2,0:0:0:0:
256,192,123405,1,2,0:0:0:0:
256,192,123464,1,0,0:0:0:0:
256,192,123522,1,0,0:0:0:0:
256,192,123611,1,0,0:0:0:0:
256,192,123699,1,2,0:0:0:0:
256,192,123787,1,2,0:0:0:0:
256,192,123875,1,0,0:0:0:0:
256,192,123964,1,0,0:0:0:0:
256,192,124052,1,2,0:0:0:0:
256,192,124140,1,0,0:0:0:0:
256,192,124228,1,0,0:0:0:0:
256,192,124317,1,0,0:0:0:0:
256,192,124405,1,2,0:0:0:0:
256,192,124493,1,2,0:0:0:0:
256,192,124581,1,2,0:0:0:0:
256,192,124670,1,2,0:0:0:0:
256,192,125464,1,0,0:0:0:0:
256,192,125552,1,0,0:0:0:0:
256,192,125817,1,0,0:0:0:0:
256,192,125993,1,0,0:0:0:0:
256,192,126170,1,6,0:0:0:0:
256,192,126346,1,0,0:0:0:0:
256,192,126522,1,2,0:0:0:0:
256,192,126611,1,0,0:0:0:0:
256,192,126699,1,2,0:0:0:0:
256,192,126787,1,2,0:0:0:0:
256,192,126875,1,0,0:0:0:0:
256,192,126964,1,2,0:0:0:0:
256,192,127052,1,0,0:0:0:0:
256,192,127228,1,2,0:0:0:0:
256,192,127317,1,2,0:0:0:0:
256,192,127405,1,0,0:0:0:0:
256,192,127581,1,0,0:0:0:0:
256,192,127758,1,0,0:0:0:0:
256,192,127934,1,2,0:0:0:0:
256,192,128022,1,2,0:0:0:0:
256,192,128111,1,0,0:0:0:0:
256,192,128199,1,0,0:0:0:0:
256,192,128287,1,2,0:0:0:0:
256,192,128464,1,0,0:0:0:0:
256,192,128552,1,0,0:0:0:0:
256,192,128640,1,2,0:0:0:0:
256,192,128728,1,2,0:0:0:0:
256,192,128817,1,2,0:0:0:0:
256,192,128993,1,0,0:0:0:0:
256,192,129170,1,0,0:0:0:0:
256,192,129346,1,2,0:0:0:0:
256,192,129434,1,2,0:0:0:0:
256,192,129522,1,0,0:0:0:0:
256,192,129611,1,2,0:0:0:0:
256,192,129699,1,0,0:0:0:0:
256,192,129787,1,0,0:0:0:0:
256,192,129875,1,0,0:0:0:0:
256,192,130052,1,2,0:0:0:0:
256,192,130140,1,2,0:0:0:0:
256,192,130228,1,2,0:0:0:0:
256,192,130317,1,2,0:0:0:0:
256,192,130405,1,0,0:0:0:0:
256,192,130581,1,0,0:0:0:0:
256,192,130758,1,2,0:0:0:0:
256,192,130934,1,0,0:0:0:0:
256,192,131022,1,2,0:0:0:0:
256,192,131111,1,2,0:0:0:0:
256,192,131287,1,0,0:0:0:0:
256,192,131464,1,2,0:0:0:0:
256,192,131640,1,0,0:0:0:0:
256,192,131817,1,0,0:0:0:0:
256,192,131905,1,2,0:0:0:0:
256,192,131993,1,0,0:0:0:0:
256,192,132081,1,0,0:0:0:0:
256,192,132170,1,2,0:0:0:0:
256,192,132346,1,0,0:0:0:0:
256,192,132522,1,2,0:0:0:0:
256,192,132611,1,0,0:0:0:0:
256,192,132699,1,0,0:0:0:0:
256,192,132875,1,2,0:0:0:0:
256,192,132964,1,2,0:0:0:0:
256,192,133052,1,0,0:0:0:0:
256,192,133140,1,0,0:0:0:0:
256,192,133228,1,2,0:0:0:0:
256,192,133317,1,0,0:0:0:0:
256,192,133405,1,0,0:0:0:0:
256,192,133581,1,0,0:0:0:0:
256,192,133670,1,2,0:0:0:0:
256,192,133758,1,0,0:0:0:0:
256,192,133934,1,0,0:0:0:0:
256,192,134111,1,0,0:0:0:0:
256,192,134287,1,2,0:0:0:0:
256,192,134375,1,2,0:0:0:0:
256,192,134464,1,2,0:0:0:0:
256,192,134552,1,0,0:0:0:0:
256,192,134640,1,2,0:0:0:0:
256,192,134817,1,0,0:0:0:0:
256,192,134993,1,2,0:0:0:0:
256,192,135170,1,0,0:0:0:0:
256,192,135258,1,0,0:0:0:0:
256,192,135346,1,2,0:0:0:0:
256,192,135522,1,0,0:0:0:0:
256,192,135699,1,2,0:0:0:0:
256,192,135875,1,0,0:0:0:0:
256,192,136052,1,2,0:0:0:0:
256,192,136140,1,2,0:0:0:0:
256,192,136228,1,0,0:0:0:0:
256,192,136317,1,0,0:0:0:0:
256,192,136405,1,2,0:0:0:0:
256,192,136493,1,0,0:0:0:0:
256,192,136581,1,2,0:0:0:0:
256,192,136670,1,0,0:0:0:0:
256,192,136758,1,2,0:0:0:0:
256,192,136846,1,2,0:0:0:0:
256,192,136934,1,2,0:0:0:0:
256,192,137022,1,0,0:0:0:0:
256,192,137111,1,2,0:0:0:0:
256,192,137287,1,0,0:0:0:0:
256,192,137464,1,6,0:0:0:0:
256,192,137640,1,0,0:0:0:0:
256,192,137817,1,2,0:0:0:0:
256,192,137905,1,2,0:0:0:0:
256,192,137993,1,0,0:0:0:0:
256,192,138170,1,2,0:0:0:0:
256,192,138346,1,0,0:0:0:0:
256,192,138434,1,2,0:0:0:0:
256,192,138522,1,2,0:0:0:0:
256,192,138611,1,2,0:0:0:0:
256,192,138699,1,0,0:0:0:0:
256,192,138787,1,0,0:0:0:0:
256,192,138875,1,2,0:0:0:0:
256,192,139052,1,0,0:0:0:0:
256,192,139228,1,2,0:0:0:0:
256,192,139317,1,2,0:0:0:0:
256,192,139405,1,0,0:0:0:0:
256,192,139581,1,2,0:0:0:0:
256,192,139670,1,2,0:0:0:0:
256,192,139758,1,0,0:0:0:0:
256,192,139846,1,0,0:0:0:0:
256,192,139934,1,2,0:0:0:0:
256,192,140022,1,2,0:0:0:0:
256,192,140111,1,2,0:0:0:0:
256,192,140199,1,2,0:0:0:0:
256,192,140287,1,0,0:0:0:0:
256,192,140464,1,0,0:0:0:0:
256,192,140640,1,2,0:0:0:0:
256,192,140728,1,0,0:0:0:0:
256,192,140817,1,0,0:0:0:0:
256,192,140993,1,2,0:0:0:0:
256,192,141170,1,0,0:0:0:0:
256,192,141346,1,2,0:0:0:0:
256,192,141434,1,0,0:0:0:0:
256,192,141522,1,2,0:0:0:0:
256,192,141611,1,2,0:0:0:0:
256,192,141699,1,0,0:0:0:0:
256,192,141875,1,0,0:0:0:0:
256,192,142052,1,2,0:0:0:0:
256,192,142228,1,0,0:0:0:0:
256,192,142317,1,2,0:0:0:0:
256,192,142405,1,2,0:0:0:0:
256,192,142581,1,0,0:0:0:0:
256,192,142758,1,2,0:0:0:0:
256,192,142934,1,2,0:0:0:0:
256,192,143111,1,4,0:0:0:0:
256,192,143287,1,2,0:0:0:0:
256,192,143375,1,0,0:0:0:0:
256,192,143464,1,0,0:0:0:0:
256,192,143640,1,0,0:0:0:0:
256,192,143817,1,2,0:0:0:0:
256,192,143905,1,2,0:0:0:0:
256,192,143993,1,0,0:0:0:0:
256,192,144081,1,0,0:0:0:0:
256,192,144170,1,2,0:0:0:0:
256,192,144346,1,2,0:0:0:0:
256,192,144522,1,4,0:0:0:0:
256,192,144699,1,0,0:0:0:0:
256,192,144875,1,2,0:0:0:0:
256,192,144964,1,2,0:0:0:0:
256,192,145052,1,0,0:0:0:0:
256,192,145228,1,2,0:0:0:0:
256,192,145405,1,0,0:0:0:0:
256,192,145493,1,0,0:0:0:0:
256,192,145581,1,2,0:0:0:0:
256,192,145758,1,2,0:0:0:0:
256,192,145934,1,4,0:0:0:0:
256,192,146287,1,2,0:0:0:0:
256,192,146464,1,4,0:0:0:0:
256,192,146817,1,2,0:0:0:0:
256,192,146993,1,4,0:0:0:0:
256,192,147346,1,2,0:0:0:0:
256,192,147522,1,4,0:0:0:0:
256,192,147875,1,0,0:0:0:0:
256,192,148052,1,2,0:0:0:0:
256,192,148228,1,2,0:0:0:0:
256,192,148405,1,0,0:0:0:0:
256,192,148581,1,0,0:0:0:0:
256,192,148758,1,6,0:0:0:0:
256,192,148934,1,0,0:0:0:0:
256,192,149022,1,2,0:0:0:0:
256,192,149111,1,0,0:0:0:0:
256,192,149287,1,2,0:0:0:0:
256,192,149375,1,0,0:0:0:0:
256,192,149464,1,0,0:0:0:0:
256,192,149552,1,0,0:0:0:0:
256,192,149640,1,0,0:0:0:0:
256,192,149817,1,2,0:0:0:0:
256,192,149993,1,0,0:0:0:0:
256,192,150170,1,2,0:0:0:0:
256,192,150346,1,0,0:0:0:0:
256,192,150434,1,2,0:0:0:0:
256,192,150522,1,2,0:0:0:0:
256,192,150699,1,2,0:0:0:0:
256,192,150787,1,0,0:0:0:0:
256,192,150875,1,2,0:0:0:0:
256,192,150964,1,2,0:0:0:0:
256,192,151052,1,0,0:0:0:0:
256,192,151228,1,2,0:0:0:0:
256,192,151405,1,0,0:0:0:0:
256,192,151581,1,2,0:0:0:0:
256,192,151758,1,2,0:0:0:0:
256,192,151846,1,0,0:0:0:0:
256,192,151934,1,2,0:0:0:0:
256,192,152111,1,0,0:0:0:0:
256,192,152199,1,2,0:0:0:0:
256,192,152287,1,2,0:0:0:0:
256,192,152375,1,2,0:0:0:0:
256,192,152464,1,0,0:0:0:0:
256,192,152640,1,2,0:0:0:0:
256,192,152817,1,0,0:0:0:0:
256,192,152905,1,0,0:0:0:0:
256,192,152993,1,2,0:0:0:0:
256,192,153170,1,0,0:0:0:0:
256,192,153346,1,2,0:0:0:0:
256,192,153523,1,2,0:0:0:0:
256,192,153699,1,0,0:0:0:0:
256,192,153876,1,2,0:0:0:0:
256,192,153964,1,0,0:0:0:0:
256,192,154052,1,2,0:0:0:0:
256,192,154140,1,2,0:0:0:0:
256,192,154229,1,0,0:0:0:0:
256,192,154405,1,2,0:0:0:0:
256,192,154582,1,0,0:0:0:0:
256,192,154670,1,2,0:0:0:0:
256,192,154758,1,0,0:0:0:0:
256,192,154935,1,2,0:0:0:0:
256,192,155023,1,0,0:0:0:0:
256,192,155111,1,2,0:0:0:0:
256,192,155199,1,0,0:0:0:0:
256,192,155287,1,0,0:0:0:0:
256,192,155464,1,2,0:0:0:0:
256,192,155640,1,0,0:0:0:0:
256,192,155817,1,2,0:0:0:0:
256,192,155993,1,2,0:0:0:0:
256,192,156082,1,0,0:0:0:0:
256,192,156170,1,0,0:0:0:0:
256,192,156346,1,2,0:0:0:0:
256,192,156435,1,2,0:0:0:0:
256,192,156523,1,0,0:0:0:0:
256,192,156611,1,2,0:0:0:0:
256,192,156699,1,0,0:0:0:0:
256,192,156876,1,2,0:0:0:0:
256,192,157052,1,0,0:0:0:0:
256,192,157229,1,2,0:0:0:0:
256,192,157405,1,2,0:0:0:0:
256,192,157493,1,0,0:0:0:0:
256,192,157582,1,2,0:0:0:0:
256,192,157758,1,2,0:0:0:0:
256,192,157846,1,0,0:0:0:0:
256,192,157935,1,0,0:0:0:0:
256,192,158023,1,2,0:0:0:0:
256,192,158111,1,0,0:0:0:0:
256,192,158287,1,0,0:0:0:0:
256,192,158464,1,0,0:0:0:0:
256,192,158640,1,6,0:0:0:0:
256,192,158993,1,2,0:0:0:0:
256,192,159170,1,0,0:0:0:0:
256,192,159523,1,0,0:0:0:0:
256,192,159611,1,2,0:0:0:0:
256,192,159699,1,0,0:0:0:0:
256,192,159787,1,0,0:0:0:0:
256,192,159876,1,2,0:0:0:0:
256,192,160052,1,6,0:0:0:0:
256,192,160229,1,0,0:0:0:0:
256,192,160317,1,0,0:0:0:0:
256,192,160405,1,2,0:0:0:0:
256,192,160582,1,2,0:0:0:0:
256,192,160670,1,2,0:0:0:0:
256,192,160758,1,0,0:0:0:0:
256,192,160846,1,0,0:0:0:0:
256,192,160935,1,0,0:0:0:0:
256,192,161111,1,2,0:0:0:0:
256,192,161287,1,0,0:0:0:0:
256,192,161464,1,2,0:0:0:0:
256,192,161640,1,0,0:0:0:0:
256,192,161729,1,2,0:0:0:0:
256,192,161817,1,0,0:0:0:0:
256,192,161993,1,2,0:0:0:0:
256,192,162082,1,0,0:0:0:0:
256,192,162170,1,2,0:0:0:0:
256,192,162258,1,2,0:0:0:0:
256,192,162346,1,0,0:0:0:0:
256,192,162523,1,2,0:0:0:0:
256,192,162699,1,0,0:0:0:0:
256,192,162875,1,2,0:0:0:0:
256,192,163052,1,2,0:0:0:0:
256,192,163140,1,0,0:0:0:0:
256,192,163228,1,2,0:0:0:0:
256,192,163405,1,0,0:0:0:0:
256,192,163493,1,0,0:0:0:0:
256,192,163582,1,2,0:0:0:0:
256,192,163670,1,0,0:0:0:0:
256,192,163758,1,0,0:0:0:0:
256,192,163934,1,2,0:0:0:0:
256,192,164111,1,0,0:0:0:0:
256,192,164287,1,6,0:0:0:0:
256,192,164640,1,2,0:0:0:0:
256,192,164817,1,0,0:0:0:0:
256,192,165170,1,0,0:0:0:0:
256,192,165346,1,2,0:0:0:0:
256,192,165699,5,6,0:0:0:0:
256,192,166228,1,6,0:0:0:0:
256,192,166581,1,4,0:0:0:0:
256,192,166934,1,6,0:0:0:0:
256,192,167111,12,0,169758,0:0:0:0:
