osu file format v14

[General]
AudioFilename: audio.mp3
AudioLeadIn: 0
PreviewTime: 32993
Countdown: 0
SampleSet: Soft
StackLeniency: 0.4
Mode: 2
LetterboxInBreaks: 0
WidescreenStoryboard: 0

[Editor]
Bookmarks: 103217,125806,148394,168158
DistanceSpacing: 2.2
BeatDivisor: 8
GridSize: 8
TimelineZoom: 2.599999

[Metadata]
Title:Rainbow Road
TitleUnicode:Rainbow Road
Artist:nanobii
ArtistUnicode:nanobii
Creator:Brunoob
Version:Special
Source:
Tags:Happy Hardcore fa Featured Artist Techno Happycore Electronic Instrumental Brunoob -Joni- alienflybot autofanboy afb -MomoX [_-Kukkai-_]
BeatmapID:2567137
BeatmapSetID:1234892

[Difficulty]
HPDrainRate:6
CircleSize:4.2
OverallDifficulty:9.3
ApproachRate:9.3
SliderMultiplier:2.3
SliderTickRate:2

[Events]
//Background and Video events
0,0,"BG.jpg",0,0
//Break Periods
//Storyboard Layer 0 (Background)
//Storyboard Layer 1 (Fail)
//Storyboard Layer 2 (Pass)
//Storyboard Layer 3 (Foreground)
//Storyboard Layer 4 (Overlay)
//Storyboard Sound Samples

[TimingPoints]
170,352.941176470588,4,1,1,45,1,0
11464,-117.647058823529,4,1,1,45,0,0
22758,-111.111111111111,4,1,1,50,0,0
28405,-100,4,1,1,25,0,0
29111,-100,4,1,1,35,0,0
29817,-100,4,1,1,45,0,0
30522,-100,4,1,1,55,0,0
31228,-100,4,1,1,65,0,0
33875,-100,4,1,1,45,0,0
34052,-100,4,1,1,75,0,1
43934,-100,4,1,1,75,0,0
44993,-100,4,1,2,75,0,0
45346,-100,4,1,1,75,0,1
55228,-100,4,1,1,75,0,0
56640,-100,4,1,1,75,0,0
67934,-100,4,1,1,75,0,0
76405,-100,4,2,2,60,0,0
77111,-100,4,1,1,55,0,0
77817,-100,4,1,1,25,0,0
78522,-100,4,1,1,15,0,0
79228,-100,4,1,1,5,0,0

[Colours]
Combo1 : 205,155,255
Combo2 : 255,136,136
Combo3 : 254,186,146
Combo4 : 255,255,147
Combo5 : 140,255,140
Combo6 : 155,255,255
Combo7 : 164,164,255

[HitObjects]
256,192,10052,12,0,11287,0:0:0:0:
206,205,11464,6,0,L|226:67,1,97.7500018644333,8|0,0:3|0:0,0:0:0:0:
49,204,11817,2,0,L|30:67,1,97.7500018644333
179,78,12169,2,0,L|59:78,1,97.7500018644333
221,81,12522,2,0,P|257:113|123:186,1,293.2500055933
393,101,13228,6,0,L|487:131,1,97.7500018644333
351,101,13581,2,0,L|254:130,1,97.7500018644333
415,99,13934,2,0,P|466:128|397:308,1,293.2500055933
156,210,14640,6,0,L|141:108,1,97.7500018644333
312,211,14993,2,0,L|324:113,1,97.7500018644333
74,286,15346,2,0,P|227:73|134:332,1,782.000014915467
37,331,16934,1,0,0:0:0:0:
286,221,17111,6,0,L|297:87,1,97.7500018644333
177,146,17464,2,0,L|289:145,1,97.7500018644333
166,84,17817,2,0,L|53:84,1,97.7500018644333
386,68,18169,2,0,P|419:92|350:309,1,293.2500055933
257,300,18875,6,0,L|127:301,1,97.7500018644333
288,222,19228,2,0,L|418:223,1,97.7500018644333
89,108,19581,2,0,P|159:333|121:82,1,782.000014915467
417,83,21169,1,0,0:0:0:0:
477,81,21258,1,0,0:0:0:0:
417,83,21346,5,0,0:0:0:0:
170,169,21522,1,0,0:0:0:0:
66,169,21699,2,0,L|56:70,1,97.7500018644333
378,152,22052,2,0,L|390:38,1,97.7500018644333
257,53,22405,1,0,0:0:0:0:
389,55,22581,1,0,0:0:0:0:
136,60,22758,6,0,L|13:59,1,103.499996841431,8|0,0:2|0:0,0:0:0:0:
175,63,23111,2,0,L|39:60,1,103.499996841431,8|0,0:2|0:0,0:0:0:0:
433,58,23464,2,0,L|435:184,1,103.499996841431,8|0,0:2|0:0,0:0:0:0:
295,162,23817,2,0,L|433:161,1,103.499996841431,8|0,0:2|0:0,0:0:0:0:
48,131,24169,6,0,L|158:128,1,103.499996841431,8|0,0:2|0:0,0:0:0:0:
286,134,24522,2,0,L|152:132,1,103.499996841431,8|0,0:2|0:0,0:0:0:0:
433,145,24875,2,0,L|437:32,1,103.499996841431,8|0,0:2|0:0,0:0:0:0:
297,51,25228,1,8,0:2:0:0:
436,41,25404,1,8,0:2:0:0:
106,59,25581,6,0,L|100:169,1,103.499996841431,8|0,0:2|0:0,0:0:0:0:
230,158,25934,2,0,L|124:157,1,103.499996841431,8|0,0:2|0:0,0:0:0:0:
370,147,26287,2,0,L|496:147,1,103.499996841431,8|0,0:2|0:0,0:0:0:0:
307,148,26640,2,0,L|431:148,1,103.499996841431,8|0,0:2|0:0,0:0:0:0:
173,197,26993,6,0,L|158:66,1,103.499996841431,8|0,0:2|0:0,0:0:0:0:
301,195,27346,2,0,L|314:63,1,103.499996841431,8|0,0:2|0:0,0:0:0:0:
39,82,27699,2,0,L|151:76,1,103.499996841431,8|0,0:2|0:0,0:0:0:0:
300,142,28052,1,8,0:2:0:0:
139,168,28228,1,8,0:2:0:0:
382,47,28405,5,8,2:3:0:0:
435,70,28493,1,0,2:0:0:0:
469,115,28581,1,0,2:0:0:0:
476,171,28669,1,0,2:0:0:0:
456,224,28758,1,8,2:3:0:0:
412,260,28846,1,0,2:0:0:0:
356,270,28934,1,0,2:0:0:0:
302,252,29022,1,0,2:0:0:0:
130,163,29111,6,0,L|48:163,1,57.5,8|0,2:3|2:0,2:0:0:0:
130,163,29287,2,0,L|211:163,1,57.5,0|0,2:0|2:0,2:0:0:0:
439,153,29464,2,0,L|520:153,1,57.5,8|0,2:3|2:0,2:0:0:0:
439,153,29640,2,0,L|358:153,1,57.5,0|0,2:0|2:0,2:0:0:0:
214,63,29817,5,8,2:3:0:0:
169,94,29905,1,0,2:0:0:0:
163,150,29993,1,0,2:0:0:0:
201,190,30081,1,0,2:0:0:0:
257,188,30169,1,8,2:3:0:0:
291,144,30258,1,0,2:0:0:0:
281,89,30346,1,0,2:0:0:0:
232,62,30434,1,0,2:0:0:0:
85,65,30522,6,0,L|16:65,1,57.5,8|0,2:3|2:0,2:0:0:0:
263,80,30699,2,0,L|283:148,1,57.5,0|0,2:0|2:0,2:0:0:0:
96,190,30875,2,0,L|190:190,1,57.5,8|0,2:3|2:0,2:0:0:0:
349,191,31052,2,0,L|427:193,1,57.5,0|0,2:0|2:0,2:0:0:0:
234,189,31228,5,8,2:3:0:0:
182,174,31316,1,0,2:0:0:0:
173,121,31404,1,0,2:0:0:0:
217,89,31492,1,0,2:0:0:0:
413,105,31581,2,0,L|347:102,1,57.5,8|0,2:3|2:0,2:0:0:0:
162,83,31758,2,0,L|155:23,1,57.5,0|0,2:0|2:0,2:0:0:0:
352,39,31934,5,8,2:3:0:0:
404,59,32022,1,0,2:0:0:0:
429,109,32110,1,0,2:0:0:0:
413,163,32198,1,0,2:0:0:0:
238,171,32286,1,8,2:3:0:0:
171,156,32375,1,0,2:0:0:0:
408,214,32464,2,0,L|485:246,1,57.5,0|0,2:0|2:0,2:0:0:0:
220,185,32640,6,0,L|221:96,1,57.5,8|0,2:3|2:0,2:0:0:0:
432,171,32817,2,0,L|351:171,1,57.5,0|0,2:0|2:0,2:0:0:0:
168,163,32993,2,0,L|169:95,1,57.5,8|0,2:3|2:0,2:0:0:0:
397,125,33169,2,0,L|321:125,1,57.5,0|0,2:0|2:0,2:0:0:0:
86,121,33346,6,0,L|201:121,2,115
363,124,33875,2,8,L|448:124,1,57.5,8|8,2:3|2:3,2:3:0:0:
201,121,34052,6,0,L|64:121,1,115,6|0,0:0|0:0,0:0:0:0:
340,86,34405,2,0,L|350:238,1,115,8|0,0:0|0:0,0:0:0:0:
43,100,34758,2,0,L|158:100,1,115,2|0,0:0|0:0,0:0:0:0:
469,100,35111,2,0,L|354:100,1,115,10|0,0:0|0:0,0:0:0:0:
80,150,35464,6,0,L|74:32,1,115,2|0,0:0|0:0,0:0:0:0:
327,58,35817,1,8,0:0:0:0:
74,53,35993,1,0,0:0:0:0:
410,56,36169,1,2,0:0:0:0:
157,51,36345,1,0,0:0:0:0:
432,150,36522,2,0,L|438:32,1,115,8|0,0:0|0:0,0:0:0:0:
133,54,36875,6,0,L|9:54,1,115,2|0,0:0|0:0,0:0:0:0:
307,58,37228,2,0,L|170:58,1,115,8|0,0:0|0:0,0:0:0:0:
463,54,37581,2,0,L|462:191,1,115,2|0,0:0|0:0,0:0:0:0:
186,191,37934,2,0,L|349:191,1,115,8|0,0:0|0:0,0:0:0:0:
58,196,38287,5,2,0:0:0:0:
301,190,38464,1,0,0:0:0:0:
47,193,38640,2,0,L|48:66,1,115,8|0,0:0|0:0,0:0:0:0:
313,84,38993,1,2,0:0:0:0:
256,85,39081,1,0,0:0:0:0:
199,83,39169,1,0,0:0:0:0:
466,195,39346,2,0,L|465:68,1,115,8|0,0:0|0:0,0:0:0:0:
144,64,39699,6,0,L|7:65,1,115,6|0,0:0|0:0,0:0:0:0:
356,66,40052,2,0,L|492:66,1,115,8|0,0:0|0:0,0:0:0:0:
185,69,40405,2,0,L|353:66,1,115,2|0,0:0|0:0,0:0:0:0:
59,72,40758,2,0,L|59:232,1,115,8|0,0:0|0:0,0:0:0:0:
368,64,41111,6,0,L|505:65,1,115,2|0,0:0|0:0,0:0:0:0:
156,66,41464,2,0,L|20:66,1,115,8|0,0:0|0:0,0:0:0:0:
324,71,41817,2,0,L|156:68,1,115,2|0,0:0|0:0,0:0:0:0:
453,72,42169,2,0,L|453:232,1,115,8|0,0:0|0:0,0:0:0:0:
147,76,42522,6,0,L|20:76,1,115,2|0,0:0|0:0,0:0:0:0:
271,74,42875,1,8,0:0:0:0:
32,76,43052,1,0,0:0:0:0:
365,76,43228,2,0,L|492:76,1,115,2|0,0:0|0:0,0:0:0:0:
241,74,43581,1,8,0:0:0:0:
480,76,43758,1,0,0:0:0:0:
168,140,43934,5,2,0:0:0:0:
110,140,44022,1,0,0:0:0:0:
110,180,44111,1,0,0:0:0:0:
168,180,44199,1,0,0:0:0:0:
339,138,44287,1,8,0:0:0:0:
397,138,44375,1,0,0:0:0:0:
397,177,44464,1,0,0:0:0:0:
339,177,44552,1,0,0:0:0:0:
139,176,44640,6,0,L|74:176,1,57.5
258,175,44817,2,0,L|323:175,1,57.5,2|0,0:0|0:0,0:0:0:0:
94,238,44993,2,0,P|41:196|88:88,1,172.5,12|0,0:0|0:0,0:0:0:0:
247,84,45346,6,0,L|401:85,1,115,6|0,0:0|0:0,0:0:0:0:
50,100,45699,2,0,L|45:240,1,115,8|0,0:0|0:0,0:0:0:0:
356,71,46052,1,2,0:0:0:0:
117,72,46229,1,0,0:0:0:0:
350,213,46405,2,0,L|346:99,1,115,8|0,0:0|0:0,0:0:0:0:
80,150,46758,6,0,L|74:32,1,115,2|0,0:0|0:0,0:0:0:0:
327,58,47111,1,8,0:0:0:0:
74,53,47287,1,0,0:0:0:0:
410,56,47463,1,2,0:0:0:0:
157,51,47639,1,0,0:0:0:0:
448,151,47816,2,0,L|458:30,1,115,8|0,0:0|0:0,0:0:0:0:
222,47,48169,6,0,L|91:45,1,115,2|0,0:0|0:0,0:0:0:0:
429,50,48522,2,0,L|303:51,1,115,8|0,0:0|0:0,0:0:0:0:
56,53,48875,1,2,0:0:0:0:
309,48,49051,1,0,0:0:0:0:
56,53,49228,2,0,L|54:197,1,115,8|0,0:0|0:0,0:0:0:0:
333,41,49581,6,0,L|454:42,1,115,2|0,0:0|0:0,0:0:0:0:
118,45,49934,1,8,0:0:0:0:
361,43,50111,1,0,0:0:0:0:
83,47,50287,1,2,0:0:0:0:
28,47,50375,1,0,0:0:0:0:
83,47,50464,1,0,0:0:0:0:
377,45,50640,1,8,0:0:0:0:
134,43,50817,1,0,0:0:0:0:
376,46,50993,6,0,L|511:46,1,115,6|0,0:0|0:0,0:0:0:0:
66,50,51346,2,0,L|66:182,1,115,8|0,0:0|0:0,0:0:0:0:
328,132,51699,2,0,L|200:127,1,115,2|0,0:0|0:0,0:0:0:0:
448,149,52052,2,0,L|459:29,1,115,8|0,0:0|0:0,0:0:0:0:
136,46,52405,6,0,L|1:46,1,115,6|0,0:0|0:0,0:0:0:0:
446,50,52758,2,0,L|446:182,1,115,8|0,0:0|0:0,0:0:0:0:
184,132,53111,2,0,L|312:127,1,115,2|0,0:0|0:0,0:0:0:0:
64,149,53464,2,0,L|53:29,1,115,8|0,0:0|0:0,0:0:0:0:
403,300,53817,5,8,3:0:0:0:
450,272,53905,1,0,0:0:0:0:
448,217,53993,1,0,0:0:0:0:
400,191,54081,1,0,0:0:0:0:
237,164,54169,2,0,L|165:164,1,57.5,8|0,0:0|0:0,0:0:0:0:
281,165,54346,1,2,3:0:0:0:
329,136,54434,1,0,0:0:0:0:
319,75,54522,1,0,0:0:0:0:
260,59,54610,1,0,0:0:0:0:
97,66,54699,5,2,0:0:0:0:
39,107,54787,1,0,0:0:0:0:
35,164,54875,1,8,0:0:0:0:
93,208,54963,1,0,0:0:0:0:
382,276,55052,5,0,0:0:0:0:
427,242,55140,1,0,0:0:0:0:
446,188,55228,1,0,0:0:0:0:
431,134,55316,1,0,0:0:0:0:
387,97,55404,1,2,0:0:0:0:
331,92,55493,1,0,0:0:0:0:
174,112,55581,2,0,L|91:112,1,57.5,8|0,0:0|0:0,0:0:0:0:
298,67,55758,2,0,L|361:67,1,57.5
159,79,55934,5,2,0:0:0:0:
33,79,56111,1,2,0:0:0:0:
159,79,56287,1,8,0:0:0:0:
445,79,56464,1,2,0:0:0:0:
135,75,56640,6,0,L|36:178,1,115,6|0,0:0|0:0,0:0:0:0:
128,187,56905,1,2,0:0:0:0:
338,66,56993,1,8,0:0:0:0:
462,68,57169,1,2,0:0:0:0:
158,76,57346,2,0,L|34:73,1,115,2|0,0:0|0:0,0:0:0:0:
227,78,57699,2,0,L|103:75,1,115,8|0,0:0|0:0,0:0:0:0:
377,75,58052,6,0,L|476:180,1,115,2|0,0:0|0:0,0:0:0:0:
384,187,58317,1,2,0:0:0:0:
173,167,58405,1,8,0:0:0:0:
59,165,58581,1,2,0:0:0:0:
352,76,58758,2,0,L|476:73,1,115,2|0,0:0|0:0,0:0:0:0:
291,80,59111,2,0,L|415:77,1,115,8|0,0:0|0:0,0:0:0:0:
71,46,59464,6,0,L|35:172,1,115,2|0,0:0|0:0,0:0:0:0:
119,159,59728,1,2,0:0:0:0:
322,41,59817,1,8,0:0:0:0:
469,44,59993,1,2,0:0:0:0:
150,57,60169,2,0,L|36:56,1,115,2|0,0:0|0:0,0:0:0:0:
215,33,60522,1,8,0:0:0:0:
76,36,60698,1,0,0:0:0:0:
328,57,60875,6,0,L|442:56,1,115,2|0,0:0|0:0,0:0:0:0:
296,57,61228,1,8,0:0:0:0:
437,57,61405,2,0,L|303:57,1,115,0|2,0:0|0:0,0:0:0:0:
71,56,61758,2,0,L|194:56,2,115,0|8|0,0:0|0:0|0:0,0:0:0:0:
463,66,62287,6,0,L|491:195,1,115,6|0,0:0|0:0,0:0:0:0:
424,179,62552,1,2,0:0:0:0:
203,152,62640,1,8,0:0:0:0:
87,153,62816,1,2,0:0:0:0:
397,165,62993,2,0,L|397:42,1,115,2|0,0:0|0:0,0:0:0:0:
161,70,63346,1,8,0:0:0:0:
285,70,63522,1,0,0:0:0:0:
49,66,63699,6,0,L|21:195,1,115,2|0,0:0|0:0,0:0:0:0:
88,179,63964,1,2,0:0:0:0:
309,152,64052,1,8,0:0:0:0:
425,153,64228,1,2,0:0:0:0:
90,172,64405,2,0,L|90:49,1,115,2|0,0:0|0:0,0:0:0:0:
323,70,64758,1,8,0:0:0:0:
199,70,64934,1,0,0:0:0:0:
462,58,65111,6,0,L|462:193,1,115,2|0,0:0|0:0,0:0:0:0:
388,174,65375,1,2,0:0:0:0:
180,92,65464,2,0,L|42:91,1,115,8|2,0:0|0:0,0:2:0:0:
365,98,65817,2,0,L|497:98,1,115,2|0,0:0|0:0,0:0:0:0:
300,72,66169,2,0,L|432:72,1,115,8|0,0:0|0:0,0:0:0:0:
137,60,66522,6,0,P|60:103|146:200,1,230,2|8,0:0|0:0,0:0:0:0:
366,184,67052,2,0,L|513:186,1,115,0|2,0:0|0:0,0:0:0:0:
174,175,67405,2,0,L|23:171,2,115,0|8|0,0:0|0:0|0:0,0:0:0:0:
417,223,67934,6,0,L|491:105,1,115,6|0,0:0|0:0,0:0:0:0:
417,82,68199,1,2,0:0:0:0:
239,95,68287,2,0,L|96:94,1,115,8|2,0:0|0:0,0:0:0:0:
445,99,68640,2,0,L|472:237,1,115
229,91,68993,2,0,L|346:91,1,115,8|0,0:0|0:0,0:0:0:0:
95,223,69346,6,0,L|21:105,1,115,2|0,0:0|0:0,0:0:0:0:
95,82,69611,1,2,0:0:0:0:
272,95,69699,2,0,L|415:94,1,115,8|2,0:0|0:0,0:0:0:0:
51,103,70052,2,0,L|24:241,1,115
263,96,70405,2,0,L|146:96,1,115,8|0,0:0|0:0,0:0:0:0:
396,79,70758,6,0,P|466:104|397:218,1,230,2|8,0:0|0:0,0:0:0:0:
244,265,71287,2,0,L|375:241,1,115,2|8,0:0|0:0,0:0:0:0:
118,213,71640,1,2,0:0:0:0:
356,174,71817,1,0,0:0:0:0:
113,223,71993,6,0,P|47:176|130:15,1,287.5,2|0,0:0|0:0,0:0:0:0:
371,54,72522,2,0,L|505:46,1,115,8|0,0:0|0:0,0:0:0:0:
136,59,72875,2,0,L|8:59,1,115,2|0,0:0|0:0,0:0:0:0:
255,52,73228,2,0,B|111:51,1,115,8|0,0:0|0:0,0:0:0:0:
403,57,73581,5,0,0:0:0:0:
430,62,73625,1,0,0:0:0:0:
451,81,73669,1,0,0:0:0:0:
459,109,73713,1,0,0:0:0:0:
454,137,73757,1,0,0:0:0:0:
434,157,73801,1,0,0:0:0:0:
407,166,73845,1,0,0:0:0:0:
254,205,73934,6,0,L|393:204,1,115,8|0,0:0|0:0,0:0:0:0:
135,217,74287,2,0,L|93:83,1,115,2|0,0:0|0:0,0:0:0:0:
443,105,74640,2,0,L|311:106,1,115,8|0,0:0|0:0,0:0:0:0:
83,109,74993,6,0,L|81:235,1,115,2|0,0:0|0:0,0:0:0:0:
359,125,75346,2,0,L|478:124,1,115,8|0,0:0|0:0,0:0:0:0:
202,119,75699,2,0,L|365:119,1,115,2|0,0:0|0:0,0:0:0:0:
53,114,76052,2,0,L|88:227,1,115,10|0,0:0|0:0,0:0:0:0:
459,114,76405,5,4,0:0:0:0:
256,192,76581,12,0,79228,0:0:0:0:
