osu file format v14

[General]
AudioFilename: audio.mp3
AudioLeadIn: 0
PreviewTime: 32993
Countdown: 0
SampleSet: Normal
StackLeniency: 0.4
Mode: 2
LetterboxInBreaks: 0
WidescreenStoryboard: 1

[Editor]
Bookmarks: 31934,32640,33346,103217,125806,148394,168158
DistanceSpacing: 1.1
BeatDivisor: 4
GridSize: 4
TimelineZoom: 2.599999

[Metadata]
Title:Rainbow Road
TitleUnicode:Rainbow Road
Artist:nanobii
ArtistUnicode:nanobii
Creator:Brunoob
Version:Kukkai's Rain
Source:
Tags:Happy Hardcore fa Featured Artist Techno Happycore Electronic Instrumental Brunoob -Joni- alienflybot autofanboy afb -MomoX [_-Kukkai-_]
BeatmapID:2574300
BeatmapSetID:1234892

[Difficulty]
HPDrainRate:6
CircleSize:4
OverallDifficulty:9
ApproachRate:9
SliderMultiplier:2.2
SliderTickRate:2

[Events]
//Background and Video events
0,0,"BG.jpg",0,0
//Break Periods
//Storyboard Layer 0 (Background)
//Storyboard Layer 1 (Fail)
//Storyboard Layer 2 (Pass)
//Storyboard Layer 3 (Foreground)
//Storyboard Layer 4 (Overlay)
//Storyboard Sound Samples

[TimingPoints]
170,352.941176470588,4,1,1,45,1,0
11464,-117.647058823529,4,1,1,45,0,0
22758,-111.111111111111,4,1,1,50,0,0
28405,-100,4,1,1,25,0,0
29111,-100,4,1,1,35,0,0
29817,-100,4,1,1,45,0,0
30522,-100,4,1,1,55,0,0
31228,-100,4,1,1,65,0,0
33875,-100,4,1,1,45,0,0
34052,-100,4,1,1,75,0,1
43934,-100,4,1,1,75,0,0
44993,-100,4,1,2,75,0,0
45346,-100,4,1,1,75,0,1
55228,-100,4,1,1,75,0,0
56640,-100,4,1,1,75,0,0
67934,-100,4,1,1,75,0,0
76405,-100,4,2,2,60,0,0
77111,-100,4,1,1,55,0,0
77817,-100,4,1,1,25,0,0
78522,-100,4,1,1,15,0,0
79228,-100,4,1,1,5,0,0

[Colours]
Combo1 : 205,155,255
Combo2 : 255,136,136
Combo3 : 254,186,146
Combo4 : 255,255,147
Combo5 : 140,255,140
Combo6 : 155,255,255
Combo7 : 164,164,255

[HitObjects]
256,192,10052,12,0,11287,0:0:0:0:
476,284,11464,6,0,L|256:284,2,187.000003566742,8|0|0,0:3|0:0|0:0,0:0:0:0:
188,280,12522,2,0,P|92:232|188:136,1,280.500005350113,0|0,0:0|0:0,0:0:0:0:
284,132,13228,6,0,L|72:132,1,187.000003566742
396,352,13934,2,0,P|320:260|148:244,1,280.500005350113
272,236,14640,6,0,L|472:236,1,187.000003566742
168,352,15346,2,0,P|316:80|380:372,1,748.000014266968,0|0,0:0|0:0,0:0:0:0:
120,336,17111,6,0,L|336:336,2,187.000003566742,0|0|0,0:0|0:0|0:0,0:0:0:0:
416,200,18169,2,0,L|96:200,1,280.500005350113,0|0,0:0|0:0,0:0:0:0:
240,200,18875,6,0,L|440:200,1,187.000003566742
136,344,19581,2,0,P|472:232|196:28,1,841.500016050339
160,24,21258,1,0,0:0:0:0:
108,28,21346,6,0,L|108:148,1,93.500001783371
276,360,21699,2,0,L|276:244,1,93.500001783371,0|0,0:0|0:0,0:0:0:0:
184,272,22052,1,0,0:0:0:0:
92,272,22228,1,0,0:0:0:0:
252,272,22405,1,0,0:0:0:0:
92,180,22581,1,0,0:0:0:0:
352,344,22758,6,0,L|472:344,1,98.9999969787599,8|0,0:2|0:0,0:0:0:0:
292,348,23111,2,0,L|184:348,1,98.9999969787599,8|0,0:2|0:0,0:0:0:0:
352,352,23464,2,0,L|352:216,1,98.9999969787599,8|0,0:2|0:0,0:0:0:0:
192,248,23817,2,0,L|84:248,1,98.9999969787599,8|0,0:2|0:0,0:0:0:0:
344,244,24169,6,0,L|344:120,1,98.9999969787599,8|0,0:2|0:0,0:0:0:0:
236,240,24522,2,0,L|236:132,1,98.9999969787599,8|0,0:2|0:0,0:0:0:0:
128,236,24875,2,0,L|128:116,1,98.9999969787599,8|0,0:2|0:0,0:0:0:0:
288,136,25228,1,8,0:2:0:0:
128,137,25405,1,8,0:2:0:0:
372,360,25581,5,8,0:2:0:0:
472,340,25757,1,0,0:0:0:0:
476,248,25933,1,8,0:2:0:0:
368,224,26110,1,0,0:0:0:0:
208,224,26287,2,0,L|72:224,1,98.9999969787599,8|0,0:2|0:0,0:0:0:0:
269,224,26640,2,0,L|393:224,1,98.9999969787599,8|0,0:2|0:0,0:0:0:0:
84,356,26993,6,0,L|84:240,1,98.9999969787599,8|0,0:2|0:0,0:0:0:0:
244,248,27346,2,0,L|376:248,1,98.9999969787599,8|0,0:2|0:0,0:0:0:0:
183,248,27699,2,0,L|71:248,1,98.9999969787599,8|0,0:2|0:0,0:0:0:0:
244,248,28052,1,8,0:2:0:0:
84,248,28228,1,8,0:2:0:0:
328,364,28405,5,8,2:3:0:0:
382,363,28493,1,0,2:0:0:0:
429,335,28581,1,0,2:0:0:0:
455,288,28669,1,0,2:0:0:0:
455,233,28757,1,8,2:3:0:0:
427,187,28846,1,0,2:0:0:0:
379,160,28934,1,0,2:0:0:0:
325,161,29022,1,0,2:0:0:0:
268,380,29111,5,8,2:3:0:0:
213,379,29199,1,0,2:0:0:0:
166,351,29287,1,0,2:0:0:0:
140,304,29375,1,0,2:0:0:0:
140,249,29463,1,8,2:3:0:0:
168,203,29552,1,0,2:0:0:0:
216,176,29640,1,0,2:0:0:0:
270,177,29728,1,0,2:0:0:0:
424,372,29817,5,8,2:3:0:0:
450,324,29905,1,0,2:0:0:0:
460,270,29993,1,0,2:0:0:0:
451,216,30081,1,0,2:0:0:0:
424,168,30169,1,8,2:3:0:0:
383,132,30258,1,0,2:0:0:0:
333,111,30346,1,0,2:0:0:0:
278,108,30434,1,0,2:0:0:0:
224,108,30522,5,8,2:3:0:0:
169,110,30610,1,0,2:0:0:0:
118,131,30698,1,0,2:0:0:0:
77,167,30786,1,0,2:0:0:0:
51,215,30874,1,8,2:3:0:0:
42,269,30963,1,0,2:0:0:0:
51,323,31051,1,0,2:0:0:0:
78,371,31139,1,0,2:0:0:0:
268,320,31228,6,0,L|324:320,1,55,8|0,2:3|2:0,0:0:0:0:
268,320,31405,1,0,2:0:0:0:
215,308,31493,1,0,2:0:0:0:
180,267,31581,1,8,2:3:0:0:
179,213,31669,1,0,2:0:0:0:
212,170,31757,1,0,2:0:0:0:
264,157,31846,1,0,2:0:0:0:
432,312,31934,6,0,L|488:312,1,55,8|0,2:3|2:0,0:0:0:0:
432,312,32111,2,0,L|364:312,1,55,0|0,2:0|2:0,0:0:0:0:
432,312,32287,1,8,2:3:0:0:
488,288,32375,1,0,2:0:0:0:
488,232,32463,1,0,2:0:0:0:
433,210,32551,1,0,2:0:0:0:
260,212,32640,5,8,2:3:0:0:
200,212,32728,1,0,2:0:0:0:
140,212,32817,1,0,2:0:0:0:
200,212,32905,1,0,2:0:0:0:
376,216,32993,2,0,L|376:144,1,55,8|0,2:3|2:0,0:0:0:0:
192,164,33169,2,0,L|108:164,1,55,0|0,2:0|2:0,0:0:0:0:
328,156,33346,6,0,L|456:156,2,110
200,160,33875,2,0,L|128:160,1,55,8|8,2:3|2:3,0:0:0:0:
336,336,34052,6,0,L|452:336,1,110,6|0,0:0|0:0,0:0:0:0:
260,336,34405,2,0,L|260:200,1,110,8|0,0:0|0:0,0:0:0:0:
448,224,34758,2,0,L|316:224,1,110,2|0,0:0|0:0,0:0:0:0:
88,348,35111,2,0,P|32:328|104:220,1,220,10|2,0:0|0:0,0:0:0:0:
200,216,35640,1,0,0:0:0:0:
388,212,35817,6,0,L|388:88,1,110,8|0,0:0|0:0,0:0:0:0:
200,100,36169,2,0,L|76:100,1,110,2|0,0:0|0:0,0:0:0:0:
356,320,36522,2,0,L|136:320,1,220,8|2,0:0|0:0,0:0:0:0:
24,320,37052,1,0,0:0:0:0:
212,320,37228,6,0,L|348:320,1,110,8|0,0:0|0:0,0:0:0:0:
136,316,37581,2,0,L|20:316,1,110,2|0,0:0|0:0,0:0:0:0:
292,316,37934,2,0,P|356:280|280:184,1,220,8|2,0:0|0:0,0:0:0:0:
176,184,38464,1,0,0:0:0:0:
372,360,38640,6,0,L|372:224,1,110,8|0,0:0|0:0,0:0:0:0:
240,248,38993,2,0,L|372:248,1,110,2|0,0:0|0:0,0:0:0:0:
164,252,39346,2,0,L|164:112,1,110,8|0,0:0|0:0,0:0:0:0:
428,140,39699,6,0,L|300:140,1,110,6|0,0:0|0:0,0:0:0:0:
132,140,40052,2,0,L|272:140,1,110,8|0,0:0|0:0,0:0:0:0:
428,136,40405,2,0,L|428:260,1,110,2|0,0:0|0:0,0:0:0:0:
180,344,40758,2,0,L|452:344,1,220,8|2,0:0|0:0,0:0:0:0:
292,344,41287,1,0,0:0:0:0:
104,348,41464,6,0,L|104:212,1,110,8|0,0:0|0:0,0:0:0:0:
292,236,41817,2,0,L|176:236,1,110,2|0,0:0|0:0,0:0:0:0:
432,236,42169,2,0,P|488:208|408:108,1,220,8|2,0:0|0:0,0:0:0:0:
312,112,42699,1,0,0:0:0:0:
124,112,42875,6,0,L|240:112,1,110,8|0,0:0|0:0,0:0:0:0:
96,112,43228,2,0,L|96:232,1,110,2|0,0:0|0:0,0:0:0:0:
284,224,43581,2,0,L|416:224,1,110,8|0,0:0|0:0,0:0:0:0:
128,352,43934,5,2,0:0:0:0:
64,332,44022,1,0,0:0:0:0:
60,280,44110,1,0,0:0:0:0:
121,253,44198,1,0,0:0:0:0:
288,252,44287,2,0,L|364:252,1,55,8|0,0:0|0:0,0:0:0:0:
256,252,44464,1,0,0:0:0:0:
196,236,44552,1,0,0:0:0:0:
191,184,44640,5,0,0:0:0:0:
247,164,44728,1,0,0:0:0:0:
420,156,44817,2,0,L|420:92,1,55,2|0,0:0|0:0,0:0:0:0:
228,104,44993,2,0,L|112:104,1,110,12|0,0:0|0:0,0:0:0:0:
392,360,45346,6,0,L|392:232,1,110,6|0,0:0|0:0,0:0:0:0:
204,256,45699,2,0,L|204:120,1,110,8|0,0:0|0:0,0:0:0:0:
16,140,46052,2,0,L|16:16,1,110,2|0,0:0|0:0,0:0:0:0:
260,344,46405,2,0,L|4:344,1,220,8|2,0:0|0:0,0:0:0:0:
40,344,46934,1,0,0:0:0:0:
228,340,47111,6,0,L|372:340,1,110,8|0,0:0|0:0,0:0:0:0:
152,340,47464,2,0,L|152:204,1,110,2|0,0:0|0:0,0:0:0:0:
396,224,47817,2,0,P|464:204|384:120,1,220,8|2,0:0|0:0,0:0:0:0:
288,116,48346,1,0,0:0:0:0:
100,124,48522,6,0,L|232:124,1,110,8|0,0:0|0:0,0:0:0:0:
396,120,48875,2,0,L|260:120,1,110,2|0,0:0|0:0,0:0:0:0:
40,360,49228,2,0,L|272:360,1,220,8|2,0:0|0:0,0:0:0:0:
376,356,49758,1,0,0:0:0:0:
188,356,49934,6,0,L|188:216,1,110,8|0,0:0|0:0,0:0:0:0:
320,244,50287,2,0,L|200:244,1,110,2|0,0:0|0:0,0:0:0:0:
24,244,50640,2,0,L|24:112,1,110,8|0,0:0|0:0,0:0:0:0:
280,352,50993,6,0,L|416:352,1,110,6|0,0:0|0:0,0:0:0:0:
204,352,51346,2,0,L|204:228,1,110,8|0,0:0|0:0,0:0:0:0:
392,240,51699,2,0,L|392:108,1,110,2|0,0:0|0:0,0:0:0:0:
204,136,52052,2,0,L|80:136,1,110,8|0,0:0|0:0,0:0:0:0:
368,364,52405,6,0,L|368:240,1,110,6|0,0:0|0:0,0:0:0:0:
180,260,52758,2,0,L|180:136,1,110,8|0,0:0|0:0,0:0:0:0:
368,148,53111,2,0,L|216:148,1,110,2|0,0:0|0:0,0:0:0:0:
72,148,53464,2,0,L|72:28,1,110,8|0,0:0|0:0,0:0:0:0:
344,352,53817,5,8,3:0:0:0:
404,352,53905,1,0,0:0:0:0:
404,292,53993,1,0,0:0:0:0:
344,288,54081,1,0,0:0:0:0:
232,288,54169,1,8,0:0:0:0:
228,228,54258,1,0,0:0:0:0:
316,224,54346,1,2,3:0:0:0:
376,224,54434,1,0,0:0:0:0:
316,224,54522,1,0,0:0:0:0:
256,224,54611,1,0,0:0:0:0:
88,232,54699,1,2,0:0:0:0:
28,232,54787,1,0,0:0:0:0:
28,172,54875,1,8,0:0:0:0:
88,172,54964,1,0,0:0:0:0:
260,356,55052,6,0,L|336:356,1,55,0|0,0:0|0:0,0:0:0:0:
260,356,55228,2,0,L|184:356,1,55,0|0,0:0|0:0,0:0:0:0:
268,356,55405,1,2,0:0:0:0:
328,356,55493,1,0,0:0:0:0:
264,352,55581,1,8,0:0:0:0:
200,352,55669,1,0,0:0:0:0:
272,352,55758,1,0,0:0:0:0:
344,352,55846,1,0,0:0:0:0:
124,304,55934,6,0,L|124:184,1,110,2|2,0:0|0:0,0:0:0:0:
300,192,56287,1,8,0:0:0:0:
124,196,56464,1,2,0:0:0:0:
384,320,56640,6,0,L|252:320,1,110,6|0,0:0|0:0,0:0:0:0:
200,320,56905,1,2,0:0:0:0:
128,320,56993,1,8,0:0:0:0:
316,252,57169,2,0,L|316:128,1,110,2|2,0:0|0:0,0:0:0:0:
200,136,57522,1,0,0:0:0:0:
388,132,57699,2,0,L|488:72,1,110,8|0,0:0|0:0,0:0:0:0:
180,356,58052,6,0,L|180:228,1,110,2|0,0:0|0:0,0:0:0:0:
252,248,58317,1,2,0:0:0:0:
324,248,58405,1,8,0:0:0:0:
136,244,58581,1,2,0:0:0:0:
28,248,58758,2,0,L|28:128,1,110,2|0,0:0|0:0,0:0:0:0:
216,140,59111,2,0,L|100:140,1,110,8|0,0:0|0:0,0:0:0:0:
388,356,59464,6,0,L|504:356,1,110,2|0,0:0|0:0,0:0:0:0:
428,356,59728,1,2,0:0:0:0:
356,356,59817,1,8,0:0:0:0:
168,360,59993,1,2,0:0:0:0:
280,356,60169,2,0,L|280:228,1,110,2|0,0:0|0:0,0:0:0:0:
92,248,60522,2,0,L|220:248,1,110,8|0,0:0|0:0,0:0:0:0:
452,248,60875,6,0,L|452:128,1,110,2|0,0:0|0:0,0:0:0:0:
264,140,61228,2,0,L|264:256,1,110,8|0,0:0|0:0,0:0:0:0:
376,248,61581,2,0,L|496:248,1,110,2|0,0:0|0:0,0:0:0:0:
304,248,61934,1,8,0:0:0:0:
488,248,62111,1,0,0:0:0:0:
188,184,62287,6,0,L|328:184,1,110,6|0,0:0|0:0,0:0:0:0:
372,184,62552,1,2,0:0:0:0:
300,184,62640,1,8,0:0:0:0:
112,188,62817,2,0,L|112:52,1,110,2|2,0:0|0:0,0:0:0:0:
232,80,63169,1,0,0:0:0:0:
44,84,63346,2,0,L|164:84,1,110,8|0,0:0|0:0,0:0:0:0:
424,332,63699,6,0,L|284:332,1,110,2|0,0:0|0:0,0:0:0:0:
240,332,63964,1,2,0:0:0:0:
168,332,64052,1,8,0:0:0:0:
356,256,64228,1,2,0:0:0:0:
468,256,64405,2,0,L|468:132,1,110,2|0,0:0|0:0,0:0:0:0:
280,144,64758,2,0,L|416:144,1,110,8|0,0:0|0:0,0:0:0:0:
132,352,65111,6,0,L|4:352,1,110,2|0,0:0|0:0,0:0:0:0:
92,352,65375,1,2,0:0:0:0:
164,352,65464,1,8,0:0:0:0:
350,348,65640,1,2,0:0:0:0:
460,348,65817,2,0,L|336:348,1,110,2|0,0:0|0:0,0:0:0:0:
184,364,66169,2,0,L|184:240,1,110,8|0,0:0|0:0,0:0:0:0:
448,240,66522,6,0,L|448:120,1,110,2|0,0:0|0:0,0:0:0:0:
260,360,66875,2,0,P|192:328|264:236,1,220,8|2,0:0|0:0,0:0:0:0:
424,236,67405,1,0,0:0:0:0:
164,240,67581,2,0,L|164:104,1,110,8|0,0:0|0:0,0:0:0:0:
416,128,67934,5,6,0:0:0:0:
272,128,68111,2,0,L|272:196,1,55,0|2,0:0|0:0,0:0:0:0:
344,184,68287,1,8,0:0:0:0:
152,188,68464,2,0,L|36:188,2,110,2|0|0,0:0|0:0|0:0,0:0:0:0:
344,184,68993,2,0,L|344:48,1,110,8|0,0:0|0:0,0:0:0:0:
88,336,69346,5,2,0:0:0:0:
232,336,69522,1,0,0:0:0:0:
160,336,69611,1,2,0:0:0:0:
88,336,69699,1,8,0:0:0:0:
276,268,69875,1,2,0:0:0:0:
388,264,70052,2,0,L|388:144,1,110,0|0,0:0|0:0,0:0:0:0:
200,160,70405,2,0,L|200:32,1,110,8|0,0:0|0:0,0:0:0:0:
448,56,70758,6,0,L|296:56,1,110,2|0,0:0|0:0,0:0:0:0:
196,60,71111,2,0,L|196:204,1,110,8|2,0:0|0:0,0:0:0:0:
364,176,71464,1,8,0:0:0:0:
100,344,71640,2,0,L|96:220,1,110,2|0,0:0|0:0,0:0:0:0:
348,232,71993,6,0,L|120:232,1,220,2|0,0:0|0:0,0:0:0:0:
316,216,72522,2,0,L|328:96,1,110,8|0,0:0|0:0,0:0:0:0:
192,104,72875,2,0,L|172:236,1,110,2|0,0:0|0:0,0:0:0:0:
336,216,73228,1,8,0:0:0:0:
176,216,73405,1,0,0:0:0:0:
420,348,73581,5,0,0:0:0:0:
446,341,73625,1,0,0:0:0:0:
466,323,73669,1,0,0:0:0:0:
474,297,73713,1,0,0:0:0:0:
468,271,73757,1,0,0:0:0:0:
450,251,73801,1,0,0:0:0:0:
424,242,73845,1,0,0:0:0:0:
232,248,73934,6,0,L|108:248,1,110,8|0,0:0|0:0,0:0:0:0:
372,176,74287,2,0,L|500:176,1,110,2|0,0:0|0:0,0:0:0:0:
208,360,74640,2,0,L|208:236,1,110,8|0,0:0|0:0,0:0:0:0:
344,256,74993,6,0,L|344:132,1,110,2|0,0:0|0:0,0:0:0:0:
156,152,75346,2,0,L|20:156,1,110,8|0,0:0|0:0,0:0:0:0:
308,152,75699,2,0,L|308:284,1,110,2|0,0:0|0:0,0:0:0:0:
176,184,76052,2,0,L|176:320,1,110,10|0,0:0|0:0,0:0:0:0:
432,296,76405,5,4,0:0:0:0:
256,192,76581,12,0,79228,0:0:0:0:
