osu file format v14

[General]
AudioFilename: audio.mp3
AudioLeadIn: 0
PreviewTime: 32993
Countdown: 0
SampleSet: Soft
StackLeniency: 0.4
Mode: 2
LetterboxInBreaks: 0
WidescreenStoryboard: 1

[Editor]
Bookmarks: 103217,125806,148394,168158
DistanceSpacing: 2.1
BeatDivisor: 4
GridSize: 8
TimelineZoom: 2.1

[Metadata]
Title:Rainbow Road
TitleUnicode:Rainbow Road
Artist:nanobii
ArtistUnicode:nanobii
Creator:Brunoob
Version:Joni's Salad
Source:
Tags:Happy Hardcore fa Featured Artist Techno Happycore Electronic Instrumental Brunoob -Joni- alienflybot autofanboy afb -MomoX [_-Kukkai-_]
BeatmapID:2567189
BeatmapSetID:1234892

[Difficulty]
HPDrainRate:4
CircleSize:3
OverallDifficulty:7
ApproachRate:7
SliderMultiplier:1.4
SliderTickRate:1

[Events]
//Background and Video events
0,0,"BG.jpg",0,0
//Break Periods
//Storyboard Layer 0 (Background)
//Storyboard Layer 1 (Fail)
//Storyboard Layer 2 (Pass)
//Storyboard Layer 3 (Foreground)
//Storyboard Layer 4 (Overlay)
//Storyboard Sound Samples

[TimingPoints]
170,352.941176470588,4,1,1,45,1,0
22758,-100,4,1,1,50,0,0
28405,-100,4,1,1,25,0,0
29111,-100,4,1,1,35,0,0
29817,-100,4,1,1,45,0,0
30522,-100,4,1,1,55,0,0
31228,-100,4,1,1,65,0,0
33875,-100,4,1,1,45,0,0
34052,-100,4,1,1,75,0,1
43934,-100,4,1,1,75,0,0
44993,-100,4,1,2,75,0,0
45346,-100,4,1,1,75,0,1
55228,-100,4,1,1,75,0,0
76405,-100,4,2,2,60,0,0
77111,-100,4,1,1,55,0,0
77817,-100,4,1,1,25,0,0
78522,-100,4,1,1,15,0,0
79228,-100,4,1,1,5,0,0

[Colours]
Combo1 : 205,155,255
Combo2 : 255,136,136
Combo3 : 254,186,146
Combo4 : 255,255,147
Combo5 : 140,255,140
Combo6 : 155,255,255
Combo7 : 164,164,255

[HitObjects]
256,192,10052,12,0,11111,0:0:0:0:
203,301,11464,6,0,L|63:300,2,140,8|0|0,0:3|0:0|0:0,0:0:0:0:
370,305,12522,2,0,P|452:226|329:208,1,280,0|0,0:0|0:0,0:0:0:0:
197,192,13581,5,0,0:0:0:0:
384,159,13934,2,0,B|425:63|425:63|220:61,1,280,0|0,0:0|0:0,0:0:0:0:
124,61,14993,5,0,0:0:0:0:
402,317,15346,2,0,P|370:142|189:330,1,560,0|0,0:0|0:0,0:0:0:0:
375,302,17111,5,0,0:0:0:0:
283,266,17464,1,0,0:0:0:0:
194,234,17817,1,0,0:0:0:0:
96,189,18169,2,0,P|242:164|398:142,1,280,0|0,0:0|0:0,0:0:0:0:
248,321,19228,5,0,0:0:0:0:
406,331,19581,2,0,P|432:173|97:223,1,630,0|0,0:0|0:0,0:0:0:0:
165,269,21346,5,0,0:0:0:0:
250,273,21522,1,0,0:0:0:0:
338,280,21699,2,0,L|193:281,1,140,0|0,0:0|0:0,0:0:0:0:
336,144,22405,1,0,0:0:0:0:
332,48,22581,1,0,0:0:0:0:
162,51,22758,5,8,0:2:0:0:
324,329,23111,2,0,L|229:210,1,140,8|8,0:2|0:2,0:0:0:0:
73,245,23817,1,8,0:2:0:0:
206,204,24169,5,8,0:2:0:0:
323,154,24522,1,8,0:2:0:0:
152,106,24875,1,8,0:2:0:0:
310,316,25228,1,8,0:2:0:0:
367,304,25405,1,8,0:2:0:0:
424,289,25581,6,0,P|466:239|415:200,1,140,8|8,0:2|0:2,0:0:0:0:
264,200,26287,1,8,0:2:0:0:
110,210,26640,2,0,P|155:136|230:129,1,140,8|8,0:2|0:2,0:0:0:0:
380,294,27346,6,0,L|213:294,1,140,8|8,0:2|0:2,0:0:0:0:
88,241,28052,1,8,0:2:0:0:
168,205,28228,1,8,0:2:0:0:
351,273,28405,6,0,P|400:245|336:199,1,140,8|8,2:3|2:3,0:0:0:0:
237,268,29111,1,8,2:3:0:0:
121,234,29464,2,0,L|160:145,1,70,8|0,2:3|2:0,0:0:0:0:
264,120,29817,5,8,2:3:0:0:
417,204,30169,2,0,L|417:122,1,70,8|0,2:3|2:0,0:0:0:0:
321,281,30522,1,8,2:3:0:0:
146,290,30875,1,8,2:3:0:0:
256,192,31228,12,0,33346,0:0:0:0:
151,323,33875,5,8,2:3:0:0:
332,257,34052,2,0,L|474:258,2,140,6|8|2,0:0|0:0|0:0,0:0:0:0:
42,184,35111,2,0,P|82:105|143:82,1,140,10|2,0:0|0:0,0:0:0:0:
295,79,35817,5,8,0:0:0:0:
387,76,36169,1,2,0:0:0:0:
107,331,36522,2,0,P|78:258|151:227,1,140,8|2,0:0|0:0,0:0:0:0:
301,209,37228,6,0,L|444:203,1,140,8|2,0:0|0:0,0:0:0:0:
165,143,37934,2,0,L|38:68,2,140,8|2|8,0:0|0:0|0:0,0:0:0:0:
312,64,38993,1,2,0:0:0:0:
412,65,39346,1,8,0:0:0:0:
136,286,39699,6,0,P|72:249|63:169,1,140,6|8,0:0|0:0,0:0:0:0:
153,152,40405,1,2,0:0:0:0:
413,96,40758,2,0,L|275:62,1,140,8|2,0:0|0:0,0:0:0:0:
155,294,41464,6,0,L|168:153,1,140,8|2,0:0|0:0,0:0:0:0:
444,336,42169,2,0,L|290:336,2,140,8|2|8,0:0|0:0|0:0,0:0:0:0:
264,230,43228,2,0,P|225:176|277:150,1,140,2|8,0:0|0:0,0:0:0:0:
458,159,43934,6,0,L|458:70,1,70,2|0,0:0|0:0,0:0:0:0:
353,65,44287,2,0,L|201:66,1,140,8|0,0:0|0:0,0:0:0:0:
265,238,44817,1,2,0:0:0:0:
335,237,44993,2,0,L|256:239,1,70,12|0,0:0|0:0,0:0:0:0:
69,325,45346,6,0,P|49:289|80:194,1,140,6|8,0:0|0:0,0:0:0:0:
213,165,46052,1,2,0:0:0:0:
389,205,46405,2,0,L|231:204,1,140,8|2,0:0|0:0,0:0:0:0:
386,85,47111,5,8,0:0:0:0:
217,96,47464,1,2,0:0:0:0:
441,164,47817,2,0,L|283:164,1,140,8|2,0:0|0:0,0:0:0:0:
122,259,48522,6,0,P|89:179|138:148,1,140,8|2,0:0|0:0,0:0:0:0:
357,321,49228,2,0,L|212:297,2,140,8|2|8,0:0|0:0|0:0,0:0:0:0:
181,204,50287,2,0,L|140:58,1,140,2|8,0:0|0:0,0:0:0:0:
410,161,50993,6,0,P|400:93|320:70,1,140,6|8,0:0|0:0,0:0:0:0:
200,66,51699,1,2,0:0:0:0:
78,67,52052,1,8,0:0:0:0:
360,268,52405,5,6,0:0:0:0:
242,248,52758,2,0,L|92:214,1,140,8|2,0:0|0:0,0:0:0:0:
219,141,53464,1,8,0:0:0:0:
459,132,53817,5,8,3:0:0:0:
256,192,54169,12,8,56287,0:0:0:0:
285,326,56640,6,0,L|286:199,1,105,6|2,0:0|0:0,0:0:0:0:
182,193,57169,2,0,P|191:139|290:126,1,140,2|0,0:0|0:0,0:0:0:0:
359,114,57699,1,8,0:0:0:0:
183,326,58052,6,0,L|186:217,1,105,2|2,0:0|0:0,0:0:0:0:
82,188,58581,2,0,P|98:139|191:112,1,140,2|0,0:0|0:0,0:0:0:0:
264,92,59111,1,8,0:0:0:0:
418,325,59464,6,0,L|420:215,1,105,2|2,0:0|0:0,0:0:0:0:
299,210,59993,2,0,P|310:152|391:123,1,140,2|0,0:0|0:0,0:0:0:0:
322,81,60522,1,8,0:0:0:0:
236,85,60699,1,0,0:0:0:0:
150,158,60875,6,0,P|83:121|114:60,1,140,2|8,0:0|0:0,0:0:0:0:
275,304,61581,2,0,L|274:220,1,70,2|0,0:0|0:0,0:0:0:0:
361,142,61934,2,0,L|277:142,1,70,8|0,0:0|0:0,0:0:0:0:
109,156,62287,6,0,P|68:107|84:79,1,105,6|2,0:0|0:0,0:0:0:0:
184,227,62817,2,0,L|232:77,1,140,2|0,0:0|0:0,0:0:0:0:
333,91,63346,1,8,0:0:0:0:
126,188,63699,6,0,L|126:72,1,105,2|2,0:0|0:0,0:0:0:0:
248,80,64228,2,0,P|243:157|173:169,1,140,2|0,0:0|0:0,0:0:0:0:
254,252,64758,1,8,0:0:0:0:
78,333,65111,6,0,L|80:226,1,105,2|2,0:0|0:0,0:0:0:0:
214,223,65640,2,0,L|307:99,1,140,2|0,0:0|0:0,0:0:0:0:
225,92,66169,2,0,L|160:49,1,70,8|0,0:0|0:0,0:0:0:0:
362,150,66522,6,0,P|407:123|368:63,1,140,2|8,0:0|0:0,0:0:0:0:
166,272,67405,1,0,0:0:0:0:
103,273,67581,1,8,0:0:0:0:
166,272,67758,1,0,0:0:0:0:
334,268,67934,6,0,L|309:136,1,105,6|2,0:0|0:0,0:0:0:0:
213,191,68464,2,0,P|213:125|294:79,1,140,2|0,0:0|0:0,0:0:0:0:
175,56,68993,1,8,0:0:0:0:
251,334,69346,6,0,L|252:219,1,105,2|2,0:0|0:0,0:0:0:0:
130,228,69875,2,0,P|63:217|81:164,1,140,2|0,0:0|0:0,0:0:0:0:
187,135,70405,1,8,0:0:0:0:
439,323,70758,6,0,L|279:323,2,140,2|8|8,0:0|0:0|0:0,0:0:0:0:
337,232,71640,1,2,0:0:0:0:
181,234,71993,1,2,0:0:0:0:
58,138,72522,6,0,P|89:71|177:59,1,140,8|2,0:0|0:0,0:0:0:0:
237,49,73052,1,0,0:0:0:0:
310,141,73228,2,0,L|142:139,1,140,8|0,0:0|0:0,0:0:0:0:
440,332,73934,6,0,P|427:289|340:254,1,140,8|2,0:0|0:0,0:0:0:0:
165,171,74640,2,0,P|120:122|180:91,1,140,8|2,0:0|0:0,0:0:0:0:
366,162,75346,6,0,L|233:87,1,140,8|2,0:0|0:0,0:0:0:0:
118,263,76052,1,10,0:0:0:0:
281,263,76405,5,4,0:0:0:0:
256,192,76758,12,0,79228,0:0:0:0:
