osu file format v14

[General]
AudioFilename: audio.mp3
AudioLeadIn: 0
PreviewTime: 143999
Countdown: 1
SampleSet: Soft
StackLeniency: 0.7
Mode: 0
LetterboxInBreaks: 0
WidescreenStoryboard: 0

[Editor]
Bookmarks: 9999,21333,42666,63999,87999,123999
DistanceSpacing: 0.8
BeatDivisor: 4
GridSize: 32
TimelineZoom: 1.3

[Metadata]
Title:Pixie Dust
TitleUnicode:Pixie Dust
Artist:nanobii
ArtistUnicode:nanobii
Creator:-Enalos-
Version:Expert
Source:OSU!
Tags:
BeatmapID:1778461
BeatmapSetID:850669

[Difficulty]
HPDrainRate:6
CircleSize:3.6
OverallDifficulty:6.2
ApproachRate:8.8
SliderMultiplier:1.4
SliderTickRate:1

[Events]
//Background and Video events
0,0,"pixie dust.jpg",0,0
//Break Periods
//Storyboard Layer 0 (Background)
//Storyboard Layer 1 (Fail)
//Storyboard Layer 2 (Pass)
//Storyboard Layer 3 (Foreground)
//Storyboard Sound Samples

[TimingPoints]
0,333.333333333333,4,2,0,23,1,0
83,-100,4,2,0,23,0,0
44666,-66.6666666666667,4,2,0,55,0,1
63999,-111.111111111111,4,2,0,55,0,1
66833,-66.6666666666667,4,2,0,55,0,1
77333,-83.3333333333333,4,2,0,55,0,1
84999,-200,4,2,0,55,0,0
90916,-111.111111111111,4,2,0,5,0,0
98749,-100,4,2,0,44,0,0
99333,-100,4,2,0,55,0,0
123833,-66.6666666666667,4,2,0,55,0,0
143999,-66.6666666666667,4,2,0,55,0,1
183666,-500,4,2,0,55,0,1

[Colours]
Combo1 : 167,184,243
Combo2 : 21,234,128
Combo3 : 21,232,255
Combo4 : 128,128,192
Combo5 : 138,138,255

[HitObjects]
66,123,0,5,4,0:0:0:0:
234,284,166,1,0,0:0:0:0:
154,155,333,1,0,0:0:0:0:
154,286,499,1,0,0:0:0:0:
89,196,666,2,0,P|94:130|116:106,1,70
238,104,999,1,0,0:0:0:0:
341,186,1166,1,0,0:0:0:0:
178,214,1333,5,4,0:0:0:0:
304,271,1499,1,4,0:0:0:0:
107,142,1666,1,4,0:0:0:0:
106,243,1833,2,4,L|209:231,1,70
268,133,2166,1,4,0:0:0:0:
304,236,2333,1,4,0:0:0:0:
126,138,2499,1,4,0:0:0:0:
207,220,2666,1,4,0:0:0:0:
193,75,2833,5,4,0:0:0:0:
202,182,2999,1,4,0:0:0:0:
348,169,3166,2,4,L|290:226,1,70
160,326,3499,2,4,L|119:249,1,70
205,161,3833,1,0,0:0:0:0:
299,260,3999,2,0,P|323:204|319:164,1,70
171,277,4333,5,0,0:0:0:0:
101,198,4499,2,0,P|118:142|148:113,1,70
234,190,4833,1,0,0:0:0:0:
292,259,4999,2,0,P|277:311|250:325,1,70
175,197,5333,1,0,0:0:0:0:
241,112,5499,2,0,P|315:142|318:149,1,70
193,266,5833,6,0,L|144:193,1,70
95,243,6166,1,0,0:0:0:0:
164,127,6333,2,0,L|194:220,1,70
338,111,6666,2,0,L|250:93,1,70
356,195,6999,1,0,0:0:0:0:
252,93,7166,2,0,L|230:193,1,70
300,326,7499,6,0,L|212:287,1,70
263,221,7833,1,0,0:0:0:0:
140,192,7999,2,0,L|172:288,1,70
344,198,8333,2,0,L|383:118,1,70
111,105,8666,1,0,0:0:0:0:
195,201,8833,2,0,L|202:104,1,70
148,278,9166,6,0,L|97:213,1,70
283,260,9499,1,0,0:0:0:0:
191,336,9666,2,0,L|288:340,1,70
202,123,10083,5,4,0:0:0:0:
228,105,10166,1,4,0:0:0:0:
263,104,10249,1,4,0:0:0:0:
295,117,10333,1,4,0:0:0:0:
317,144,10416,1,4,0:0:0:0:
335,175,10499,2,4,P|337:219|316:259,1,70
145,244,10833,5,4,0:0:0:0:
160,82,10999,2,4,P|161:128|177:148,1,70
89,193,11333,1,4,0:0:0:0:
194,297,11499,1,4,0:0:0:0:
161,131,11666,1,4,0:0:0:0:
260,231,11833,1,4,0:0:0:0:
376,64,11999,5,4,0:0:0:0:
245,57,12166,1,4,0:0:0:0:
371,186,12333,1,4,0:0:0:0:
191,169,12499,1,0,0:0:0:0:
153,181,12583,1,0,0:0:0:0:
141,210,12666,1,0,0:0:0:0:
143,248,12749,1,0,0:0:0:0:
168,280,12833,1,0,0:0:0:0:
202,303,12916,1,0,0:0:0:0:
233,315,12999,2,0,L|305:336,1,70
318,159,13333,6,4,P|264:144|231:153,1,70
143,249,13666,1,4,0:0:0:0:
101,159,13833,1,4,0:0:0:0:
224,301,13999,6,4,P|274:283|307:283,1,70
385,230,14333,1,4,0:0:0:0:
387,140,14499,1,4,0:0:0:0:
128,138,14666,5,4,0:0:0:0:
323,197,14833,1,4,0:0:0:0:
99,289,14999,5,4,0:0:0:0:
234,189,15166,2,4,L|221:126,1,35
237,113,15333,1,4,0:0:0:0:
263,85,15416,1,4,0:0:0:0:
298,84,15499,1,4,0:0:0:0:
330,100,15583,1,4,0:0:0:0:
350,145,15666,2,4,P|347:198|332:233,1,70
232,283,15999,6,0,L|183:195,1,70
181,292,16333,1,0,0:0:0:0:
319,283,16499,1,0,0:0:0:0:
164,127,16666,6,0,L|237:126,1,70
103,131,16999,1,0,0:0:0:0:
299,135,17166,1,0,0:0:0:0:
215,291,17333,6,0,P|166:254|159:224,1,70
330,238,17666,1,0,0:0:0:0:
155,222,17833,1,0,0:0:0:0:
150,187,17916,1,0,0:0:0:0:
168,155,17999,1,0,0:0:0:0:
188,131,18083,1,0,0:0:0:0:
229,126,18166,2,0,L|328:128,1,70
303,255,18499,5,0,0:0:0:0:
196,302,18666,2,0,P|134:252|126:238,1,70
273,195,18999,1,0,0:0:0:0:
124,123,19166,2,0,P|171:84|201:80,1,70
125,211,19499,1,0,0:0:0:0:
305,258,19666,1,0,0:0:0:0:
136,278,19833,1,0,0:0:0:0:
147,173,19999,6,0,L|223:136,1,70
321,108,20333,1,0,0:0:0:0:
174,110,20499,1,0,0:0:0:0:
144,132,20583,1,0,0:0:0:0:
133,166,20666,1,0,0:0:0:0:
157,206,20749,1,0,0:0:0:0:
181,228,20833,2,0,L|278:251,1,70
121,129,21333,6,0,B|237:119|237:119|234:165,1,140
221,275,21999,2,0,P|163:255|148:233,1,70
357,127,22333,2,0,P|362:172|363:206,1,70
168,113,22666,2,0,P|130:165|169:245,1,140
333,80,23333,6,0,P|373:140|373:141,1,70
133,161,23666,2,0,L|132:246,1,70
367,185,23999,2,0,P|347:108|286:81,1,140
135,253,24666,6,0,P|105:186|109:169,1,70
190,311,24999,1,0,0:0:0:0:
123,131,25166,1,0,0:0:0:0:
239,270,25333,2,0,P|165:240|120:177,1,140
372,256,25999,6,0,L|388:164,1,70
146,216,26333,2,0,L|122:131,1,70
257,286,26666,2,0,L|253:132,1,140
155,115,27333,5,0,0:0:0:0:
199,300,27499,1,0,0:0:0:0:
362,96,27666,5,0,0:0:0:0:
345,286,27833,1,0,0:0:0:0:
250,91,27999,6,0,L|255:257,1,140
132,146,28666,5,0,0:0:0:0:
341,146,28833,1,0,0:0:0:0:
61,144,28999,5,0,0:0:0:0:
357,269,29166,1,0,0:0:0:0:
96,265,29333,2,0,B|117:181|117:181|166:238,1,140
197,128,29999,6,0,P|255:147|265:162,1,70
344,253,30333,2,0,P|324:204|340:160,1,70
115,218,30666,1,0,0:0:0:0:
306,108,30999,5,0,0:0:0:0:
220,231,31166,1,0,0:0:0:0:
413,175,31333,5,0,0:0:0:0:
177,149,31499,1,0,0:0:0:0:
379,265,31666,5,0,0:0:0:0:
120,186,31833,1,0,0:0:0:0:
211,298,31999,2,0,P|194:244|238:162,1,140
131,188,32666,5,0,0:0:0:0:
303,269,32833,1,0,0:0:0:0:
194,68,32999,5,0,0:0:0:0:
212,294,33166,1,0,0:0:0:0:
336,115,33333,2,0,L|190:197,1,140
316,288,33999,5,0,0:0:0:0:
161,208,34166,1,0,0:0:0:0:
350,118,34333,5,0,0:0:0:0:
115,235,34499,1,0,0:0:0:0:
189,122,34666,2,0,P|243:203|237:245,1,140
114,299,35333,6,0,L|138:211,1,70
373,85,35666,2,0,L|343:177,1,70
146,196,35999,2,0,L|265:88,1,140
200,291,36666,6,0,P|277:290|287:282,1,70
90,127,36999,2,0,L|109:214,1,70
221,201,37333,5,0,0:0:0:0:
274,297,37500,1,0,0:0:0:0:
327,115,37666,5,0,0:0:0:0:
185,169,37833,1,0,0:0:0:0:
280,253,37999,5,0,0:0:0:0:
257,111,38166,1,0,0:0:0:0:
157,278,38333,5,0,0:0:0:0:
121,85,38499,1,0,0:0:0:0:
237,282,38666,5,0,0:0:0:0:
364,64,38833,1,0,0:0:0:0:
169,162,38999,5,0,0:0:0:0:
350,302,39166,1,0,0:0:0:0:
249,53,39333,5,0,0:0:0:0:
245,246,39499,1,0,0:0:0:0:
348,106,39666,5,0,0:0:0:0:
150,102,39833,1,0,0:0:0:0:
318,308,39999,5,0,0:0:0:0:
256,69,40166,1,0,0:0:0:0:
181,221,40333,5,0,0:0:0:0:
339,100,40499,1,0,0:0:0:0:
234,311,40666,5,0,0:0:0:0:
112,62,40833,1,0,0:0:0:0:
334,204,40999,5,0,0:0:0:0:
73,220,41166,1,0,0:0:0:0:
272,62,41333,5,0,0:0:0:0:
136,333,41499,1,0,0:0:0:0:
136,66,41666,5,0,0:0:0:0:
328,335,41833,1,0,0:0:0:0:
80,263,41999,5,0,0:0:0:0:
370,211,42166,1,0,0:0:0:0:
192,329,42333,5,0,0:0:0:0:
341,53,42499,1,0,0:0:0:0:
255,191,42666,5,0,0:0:0:0:
255,191,42999,1,0,0:0:0:0:
255,191,43333,1,0,0:0:0:0:
255,191,43666,1,0,0:0:0:0:
255,191,43999,1,0,0:0:0:0:
255,191,44333,1,0,0:0:0:0:
103,218,44666,6,0,L|187:318,1,105.000004005432
139,124,44999,1,0,0:0:0:0:
233,320,45166,1,0,0:0:0:0:
357,89,45333,2,0,L|294:295,1,210.000008010865
129,197,45999,5,0,0:0:0:0:
255,83,46166,1,0,0:0:0:0:
385,198,46333,1,0,0:0:0:0:
258,326,46499,1,0,0:0:0:0:
258,100,46666,2,0,L|259:318,1,210.000008010865
161,104,47333,6,0,L|137:208,1,105.000004005432
332,102,47666,2,0,L|375:214,1,105.000004005432
246,89,47999,1,0,0:0:0:0:
264,311,48333,1,0,0:0:0:0:
141,123,48666,5,0,0:0:0:0:
366,214,48833,1,0,0:0:0:0:
151,265,48999,5,0,0:0:0:0:
357,95,49166,1,0,0:0:0:0:
100,187,49333,2,0,B|187:193|250:278|250:278|298:309,1,210.000008010865
171,84,49999,5,0,0:0:0:0:
308,240,50166,1,0,0:0:0:0:
106,286,50333,1,0,0:0:0:0:
257,144,50499,1,0,0:0:0:0:
346,304,50666,2,0,P|262:307|194:203,1,210.000008010865
356,154,51333,5,0,0:0:0:0:
125,178,51499,1,0,0:0:0:0:
362,324,51666,1,0,0:0:0:0:
209,83,51833,1,0,0:0:0:0:
157,291,51999,2,0,P|291:248|367:269,1,210.000008010865
112,151,52666,6,0,L|136:257,1,105.000004005432
349,151,52999,2,0,L|325:267,1,105.000004005432
165,93,53333,2,0,P|261:134|248:246,1,210.000008010865
323,126,53999,5,0,0:0:0:0:
215,206,54166,1,0,0:0:0:0:
128,68,54333,1,0,0:0:0:0:
328,286,54499,1,0,0:0:0:0:
130,259,54666,2,0,P|121:199|145:151,1,105.000004005432
231,119,54999,5,0,0:0:0:0:
368,255,55166,1,0,0:0:0:0:
107,182,55333,1,0,0:0:0:0:
370,124,55499,1,0,0:0:0:0:
158,334,55666,1,0,0:0:0:0:
396,199,55833,1,0,0:0:0:0:
137,88,55999,2,0,B|205:86|206:86|263:237,1,210.000008010865
65,186,56666,5,0,0:0:0:0:
313,196,56833,1,0,0:0:0:0:
103,102,56999,1,0,0:0:0:0:
250,276,57166,1,0,0:0:0:0:
325,111,57333,2,0,P|236:120|148:227,1,210.000008010865
168,116,57999,6,0,L|284:105,1,105.000004005432
325,188,58333,2,0,L|197:175,1,105.000004005432
154,272,58666,2,0,B|261:242|261:242|366:291,1,210.000008010865
107,215,59333,6,0,L|177:122,1,105.000004005432
214,269,59666,1,0,0:0:0:0:
125,51,59833,1,0,0:0:0:0:
289,133,59999,2,0,P|181:171|250:211,1,210.000008010865
394,195,60666,6,0,L|319:75,1,105.000004005432
130,280,60999,2,0,L|137:160,1,105.000004005432
394,201,61333,1,0,0:0:0:0:
77,211,61666,1,0,0:0:0:0:
326,115,61999,5,0,0:0:0:0:
180,157,62166,1,0,0:0:0:0:
353,189,62333,1,0,0:0:0:0:
89,85,62499,1,0,0:0:0:0:
118,226,62666,2,0,L|327:314,1,210.000008010865
335,135,63333,6,0,L|216:138,1,105.000004005432
130,259,63666,2,0,L|52:164,1,105.000004005432
108,99,63999,6,0,B|78:222|79:230|168:323|168:323|209:257|184:193|181:93|181:93|199:116|282:35|282:35|389:138|325:174|276:179|281:271|281:271|335:311|335:311|390:264,1,1007.99996923828
253,118,66999,5,0,0:0:0:0:
95,246,67333,2,0,L|225:300,1,105.000004005432
83,150,67666,2,0,P|47:220|59:267,1,105.000004005432
109,75,67999,2,0,P|172:75|222:215,1,210.000008010865
365,78,68666,6,0,P|298:78|272:136,1,105.000004005432
193,246,69000,2,0,P|232:283|297:269,1,105.000004005432
115,206,69333,2,0,P|205:142|308:209,1,210.000008010865
105,129,69999,5,0,0:0:0:0:
195,231,70166,1,0,0:0:0:0:
386,117,70333,1,0,0:0:0:0:
128,178,70499,1,0,0:0:0:0:
255,73,70666,1,0,0:0:0:0:
257,287,70999,5,0,0:0:0:0:
212,175,71166,1,0,0:0:0:0:
319,108,71333,1,0,0:0:0:0:
168,250,71499,1,0,0:0:0:0:
337,205,71666,1,0,0:0:0:0:
154,141,71833,1,0,0:0:0:0:
245,278,71999,6,0,P|287:245|255:97,1,210.000008010865
137,194,72666,1,0,0:0:0:0:
275,144,72833,1,0,0:0:0:0:
72,124,72999,1,0,0:0:0:0:
285,227,73166,1,0,0:0:0:0:
145,71,73333,2,0,P|273:89|330:160,1,210.000008010865
294,91,73999,5,0,0:0:0:0:
170,280,74166,1,0,0:0:0:0:
390,75,74333,1,0,0:0:0:0:
271,284,74499,1,0,0:0:0:0:
446,140,74666,1,0,0:0:0:0:
124,219,74999,1,0,0:0:0:0:
137,94,75333,6,0,P|196:80|239:125,1,105.000004005432
306,109,75666,2,0,P|360:86|417:127,1,105.000004005432
371,286,75999,2,0,P|261:325|130:310,1,210.000008010865
254,234,76666,5,0,0:0:0:0:
336,164,76833,1,0,0:0:0:0:
295,312,76999,1,0,0:0:0:0:
208,79,77166,1,0,0:0:0:0:
94,168,77333,5,0,0:0:0:0:
266,300,77666,1,0,0:0:0:0:
134,233,77999,2,0,P|142:82|278:126,1,335.999989746094
283,217,78999,2,0,L|101:273,1,167.999994873047
126,158,79666,1,0,0:0:0:0:
303,190,80333,1,0,0:0:0:0:
206,256,80666,2,0,B|99:184|99:184|328:163,1,335.999989746094
297,278,81666,2,0,L|212:100,1,167.999994873047
286,104,82333,6,0,P|352:131|367:232,1,167.999994873047
290,289,82999,1,0,0:0:0:0:
115,228,83333,1,0,0:0:0:0:
264,135,83666,1,0,0:0:0:0:
123,158,83999,2,0,P|161:237|243:244,1,167.999994873047
190,109,84666,1,0,0:0:0:0:
356,222,84999,6,0,B|329:183|199:264|199:264|269:334|269:334|355:310|410:286|442:256|442:256|442:173|395:131|395:131|243:45|108:88|108:88|164:172|164:172|77:240|150:322,1,1172.5
175,338,90666,1,0,0:0:0:0:
86,189,90916,6,0,L|119:162,1,31.4999990386963
133,156,91083,1,0,0:0:0:0:
151,148,91166,1,0,0:0:0:0:
174,144,91249,1,0,0:0:0:0:
201,153,91333,1,0,0:0:0:0:
217,171,91416,1,0,0:0:0:0:
230,188,91499,1,0,0:0:0:0:
239,206,91583,1,0,0:0:0:0:
252,228,91666,1,0,0:0:0:0:
260,245,91749,1,0,0:0:0:0:
276,262,91833,1,0,0:0:0:0:
296,277,91916,1,0,0:0:0:0:
185,285,92083,5,0,0:0:0:0:
88,184,92249,1,0,0:0:0:0:
183,111,92416,6,0,L|171:159,1,31.4999990386963
178,176,92583,1,0,0:0:0:0:
190,189,92666,1,0,0:0:0:0:
210,203,92749,1,0,0:0:0:0:
227,217,92833,1,0,0:0:0:0:
243,231,92916,1,0,0:0:0:0:
260,245,92999,1,0,0:0:0:0:
266,264,93083,1,0,0:0:0:0:
261,278,93166,1,0,0:0:0:0:
243,290,93249,1,0,0:0:0:0:
228,300,93333,1,0,0:0:0:0:
365,338,93499,5,0,0:0:0:0:
430,233,93666,1,0,0:0:0:0:
310,185,93833,5,0,0:0:0:0:
310,161,93916,1,0,0:0:0:0:
306,141,94000,1,0,0:0:0:0:
293,126,94083,1,0,0:0:0:0:
275,113,94166,1,0,0:0:0:0:
241,108,94250,1,0,0:0:0:0:
219,106,94333,5,0,0:0:0:0:
190,101,94416,1,0,0:0:0:0:
169,93,94500,1,0,0:0:0:0:
151,92,94583,1,0,0:0:0:0:
132,102,94666,1,0,0:0:0:0:
110,234,94833,1,0,0:0:0:0:
222,286,94999,1,0,0:0:0:0:
201,195,95166,5,0,0:0:0:0:
219,167,95249,1,0,0:0:0:0:
236,151,95333,1,0,0:0:0:0:
262,138,95416,1,0,0:0:0:0:
289,137,95499,1,0,0:0:0:0:
316,142,95583,1,0,0:0:0:0:
342,158,95666,1,0,0:0:0:0:
365,184,95749,1,0,0:0:0:0:
374,206,95833,1,0,0:0:0:0:
374,230,95916,1,0,0:0:0:0:
366,249,95999,1,0,0:0:0:0:
266,306,96166,6,0,L|193:263,1,62.9999980773926
145,176,96499,5,0,0:0:0:0:
137,189,96583,1,0,0:0:0:0:
144,209,96666,1,0,0:0:0:0:
158,213,96749,1,0,0:0:0:0:
176,209,96833,1,0,0:0:0:0:
190,198,96916,1,0,0:0:0:0:
199,184,96999,1,0,0:0:0:0:
207,170,97083,1,0,0:0:0:0:
213,155,97166,1,0,0:0:0:0:
222,144,97249,1,0,0:0:0:0:
231,131,97333,1,0,0:0:0:0:
328,155,97499,6,0,L|317:237,1,62.9999980773926
252,322,97833,5,0,0:0:0:0:
248,308,97916,1,0,0:0:0:0:
244,292,97999,1,0,0:0:0:0:
233,281,98083,1,0,0:0:0:0:
221,269,98166,1,0,0:0:0:0:
212,262,98249,1,0,0:0:0:0:
200,249,98333,1,0,0:0:0:0:
195,238,98416,1,0,0:0:0:0:
199,220,98499,1,0,0:0:0:0:
209,204,98583,1,0,0:0:0:0:
307,171,98749,2,0,L|228:134,1,70
195,119,98999,5,0,0:0:0:0:
248,316,99333,2,0,B|360:239|332:142|331:142|130:233|130:234|254:75,1,420.000016021729
348,142,100499,2,0,P|360:198|301:282,1,140
116,128,101166,2,0,B|92:217|92:217|272:52|212:329|212:329|249:336,1,420
123,318,102333,2,0,B|92:269|92:269|228:264|162:177|53:149|53:146|151:62|151:62|287:244|287:245|194:354,1,700
292,290,104333,5,0,0:0:0:0:
164,268,104499,1,0,0:0:0:0:
355,59,104833,2,0,B|380:169|354:211|354:211|234:50|147:171|147:171|109:263|163:329|260:330,1,630
296,278,106499,2,0,B|247:255|132:328|54:271|84:163,1,280
88,104,107333,1,0,0:0:0:0:
92,253,107499,1,0,0:0:0:0:
281,77,107833,6,0,P|217:95|207:235,1,210
296,208,108499,1,0,0:0:0:0:
152,296,108666,1,0,0:0:0:0:
165,106,108833,2,0,B|74:246|135:272|136:273|294:312|295:313|231:224|230:222|366:82|366:82|355:309|355:309|124:311|124:311|58:144|58:144|135:38|135:38|221:33,1,1330
123,162,112333,5,0,0:0:0:0:
321,151,112666,2,0,L|258:94,1,70
139,107,113166,2,0,P|97:185|135:248,1,140
326,246,113833,2,0,P|289:188|206:188,1,140
141,109,114499,2,0,B|94:258|94:260,1,140
234,268,114999,1,0,0:0:0:0:
206,118,115166,1,0,0:0:0:0:
350,209,115499,2,0,B|325:294|325:294|274:88,1,280
172,97,116499,6,0,L|171:188,1,70
243,63,116999,1,0,0:0:0:0:
259,170,117166,2,0,P|203:153|132:222,1,140
303,274,117666,2,0,L|337:188,1,70
143,172,117999,1,0,0:0:0:0:
359,197,118166,1,0,0:0:0:0:
152,289,118333,1,0,0:0:0:0:
183,98,118499,5,0,0:0:0:0:
306,133,118666,2,0,P|321:170|313:224,1,70
132,186,119166,1,0,0:0:0:0:
277,283,119499,2,0,P|328:253|279:135,1,210
155,169,120499,1,0,0:0:0:0:
308,275,120666,5,0,0:0:0:0:
223,93,120833,1,0,0:0:0:0:
206,228,120999,1,0,0:0:0:0:
303,137,121166,2,0,P|321:180|254:270,1,140
119,124,121833,2,0,B|66:190|67:191|211:270|211:270|262:66|262:66|366:261|366:261|254:326,1,770
145,153,123999,6,0,L|148:258,1,105.000004005432
292,275,124333,1,0,0:0:0:0:
140,264,124666,5,0,0:0:0:0:
250,192,124833,1,0,0:0:0:0:
362,96,124999,1,0,0:0:0:0:
247,197,125166,1,0,0:0:0:0:
139,222,125333,2,0,B|137:124|137:124|254:90,1,210.000008010865
245,243,125999,5,0,0:0:0:0:
225,199,126166,1,0,0:0:0:0:
271,185,126333,1,0,0:0:0:0:
290,233,126499,1,0,0:0:0:0:
150,249,126666,2,0,B|148:121|148:121|221:65,1,210.000008010865
196,229,127333,5,0,0:0:0:0:
301,255,127499,1,0,0:0:0:0:
325,157,127666,1,0,0:0:0:0:
219,126,127833,1,0,0:0:0:0:
259,308,127999,2,0,B|372:315|372:315|429:193,1,210.000008010865
62,167,128666,5,0,0:0:0:0:
107,244,128833,1,0,0:0:0:0:
182,207,128999,1,0,0:0:0:0:
140,129,129166,1,0,0:0:0:0:
325,323,129333,2,0,P|379:272|327:162,1,210.000008010865
177,304,129999,5,0,0:0:0:0:
266,329,130166,1,0,0:0:0:0:
281,230,130333,1,0,0:0:0:0:
190,209,130499,1,0,0:0:0:0:
292,69,130666,2,0,P|360:112|383:249,1,210.000008010865
114,157,131333,5,0,0:0:0:0:
277,72,131499,1,0,0:0:0:0:
381,183,131666,1,0,0:0:0:0:
345,324,131833,1,0,0:0:0:0:
189,117,131999,2,0,B|197:228|197:233|258:320,1,210.000008010865
81,211,132666,5,0,0:0:0:0:
216,211,132833,1,0,0:0:0:0:
323,215,132999,1,0,0:0:0:0:
434,213,133166,1,0,0:0:0:0:
290,318,133333,2,0,P|377:300|410:269,1,105.000004005432
175,151,133666,6,0,L|145:264,1,105.000004005432
409,230,133999,2,0,P|374:168|337:169,1,105.000004005432
115,118,134333,2,0,P|174:88|221:94,1,105.000004005432
225,257,134666,2,0,L|152:344,1,105.000004005432
148,161,134999,6,0,L|254:179,1,105.000004005432
289,311,135333,2,0,P|330:272|331:187,1,105.000004005432
134,218,135666,2,0,P|150:155|181:128,1,105.000004005432
388,222,135999,2,0,L|262:260,1,105.000004005432
148,122,136333,6,0,L|265:135,1,105.000004005432
325,291,136666,2,0,L|185:284,1,105.000004005432
197,87,136999,2,0,L|304:103,1,105.000004005432
294,337,137333,2,0,L|146:311,1,105.000004005432
110,149,137666,6,0,L|124:261,1,105.000004005432
361,151,137999,2,0,L|327:280,1,105.000004005432
143,86,138333,2,0,L|182:200,1,105.000004005432
355,196,138666,5,0,0:0:0:0:
201,67,138833,1,0,0:0:0:0:
232,248,138999,5,0,0:0:0:0:
369,102,139166,1,0,0:0:0:0:
148,154,139333,5,0,0:0:0:0:
322,328,139499,1,0,0:0:0:0:
254,60,139666,5,0,0:0:0:0:
161,266,139833,1,0,0:0:0:0:
344,137,139999,5,0,0:0:0:0:
239,317,140166,1,0,0:0:0:0:
414,198,140333,5,0,0:0:0:0:
163,213,140499,1,0,0:0:0:0:
313,48,140666,5,0,0:0:0:0:
310,313,140833,1,0,0:0:0:0:
152,77,140999,5,0,0:0:0:0:
394,216,141166,1,0,0:0:0:0:
160,299,141333,5,0,0:0:0:0:
287,75,141499,1,0,0:0:0:0:
80,181,141666,5,0,0:0:0:0:
326,322,141833,1,0,0:0:0:0:
297,200,141999,5,0,0:0:0:0:
309,164,142083,1,0,0:0:0:0:
294,130,142166,1,0,0:0:0:0:
255,108,142249,1,0,0:0:0:0:
219,104,142333,1,0,0:0:0:0:
180,115,142416,1,0,0:0:0:0:
161,128,142499,1,0,0:0:0:0:
206,308,142666,6,0,L|268:211,1,105.000004005432
366,253,142999,2,0,L|328:293,1,52.5000020027161
152,218,143249,2,0,L|155:162,1,52.5000020027161
246,290,143499,2,0,L|181:274,4,52.5000020027161
94,209,143999,6,0,P|128:160|296:135,1,210.000008010865
168,303,144666,1,0,0:0:0:0:
326,75,144833,1,0,0:0:0:0:
101,228,144999,1,0,0:0:0:0:
375,151,145166,1,0,0:0:0:0:
168,118,145333,2,0,P|163:192|260:281,1,210.000008010865
319,108,145999,5,0,0:0:0:0:
319,314,146166,1,0,0:0:0:0:
166,98,146333,1,0,0:0:0:0:
193,322,146499,1,0,0:0:0:0:
117,233,146666,2,0,P|175:191|304:226,1,210.000008010865
208,147,147333,5,0,0:0:0:0:
357,264,147499,1,0,0:0:0:0:
172,271,147666,1,0,0:0:0:0:
344,157,147833,1,0,0:0:0:0:
265,267,147999,2,0,P|226:168|283:79,1,210.000008010865
170,166,148666,5,0,0:0:0:0:
301,309,148833,1,0,0:0:0:0:
119,214,148999,1,0,0:0:0:0:
361,95,149166,1,0,0:0:0:0:
210,119,149333,2,0,P|244:206|356:253,1,210.000008010865
141,256,149999,5,0,0:0:0:0:
351,175,150166,1,0,0:0:0:0:
165,126,150333,5,0,0:0:0:0:
383,322,150499,1,0,0:0:0:0:
187,336,150666,2,0,B|191:206|191:205|117:130,1,210.000008010865
95,280,151333,5,0,0:0:0:0:
178,69,151500,1,0,0:0:0:0:
379,306,151666,5,0,0:0:0:0:
311,86,151833,1,0,0:0:0:0:
227,291,152000,2,0,B|174:184|172:184|336:173,1,210.000008010865
115,173,152666,6,0,L|183:77,1,105.000004005432
317,302,152999,2,0,L|381:188,1,105.000004005432
116,286,153333,1,0,0:0:0:0:
280,97,153666,5,0,0:0:0:0:
109,183,153833,1,0,0:0:0:0:
347,214,153999,1,0,0:0:0:0:
152,120,154166,1,0,0:0:0:0:
265,348,154333,1,0,0:0:0:0:
218,127,154499,1,0,0:0:0:0:
186,272,154666,6,0,B|259:243|259:243|395:315,1,210.000008010865
135,213,155333,5,0,0:0:0:0:
268,256,155499,1,0,0:0:0:0:
155,140,155666,1,0,0:0:0:0:
199,280,155833,1,0,0:0:0:0:
232,166,155999,2,0,P|179:160|69:275,1,210.000008010865
294,189,156666,6,0,L|265:83,1,105.000004005432
327,304,156999,2,0,L|295:191,1,105.000004005432
257,47,157333,2,0,L|315:258,1,210.000008010865
119,160,157999,5,0,0:0:0:0:
229,261,158166,1,0,0:0:0:0:
91,132,158333,1,0,0:0:0:0:
266,288,158499,1,0,0:0:0:0:
113,158,158666,2,0,L|283:302,1,210.000008010865
317,144,159333,6,0,P|368:213|364:270,1,105.000004005432
188,119,159666,2,0,P|145:191|157:236,1,105.000004005432
312,62,159999,2,0,P|372:122|344:248,1,210.000008010865
94,217,160666,5,0,0:0:0:0:
209,179,160833,1,0,0:0:0:0:
303,278,160999,1,0,0:0:0:0:
409,235,161166,1,0,0:0:0:0:
239,109,161333,2,0,P|184:171|219:294,1,210.000008010865
350,202,161999,5,0,0:0:0:0:
304,317,162166,1,0,0:0:0:0:
130,238,162333,1,0,0:0:0:0:
281,184,162499,1,0,0:0:0:0:
110,128,162666,5,0,0:0:0:0:
235,316,162833,1,0,0:0:0:0:
260,70,162999,5,0,0:0:0:0:
101,253,163166,1,0,0:0:0:0:
337,241,163333,5,0,0:0:0:0:
208,132,163499,1,0,0:0:0:0:
235,316,163666,5,0,0:0:0:0:
356,97,163833,1,0,0:0:0:0:
126,214,163999,5,0,0:0:0:0:
379,244,164166,1,0,0:0:0:0:
195,73,164333,5,0,0:0:0:0:
297,319,164499,1,0,0:0:0:0:
285,70,164666,5,0,0:0:0:0:
182,318,164833,1,0,0:0:0:0:
412,129,164999,5,0,0:0:0:0:
125,238,165166,1,0,0:0:0:0:
295,269,165333,2,0,P|281:195|125:177,1,210.000008010865
231,95,165999,6,0,L|333:168,1,105.000004005432
169,95,166333,2,0,L|269:174,1,105.000004005432
313,264,166666,2,0,L|156:116,1,210.000008010865
312,88,167333,5,0,0:0:0:0:
119,129,167499,1,0,0:0:0:0:
344,182,167666,1,0,0:0:0:0:
136,68,167833,1,0,0:0:0:0:
382,64,167999,1,0,0:0:0:0:
134,307,168333,1,0,0:0:0:0:
177,175,168666,5,0,0:0:0:0:
266,254,168833,1,0,0:0:0:0:
225,59,168999,1,0,0:0:0:0:
116,230,169166,1,0,0:0:0:0:
274,175,169333,2,0,P|197:127|85:183,1,210.000008010865
336,125,169999,5,0,0:0:0:0:
154,275,170166,1,0,0:0:0:0:
119,66,170333,1,0,0:0:0:0:
370,328,170499,1,0,0:0:0:0:
110,221,170666,2,0,P|180:236|263:124,1,210.000008010865
123,168,171333,5,0,0:0:0:0:
326,283,171499,1,0,0:0:0:0:
73,276,171666,1,0,0:0:0:0:
262,67,171833,1,0,0:0:0:0:
192,298,171999,2,0,P|163:191|83:109,1,210.000008010865
279,194,172666,5,0,0:0:0:0:
177,172,172833,1,0,0:0:0:0:
310,206,172999,1,0,0:0:0:0:
144,164,173166,1,0,0:0:0:0:
347,189,173333,2,0,P|270:111|148:115,1,210.000008010865
221,286,173999,6,0,L|372:267,1,105.000004005432
194,104,174333,2,0,L|75:123,1,105.000004005432
249,229,174666,2,0,B|310:229|312:229|140:193|140:193|124:235,1,210.000008010865
334,284,175333,5,0,0:0:0:0:
136,168,175499,1,0,0:0:0:0:
259,324,175666,1,0,0:0:0:0:
197,62,175833,1,0,0:0:0:0:
385,147,175999,6,0,P|294:101|197:160,1,210.000008010865
368,73,176666,1,0,0:0:0:0:
143,150,176999,2,0,P|239:165|322:360,1,315.000012016297
203,268,177666,1,0,0:0:0:0:
387,195,177833,1,0,0:0:0:0:
135,185,177999,2,0,B|143:281|143:284|272:49|272:49|317:283,1,525.000020027161
248,322,178999,2,0,P|173:280|46:316,1,210.000008010865
98,210,179499,5,0,0:0:0:0:
250,204,179666,2,0,B|168:90|168:89|128:351,1,315.000012016297
210,323,180333,1,0,0:0:0:0:
319,311,180499,1,0,0:0:0:0:
357,217,180666,1,0,0:0:0:0:
261,149,180833,2,0,B|182:232|182:232|405:295,1,315.000012016297
150,204,181666,5,0,0:0:0:0:
301,178,181833,1,0,0:0:0:0:
113,104,181999,1,0,0:0:0:0:
219,282,182166,2,0,B|240:180|164:69|164:69|279:99,1,315.000012016297
348,169,182999,2,0,P|345:249|225:343,1,210.000008010865
139,214,183666,6,0,B|106:164|114:126|115:123|192:80|194:79|240:191|240:191|158:317|158:318|225:326|267:318|297:291|297:290|313:169|313:169|378:211|378:213|373:313,1,784
